Subcategories

Orange Goblin - 5CD Box Set (2011) RESTORED

Posted By: Necromandus
Orange Goblin - 5CD Box Set (2011) RESTORED

Orange Goblin - 5CD Box Set (2011)
EAC Rip | FLAC, IMG+CUE+LOG | 2.5 GB | MP3 CBR 320 Kbps | 800 MB | Complete HQ Scans | PNG -> 400 MB
Stoner/Doom Metal | Label: Metal Blade/Rise Above #3984-15008-2 | RAR 3% Rec. | Nitroflare.com

This is the long awaited remastered reissues of the first five Orange Goblin albums that were recorded during their time on Rise Above Records. Some of these titles have been long out of print and are now presented in digipak format with many bonus tracks and previously unseen photo's.
In the 1990s, quite a few bands proudly flew both the stoner metal and doom metal flags. And just what is the difference between the two genres, you ask? The answer is…not exactly a whole lot, as bands from both genres often worshiped Black Sabbath, as evidenced by the riff-heavy music and the fact that lyric-wise, each tended to be very similar to two specific Sab songs – "Hand of Doom" (for doom metal) and "Sweet Leaf" (for stoner metal). And England's Orange Goblin seemed to pledge their allegiance to both metal subgenres. Formed in 1995, the band issued five albums during an eight-year period – 1997's Frequencies from Planet Ten, 1998's Time Travelling Blues, 2000's The Big Black, 2002's Coup de Grace, and 2004's Thieving from the House of God. And in 2011, all five of these albums were reissued and expanded as part of a five-disc, self-titled box set. Of the newly added bonus cuts, you'll find quite a few cover tunes, including Black Sabbath's "Into the Void" (what a surprise!) as well as Motörhead's "No Class" and the Damned's "New Rose," among other covers, demos, and live BBC recordings. And as heard on such standout tracks as "Saruman's Wish," "Blue Snow," "Scorpionica," and "Some You Win, Some You Lose," Orange Goblin were certainly capable of penning their own metallic ass-kickers. All the Orange Goblin you could ever want is lurking inside this neatly assembled box set. The only thing that's missing is a lava lamp and incense.



Orange Goblin - 5CD Box Set (2011) RESTORED

Orange Goblin - Frequencies From Planet Ten (1997)
FLAC, IMG+CUE+LOG | 450 MB | MP3 CBR 320 Kbps | 160 MB | PNG -> 80 MB
Label: Metal Blade/Rise Above #3984-15012-2 | RAR 3% Rec. | FilePost

Upon first listen, Orange Goblin's interestingly named Frequencies From Planet Ten was a remarkably professional-sounding debut, but a closer look quickly revealed that the band's sonic identity was still maturing. Opener "The Astral Project" serves as their de facto resumé, covering the band's entire stylistic repertoire, including doomy riffs, psychedelic melodies, spacey jams, stoner grooves, and even, occasionally, jazzy accents. Most of the songs that follow revisit these elements – all of them – at once! And that's where the boys' bluff is called. While they obviously worked their butts off trying to please all the camps, the disc's best songs are usually those where they stop trying to be so damn eclectic and just get down to some serious head banging. For proof, check out the killer intro and minor chord perfection of "Land of Secret Dreams" (arguably the album's best offering) and the all-out pummeling of the excellent "Aquatic Fanatic." They also have a little fun exploring their healthy fetish for J.R.R. Tolkien on tracks like "Saruman's Wish" and "Lothlorian," as well as their very name, of course. All things considered, this was a solid first effort, and while they would subsequently suffer the expected growing pains, Orange Goblin was on their way to bigger and better things.

~ allmusic.com
Tracklist :

1. The Astral Project - 6:50
2. Magic Carpet - 3:20
3. Saruman's Wish - 6:04
4. Song Of The Purple Mushroom Fish - 2:39
5. Aquatic Fanatic - 4:15
6. Lothlorian - 1:27
7. Land Of Secret Dreams - 7:38
8. Orange Goblin - 5:34
9. Star Shaped Cloud - 7:06
10. Saruman's Wish (Demo Version) (Bonus Track) - 5:40
11. Aquatic Fanatic (Demo Version) (Bonus Track) - 4:31
12. Black Shapes Of Doom (Trouble Cover) (Bonus Track) - 3:41

Exact Audio Copy V1.0 beta 3 from 29. August 2011

EAC extraction logfile from 16. June 2012, 15:26

Orange Goblin / Frequencies From Planet Ten (2011, 3984-15012-2)

Used drive : PIONEER DVD-RW DVR-219L Adapter: 1 ID: 0

Read mode : Secure
Utilize accurate stream : Yes
Defeat audio cache : Yes
Make use of C2 pointers : No

Read offset correction : 6
Overread into Lead-In and Lead-Out : No
Fill up missing offset samples with silence : Yes
Delete leading and trailing silent blocks : No
Null samples used in CRC calculations : Yes
Used interface : Native Win32 interface for Win NT & 2000

Used output format : Internal WAV Routines
Sample format : 44.100 Hz; 16 Bit; Stereo


TOC of the extracted CD

Track | Start | Length | Start sector | End sector
––––––––––––––––––––––––––––-
1 | 0:00.00 | 6:49.63 | 0 | 30737
2 | 6:49.63 | 3:19.67 | 30738 | 45729
3 | 10:09.55 | 6:04.03 | 45730 | 73032
4 | 16:13.58 | 2:38.56 | 73033 | 84938
5 | 18:52.39 | 4:15.21 | 84939 | 104084
6 | 23:07.60 | 1:26.69 | 104085 | 110603
7 | 24:34.54 | 7:38.25 | 110604 | 144978
8 | 32:13.04 | 5:33.66 | 144979 | 170019
9 | 37:46.70 | 7:06.31 | 170020 | 202000
10 | 44:53.26 | 5:39.47 | 202001 | 227472
11 | 50:32.73 | 4:31.19 | 227473 | 247816
12 | 55:04.17 | 3:40.63 | 247817 | 264379


Range status and errors

Selected range

Filename D:\.www.AvaxHome.ru\Orange Goblin - Frequencies From Planet Ten (2011, 3984-15012-2).wav

Peak level 97.7 %
Extraction speed 7.1 X
Range quality 100.0 %
Test CRC 3677F399
Copy CRC 3677F399
Copy OK

No errors occurred


AccurateRip summary

Track 1 cannot be verified as accurate (confidence 5) [97C1A30D], AccurateRip returned [35060A24] (AR v2)
Track 2 cannot be verified as accurate (confidence 5) [9AA5D7C8], AccurateRip returned [BA57A734] (AR v2)
Track 3 cannot be verified as accurate (confidence 5) [AA788F36], AccurateRip returned [246CB933] (AR v2)
Track 4 cannot be verified as accurate (confidence 5) [9F80A17D], AccurateRip returned [F542176E] (AR v2)
Track 5 cannot be verified as accurate (confidence 5) [CB944314], AccurateRip returned [6256F518] (AR v2)
Track 6 cannot be verified as accurate (confidence 5) [8A2FEF4F], AccurateRip returned [04730ECC] (AR v2)
Track 7 cannot be verified as accurate (confidence 5) [E1F9BBC4], AccurateRip returned [8E0BE291] (AR v2)
Track 8 cannot be verified as accurate (confidence 5) [231011D4], AccurateRip returned [98959D38] (AR v2)
Track 9 cannot be verified as accurate (confidence 5) [ABC139BC], AccurateRip returned [996B654A] (AR v2)
Track 10 cannot be verified as accurate (confidence 5) [B69686EA], AccurateRip returned [170789BB] (AR v2)
Track 11 cannot be verified as accurate (confidence 5) [0BC23178], AccurateRip returned [5F581DD9] (AR v2)
Track 12 cannot be verified as accurate (confidence 5) [0305EDD4], AccurateRip returned [6F7D5089] (AR v2)

No tracks could be verified as accurate
You may have a different pressing from the one(s) in the database

End of status report

–– CUETools DB Plugin V2.1.3

[CTDB TOCID: FgTmBrZOKzknuC4g3HZb7zRRkCM-] found, Submit result: FgTmBrZOKzknuC4g3HZb7zRRkCM- has been confirmed
[678cdaa4] (3/3) Accurately ripped


==== Log checksum 102C0AE1C876EB999523E9BED8B40705E499AB02D043177B15F2017866972A03 ====

–––––––––––-

DON'T MODIFY THIS FILE

–––––––––––-

PERFORMER: auCDtect Task Manager, ver. 1.5.1RC3 build 1.5.1.4
Copyright © 2008-2010 y-soft. All rights reserved
http://y-soft.org

ANALYZER: auCDtect: CD records authenticity detector, version 0.8.2
Copyright © 2004 Oleg Berngardt. All rights reserved.
Copyright © 2004 Alexander Djourik. All rights reserved.


FILE: Orange Goblin - Frequencies From Planet Ten (2011, 3984-15012-2).wav
Size: 621821804 Hash: 585C07CA22D732B891A6B30AC8AB2C49 Accuracy: -m0
Conclusion: CDDA 100%
Signature: 37A6A590525C78DFC2E5BF0271247B89778F3593
================================================================================
foobar2000 1.1.3 / Dynamic Range Meter 1.1.0
log date: 2012-07-05 20:05:39

––––––––––––––––––––––––––––––––––––––––
Analyzed: Orange Goblin / Frequencies From Planet Ten (2011, 3984-15012-2)
––––––––––––––––––––––––––––––––––––––––

DR Peak RMS Duration Track
––––––––––––––––––––––––––––––––––––––––
DR6 -0.20 dB -8.33 dB 6:50 01-The Astral Project
DR6 -0.20 dB -6.93 dB 3:20 02-Magic Carpet
DR6 -0.20 dB -7.74 dB 6:04 03-Saruman's Wish
DR10 -0.60 dB -14.96 dB 2:39 04-Song Of The Purple Mushroom Fish
DR6 -0.20 dB -8.22 dB 4:15 05-Aquatic Fanatic
DR11 -0.86 dB -15.67 dB 1:27 06-Lothlorian
DR6 -0.20 dB -7.60 dB 7:38 07-Land Of Secret Dreams
DR6 -0.20 dB -7.26 dB 5:34 08-Orange Goblin
DR7 -0.20 dB -9.09 dB 7:06 09-Star Shaped Cloud
DR6 -0.20 dB -8.74 dB 5:40 10-Saruman's Wish (Demo Version) (Bonus Track)
DR7 -0.20 dB -9.04 dB 4:31 11-Aquatic Fanatic (Demo Version) (Bonus Track)
DR6 -0.20 dB -6.74 dB 3:41 12-Black Shapes Of Doom (Trouble Cover) (Bonus Track)
––––––––––––––––––––––––––––––––––––––––

Number of tracks: 12
Official DR value: DR7

Samplerate: 44100 Hz
Channels: 2
Bits per sample: 16
Bitrate: 1411 kbps
Codec: PCM
================================================================================





Orange Goblin - 5CD Box Set (2011) RESTORED

Orange Goblin - Time Travelling Blues (1998)
FLAC, IMG+CUE+LOG | 520 MB | MP3 CBR 320 Kbps | 170 MB | PNG -> 80 MB
Label: Metal Blade/Rise Above #3984-15013-2 | RAR 3% Rec. | FilePost

Following just a year after their impressive debut, Time Traveling Blues is essentially a holding pattern for England's Orange Goblin, both in terms of quality and creativity. Opener "Blue Snow" slowly grinds into gear (revving Harley Davidson and all) and leather-lunged stoned giant Ben Ward soon takes over, leading his troops through the colossal riffing of "Solarisphere" and the pile-driving intensity of "The Man Who Invented Time." The spirit of Deep Purple is channeled into the organ-led opening to "Shine," which quickly devolves into a virtual remake of Sabbath's "Planet Caravan" before exploding into action with what is possibly the album's most memorable riff. Unfortunately, the band seems to blow their entire load in the album's first half, and the remaining material succumbs to that dreaded stoner rock no man's land of repetitive riffs, inconclusive jams, and indifferent vocal performances, none of which leaves any lasting impressions. Occasional bright spots pepper the Southern rock-ish "Lunarville 7, Airlock 3," but you just know these guys can do better. And thankfully they would with their next outing, the excellent The Big Black.

~ allmusic.com
Tracklist :

1. Blue Snow - 4:23
2. Solarisphere - 6:10
3. Shine - 6:57
4. The Man Who Invented Time - 3:49
5. Diesel (Phunt) - 2:46
6. Snail Hook - 5:49
7. Nuclear Guru - 6:16
8. Lunarville 7, Airlock 3 - 4:31
9. Time Travelling Blues - 6:42
10. Nuclear Guru (Man's Ruin Version) (Bonus Track) - 6:47
11. Blue Snow (Live At The BBC Maida Vale Studio) (Bonus Track) - 4:03
12. Hand Of Doom (Black Sabbath Cover) (Bonus Track) - 7:04

Exact Audio Copy V1.0 beta 3 from 29. August 2011

EAC extraction logfile from 16. June 2012, 16:02

Orange Goblin / Time Travelling Blues (2011, 3984-15013-2)

Used drive : PIONEER DVD-RW DVR-219L Adapter: 1 ID: 0

Read mode : Secure
Utilize accurate stream : Yes
Defeat audio cache : Yes
Make use of C2 pointers : No

Read offset correction : 6
Overread into Lead-In and Lead-Out : No
Fill up missing offset samples with silence : Yes
Delete leading and trailing silent blocks : No
Null samples used in CRC calculations : Yes
Used interface : Native Win32 interface for Win NT & 2000

Used output format : Internal WAV Routines
Sample format : 44.100 Hz; 16 Bit; Stereo


TOC of the extracted CD

Track | Start | Length | Start sector | End sector
––––––––––––––––––––––––––––-
1 | 0:00.00 | 4:23.11 | 0 | 19735
2 | 4:23.11 | 6:09.47 | 19736 | 47457
3 | 10:32.58 | 6:56.71 | 47458 | 78728
4 | 17:29.54 | 3:48.62 | 78729 | 95890
5 | 21:18.41 | 2:46.33 | 95891 | 108373
6 | 24:04.74 | 5:48.62 | 108374 | 134535
7 | 29:53.61 | 6:16.00 | 134536 | 162735
8 | 36:09.61 | 4:31.30 | 162736 | 183090
9 | 40:41.16 | 6:41.59 | 183091 | 213224
10 | 47:23.00 | 6:46.47 | 213225 | 243721
11 | 54:09.47 | 4:02.72 | 243722 | 261943
12 | 58:12.44 | 7:04.02 | 261944 | 293745


Range status and errors

Selected range

Filename D:\.www.AvaxHome.ru\Orange Goblin - Time Travelling Blues (2011, 3984-15013-2).wav

Peak level 97.7 %
Extraction speed 7.8 X
Range quality 99.9 %
Test CRC 5F393C5F
Copy CRC 5F393C5F
Copy OK

No errors occurred


AccurateRip summary

Track 1 cannot be verified as accurate (confidence 4) [D85EB1A3], AccurateRip returned [99CF4863] (AR v2)
Track 2 cannot be verified as accurate (confidence 4) [B7AB3993], AccurateRip returned [2E4426C9] (AR v2)
Track 3 cannot be verified as accurate (confidence 4) [4208E21B], AccurateRip returned [EFC1F051] (AR v2)
Track 4 cannot be verified as accurate (confidence 4) [6FDFE959], AccurateRip returned [26840FBB] (AR v2)
Track 5 cannot be verified as accurate (confidence 4) [6BA0E866], AccurateRip returned [CFBAB5C9] (AR v2)
Track 6 cannot be verified as accurate (confidence 4) [69C66BDA], AccurateRip returned [5DD6D8E6] (AR v2)
Track 7 cannot be verified as accurate (confidence 4) [C01B0564], AccurateRip returned [ACB9D229] (AR v2)
Track 8 cannot be verified as accurate (confidence 4) [050B2E5B], AccurateRip returned [5FB6ADEC] (AR v2)
Track 9 cannot be verified as accurate (confidence 4) [13EC8F6A], AccurateRip returned [61842ADA] (AR v2)
Track 10 cannot be verified as accurate (confidence 4) [26561304], AccurateRip returned [DCC9C0C0] (AR v2)
Track 11 cannot be verified as accurate (confidence 4) [38D92F70], AccurateRip returned [27DDE1AD] (AR v2)
Track 12 cannot be verified as accurate (confidence 4) [9CE2027B], AccurateRip returned [83792518] (AR v2)

No tracks could be verified as accurate
You may have a different pressing from the one(s) in the database

End of status report

–– CUETools DB Plugin V2.1.3

[CTDB TOCID: fcSRhFK.VFuwEQlh_oWksqpoZEs-] found, Submit result: fcSRhFK.VFuwEQlh_oWksqpoZEs- has been confirmed
[539be0f8] (3/3) Accurately ripped


==== Log checksum 229473573F5EE52C58CBFD9740A6A2E08DC3E188A2D85907D1AABF8E0731FB44 ====

–––––––––––-

DON'T MODIFY THIS FILE

–––––––––––-

PERFORMER: auCDtect Task Manager, ver. 1.5.1RC3 build 1.5.1.4
Copyright © 2008-2010 y-soft. All rights reserved
http://y-soft.org

ANALYZER: auCDtect: CD records authenticity detector, version 0.8.2
Copyright © 2004 Oleg Berngardt. All rights reserved.
Copyright © 2004 Alexander Djourik. All rights reserved.


FILE: Orange Goblin - Time Travelling Blues (2011, 3984-15013-2).wav
Size: 690890636 Hash: 0D3F85817D4627C6F9D35543C1550085 Accuracy: -m0
Conclusion: CDDA 100%
Signature: DEA7BB1FDD5ADA2D7E789A9597C77BB3039576BB
================================================================================
foobar2000 1.1.3 / Dynamic Range Meter 1.1.0
log date: 2012-07-05 20:06:53

––––––––––––––––––––––––––––––––––––––––
Analyzed: Orange Goblin / Time Travelling Blues (2011, 3984-15013-2)
––––––––––––––––––––––––––––––––––––––––

DR Peak RMS Duration Track
––––––––––––––––––––––––––––––––––––––––
DR6 -0.20 dB -7.23 dB 4:23 01-Blue Snow
DR7 -0.20 dB -8.03 dB 6:10 02-Solarisphere
DR7 -0.20 dB -9.05 dB 6:57 03-Shine
DR6 -0.20 dB -7.57 dB 3:49 04-The Man Who Invented Time
DR6 -0.20 dB -7.61 dB 2:46 05-Diesel (Phunt)
DR6 -0.20 dB -7.46 dB 5:49 06-Snail Hook
DR7 -0.20 dB -8.42 dB 6:16 07-Nuclear Guru
DR7 -0.20 dB -7.83 dB 4:31 08-Lunarville 7, Airlock 3
DR5 -0.20 dB -7.00 dB 6:42 09-Time Travelling Blues
DR6 -0.20 dB -7.23 dB 6:47 10-Nuclear Guru (Man's Ruin Version) (Bonus Track)
DR5 -0.20 dB -6.15 dB 4:03 11-Blue Snow (Live At The BBC Maida Vale Studio) (Bonus Track)
DR6 -0.20 dB -7.60 dB 7:04 12-Hand Of Doom (Black Sabbath Cover) (Bonus Track)
––––––––––––––––––––––––––––––––––––––––

Number of tracks: 12
Official DR value: DR6

Samplerate: 44100 Hz
Channels: 2
Bits per sample: 16
Bitrate: 1411 kbps
Codec: PCM
================================================================================





Orange Goblin - 5CD Box Set (2011) RESTORED

Orange Goblin - The Big Black (2000)
FLAC, IMG+CUE+LOG | 500 MB | MP3 CBR 320 Kbps | 170 MB | PNG -> 80 MB
Label: Metal Blade/Rise Above #3984-15014-2 | RAR 3% Rec. | FilePost

Because the band had been immediately signed to highly regarded Rise Above Records (perhaps the ultimate stoner rock/doom metal label) and had sounded so mature and "together" straight out of the box, Orange Goblin was put under more scrutiny than most young groups. And after weathering a noticeable sophomore slump with 1998's often lackluster Time Travelling Blues, the quintet members probably knew they needed to come up with a strong showing the third time around in order to prove their worth. Early believers already knew that here was a supremely competent set of musicians, who managed to borrow most of the basic elements laid down by their stoner metal forefathers (Kyuss, Monster Magnet, Acrimony) without actually sounding too much like any of them. But their still developing songwriting skills hadn't really allowed them to stand out from that of other solid second-generation stoners, as of yet. Thankfully, their third opus, The Big Black, took a quantum leap in that direction by boasting Orange Goblin's most consistent and memorable batch of tunes thus far. The explosive power of opener "Scorpionica" immediately hints at this development, and further highlights like "Quincy the Pigboy" and the ultra-spacy "Cozmo Bozo" quickly confirm the listener's hopes. The propulsive, mad dervish of "Turbo Effalunt (Elephant)" (no doubt a stoned mispronunciation done good) provides as straightforward a head-banging delight as the band has ever committed to wax, and lengthy space rock jams like the title track also tend to avoid the excessive mucking about of previous years. Also conspicuously absent are the generally disposable organ accompaniments, which had cluttered the band's first two outings. This timely release also arrived as the Goblin's biggest UK competitors for stoner rock supremacy (Electric Wizard, Cathedral) were temporarily out of commission, helping the band attract many new fans as well as significantly more media attention.

~ allmusic.com
Tracklist :

1. Scorpionica - 3:14
2. Quincy The Pigboy - 3:55
3. Hot Magic, Red Planet - 3:52
4. Cozmo Bozo - 5:59
5. 298 Kg - 3:55
6. Turbo Effalunt (Elephant) - 3:34
7. King Of The Hornets - 5:13
8. You'll Never Get To The Moon In That - 4:22
9. Alcofuel - 2:23
10. The Big Black - 6:58
11. Into The Void - 6:12
12. Quincy The Pigboy (Alternative Version) (Bonus Track) - 4:11
13. Scorpionica (Live At The BBC, Maida Vale Studios) (Bonus Track) - 3:22
14. Into The Void (Bonus Track) - 6:12

Exact Audio Copy V1.0 beta 3 from 29. August 2011

EAC extraction logfile from 16. June 2012, 16:45

Orange Goblin / The Big Black (2011, 3984-15014-2)

Used drive : PIONEER DVD-RW DVR-219L Adapter: 1 ID: 0

Read mode : Secure
Utilize accurate stream : Yes
Defeat audio cache : Yes
Make use of C2 pointers : No

Read offset correction : 6
Overread into Lead-In and Lead-Out : No
Fill up missing offset samples with silence : Yes
Delete leading and trailing silent blocks : No
Null samples used in CRC calculations : Yes
Used interface : Native Win32 interface for Win NT & 2000

Used output format : Internal WAV Routines
Sample format : 44.100 Hz; 16 Bit; Stereo


TOC of the extracted CD

Track | Start | Length | Start sector | End sector
––––––––––––––––––––––––––––-
1 | 0:00.00 | 3:14.30 | 0 | 14579
2 | 3:14.30 | 3:55.18 | 14580 | 32222
3 | 7:09.48 | 3:52.00 | 32223 | 49622
4 | 11:01.48 | 5:58.50 | 49623 | 76522
5 | 17:00.23 | 3:55.02 | 76523 | 94149
6 | 20:55.25 | 3:33.43 | 94150 | 110167
7 | 24:28.68 | 5:13.10 | 110168 | 133652
8 | 29:42.03 | 4:21.45 | 133653 | 153272
9 | 34:03.48 | 2:22.72 | 153273 | 163994
10 | 36:26.45 | 6:57.65 | 163995 | 195334
11 | 43:24.35 | 6:11.67 | 195335 | 223226
12 | 49:36.27 | 4:11.05 | 223227 | 242056
13 | 53:47.32 | 3:21.40 | 242057 | 257171
14 | 57:08.72 | 6:12.01 | 257172 | 285072


Range status and errors

Selected range

Filename D:\.www.AvaxHome.ru\Orange Goblin - The Big Black (2011, 3984-15014-2).wav

Peak level 97.7 %
Extraction speed 7.3 X
Range quality 100.0 %
Test CRC 399F4EC0
Copy CRC 399F4EC0
Copy OK

No errors occurred


AccurateRip summary

Track 1 cannot be verified as accurate (confidence 5) [72C2C0F3], AccurateRip returned [72E7677E] (AR v2)
Track 2 cannot be verified as accurate (confidence 5) [82B27AC6], AccurateRip returned [670C3844] (AR v2)
Track 3 cannot be verified as accurate (confidence 5) [5C1213E0], AccurateRip returned [460B70BC] (AR v2)
Track 4 cannot be verified as accurate (confidence 5) [18A7D9EA], AccurateRip returned [D1CB799B] (AR v2)
Track 5 cannot be verified as accurate (confidence 5) [9A6065E6], AccurateRip returned [BCFE7CBE] (AR v2)
Track 6 cannot be verified as accurate (confidence 5) [D22EFB6E], AccurateRip returned [85CB0EC1] (AR v2)
Track 7 cannot be verified as accurate (confidence 5) [E6BD2E0D], AccurateRip returned [B10A6DEF] (AR v2)
Track 8 cannot be verified as accurate (confidence 5) [4C2EE00D], AccurateRip returned [34F98B2C] (AR v2)
Track 9 cannot be verified as accurate (confidence 5) [2F721051], AccurateRip returned [8B8C8AE1] (AR v2)
Track 10 cannot be verified as accurate (confidence 5) [731CF49A], AccurateRip returned [D6611ECF] (AR v2)
Track 11 cannot be verified as accurate (confidence 5) [2E2330B1], AccurateRip returned [B00C6AB7] (AR v2)
Track 12 cannot be verified as accurate (confidence 5) [322D3619], AccurateRip returned [86C87E12] (AR v2)
Track 13 cannot be verified as accurate (confidence 5) [F6ACC336], AccurateRip returned [ACC3E3E2] (AR v2)
Track 14 cannot be verified as accurate (confidence 5) [33F34EFA], AccurateRip returned [47DC4AFE] (AR v2)

No tracks could be verified as accurate
You may have a different pressing from the one(s) in the database

End of status report

–– CUETools DB Plugin V2.1.3

[CTDB TOCID: qfjRBw2xuxYLb4_V84K8SnYBwv4-] found, Submit result: qfjRBw2xuxYLb4_V84K8SnYBwv4- has been confirmed
[3efa8e4e] (2/3) Accurately ripped
[b9098bb6] (1/3) Differs in 13 samples @00:00:66
You can use CUETools to repair this rip.


==== Log checksum 10B0F8ED2C7A3698DF177D1883927BFB8AF0F693F7644A465B06857F988B6581 ====

–––––––––––-

DON'T MODIFY THIS FILE

–––––––––––-

PERFORMER: auCDtect Task Manager, ver. 1.5.1RC3 build 1.5.1.4
Copyright © 2008-2010 y-soft. All rights reserved
http://y-soft.org

ANALYZER: auCDtect: CD records authenticity detector, version 0.8.2
Copyright © 2004 Oleg Berngardt. All rights reserved.
Copyright © 2004 Alexander Djourik. All rights reserved.


FILE: Orange Goblin - The Big Black (2011, 3984-15014-2).wav
Size: 670491740 Hash: 1772A16D0DE59DDD4FC1CD15CBC9C1AE Accuracy: -m0
Conclusion: CDDA 100%
Signature: 32999F32F9D4CB6AA0C3E94243B8EB8D85555B75
================================================================================
foobar2000 1.1.3 / Dynamic Range Meter 1.1.0
log date: 2012-07-05 20:07:44

––––––––––––––––––––––––––––––––––––––––
Analyzed: Orange Goblin / The Big Black (2011, 3984-15014-2)
––––––––––––––––––––––––––––––––––––––––

DR Peak RMS Duration Track
––––––––––––––––––––––––––––––––––––––––
DR5 -0.20 dB -6.78 dB 3:14 01-Scorpionica
DR5 -0.20 dB -6.20 dB 3:55 02-Quincy The Pigboy
DR5 -0.20 dB -6.75 dB 3:52 03-Hot Magic, Red Planet
DR6 -0.20 dB -8.02 dB 5:59 04-Cozmo Bozo
DR5 -0.20 dB -5.86 dB 3:55 05-298 Kg
DR5 -0.20 dB -6.01 dB 3:34 06-Turbo Effalunt (Elephant)
DR5 -0.20 dB -6.39 dB 5:13 07-King Of The Hornets
DR5 -0.20 dB -6.62 dB 4:22 08-You'll Never Get To The Moon In That
DR5 -0.20 dB -6.10 dB 2:23 09-Alcofuel
DR5 -0.20 dB -6.48 dB 6:58 10-The Big Black
DR5 -0.20 dB -6.07 dB 6:12 11-Into The Void
DR6 -0.20 dB -7.58 dB 4:11 12-Quincy The Pigboy (Alternative Version) (Bonus Track)
DR6 -0.20 dB -7.04 dB 3:22 13-Scorpionica (Live At The BBC, Maida Vale Studios) (Bonus Track)
DR5 -0.20 dB -6.55 dB 6:12 14-Into The Void (Bonus Track)
––––––––––––––––––––––––––––––––––––––––

Number of tracks: 14
Official DR value: DR5

Samplerate: 44100 Hz
Channels: 2
Bits per sample: 16
Bitrate: 1411 kbps
Codec: PCM
================================================================================






Orange Goblin - 5CD Box Set (2011) RESTORED

Orange Goblin - Coup De Grace (2002)
FLAC, IMG+CUE+LOG | 490 MB | MP3 CBR 320 Kbps | 160 MB | PNG -> 80 MB
Label: Metal Blade/Rise Above #3984-15015-2 | RAR 3% Rec. | FilePost

With the stoner rock movement seemingly finally and unequivocally headed toward extinction, along with many of its last champions (the once-mighty Monster Magnet dropped, the promising Unida left in unreleased album limbo, the dependable Fu Manchu still going nowhere fast, and the eclectic Queens of the Stone Age transforming into something altogether other), it was no surprise to see Orange Goblin, one of England's foremost purveyors of the genre, looking for the exit sign as well. And that's just what they did on their fourth album, Coup de Grace, dispensing with the last remnants of their ultra-baked, space rock musings (given a final, discreet spin on instrumental "Graviton") to deliver what is essentially a straight-up hard rock album…remember those? Produced by stoner rock veteran Scott Reeder (Kyuss, Unida), ironically enough, Coup de Grace introduces a much more immediate, in your face, almost punky Orange Goblin and, in the process, completely re-packages the band for the next phase of their career by adopting the cartoonish horror flick artwork usually associated with White Zombie. Rough and raw hard rockers like "Your World Will Hate This" and first single "Monkey Panic" quickly establish this "new orange order," which also includes a very faithful cover of the old Misfits staple "We Bite" (where vocalist Ben Ward does his best Glenn Danzig karaoke). "Made of Rats" and album highlight "Jesus Beater" don't just feature a cameo, but a full-on co-lead vocal performance from another Kyuss alum, John Garcia (whose voice, it must be said, remains one of the finest of his generation), and the also excellent "Getting High on the Bad Times" and "Rage of Angels" offer the most promising signs of things to come. In short, Coup de Grace is obviously a transitional effort for Orange Goblin – a not yet fully formed blueprint of where they really intend to go from here. Therefore, though it's heavy as hell and at least as good as its predecessor, The Big Black, whether Coup de Grace will be the most representative Orange Goblin album remains to be seen.

~ allmusic.com
Tracklist :

1. Your World Will Hate This - 1:58
2. Monkey Panic - 3:43
3. Rage Of Angles - 4:26
4. Made Of Rats - 5:37
5. Whiskey Leech - 4:01
6. Getting High On The Bad Times - 4:34
7. Graviton - 4:12
8. Red Web - 5:13
9. Born With Big Hands - 4:25
10. Jesus Beater - 4:30
11. We Bite - 1:19
12. Stinin' O' Gin - 7:22
13. No Law (From High Times) (Bonus Track) - 3:47
14. No Class (Originally Recorded By Motorhead) (Bonus Track) - 2:48
15. Freelance Fiend (Originally Recorded By Leafhound) (Bonus Track) - 3:37

Exact Audio Copy V1.0 beta 3 from 29. August 2011

EAC extraction logfile from 5. July 2012, 19:35

Orange Goblin / Coup De Grace (2011, 3984-15015-2)

Used drive : PIONEER DVD-RW DVR-219L Adapter: 1 ID: 0

Read mode : Secure
Utilize accurate stream : Yes
Defeat audio cache : Yes
Make use of C2 pointers : No

Read offset correction : 6
Overread into Lead-In and Lead-Out : No
Fill up missing offset samples with silence : Yes
Delete leading and trailing silent blocks : No
Null samples used in CRC calculations : Yes
Used interface : Native Win32 interface for Win NT & 2000

Used output format : Internal WAV Routines
Sample format : 44.100 Hz; 16 Bit; Stereo


TOC of the extracted CD

Track | Start | Length | Start sector | End sector
––––––––––––––––––––––––––––-
1 | 0:00.00 | 1:57.63 | 0 | 8837
2 | 1:57.63 | 3:42.67 | 8838 | 25554
3 | 5:40.55 | 4:26.05 | 25555 | 45509
4 | 10:06.60 | 5:36.38 | 45510 | 70747
5 | 15:43.23 | 4:01.27 | 70748 | 88849
6 | 19:44.50 | 4:33.70 | 88850 | 109394
7 | 24:18.45 | 4:11.73 | 109395 | 128292
8 | 28:30.43 | 5:13.17 | 128293 | 151784
9 | 33:43.60 | 4:25.00 | 151785 | 171659
10 | 38:08.60 | 4:30.08 | 171660 | 191917
11 | 42:38.68 | 1:19.05 | 191918 | 197847
12 | 43:57.73 | 7:21.59 | 197848 | 230981
13 | 51:19.57 | 3:46.39 | 230982 | 247970
14 | 55:06.21 | 2:47.50 | 247971 | 260545
15 | 57:53.71 | 3:37.28 | 260546 | 276848


Range status and errors

Selected range

Filename D:\.www.AvaxHome.ru\Orange Goblin - Coup De Grace (2011, 3984-15015-2).wav

Peak level 97.7 %
Extraction speed 7.2 X
Range quality 100.0 %
Test CRC C8247679
Copy CRC C8247679
Copy OK

No errors occurred


AccurateRip summary

Track 1 cannot be verified as accurate (confidence 6) [C39CC1C2], AccurateRip returned [4B650632] (AR v2)
Track 2 cannot be verified as accurate (confidence 6) [98F456F3], AccurateRip returned [0E5C7179] (AR v2)
Track 3 cannot be verified as accurate (confidence 6) [00C30B48], AccurateRip returned [214CAF2D] (AR v2)
Track 4 cannot be verified as accurate (confidence 6) [81508762], AccurateRip returned [C9E3AC1B] (AR v2)
Track 5 cannot be verified as accurate (confidence 6) [C48CEFA1], AccurateRip returned [16873234] (AR v2)
Track 6 cannot be verified as accurate (confidence 6) [049FE200], AccurateRip returned [D3DD716E] (AR v2)
Track 7 cannot be verified as accurate (confidence 6) [DF03D605], AccurateRip returned [E54B3D06] (AR v2)
Track 8 cannot be verified as accurate (confidence 6) [41F0AC6F], AccurateRip returned [89FB110E] (AR v2)
Track 9 cannot be verified as accurate (confidence 6) [30842B31], AccurateRip returned [9E04D484] (AR v2)
Track 10 cannot be verified as accurate (confidence 6) [181E6F2E], AccurateRip returned [BC3E7A3E] (AR v2)
Track 11 cannot be verified as accurate (confidence 6) [9E6B0AE5], AccurateRip returned [FC0D2400] (AR v2)
Track 12 cannot be verified as accurate (confidence 6) [0852B93A], AccurateRip returned [DEC79CF8] (AR v2)
Track 13 cannot be verified as accurate (confidence 6) [EE91354C], AccurateRip returned [4C4A5C19] (AR v2)
Track 14 cannot be verified as accurate (confidence 6) [6B31289B], AccurateRip returned [345955C8] (AR v2)
Track 15 cannot be verified as accurate (confidence 6) [DEAB2B4A], AccurateRip returned [E592D62D] (AR v2)

No tracks could be verified as accurate
You may have a different pressing from the one(s) in the database

End of status report

–– CUETools DB Plugin V2.1.3

[CTDB TOCID: 3dpa3Q6pgK_iC3buhPaDkAzHe6s-] found, Submit result: 3dpa3Q6pgK_iC3buhPaDkAzHe6s- has been confirmed
[6211e850] (2/3) Accurately ripped
[73f1c3e4] (1/3) No match


==== Log checksum D502273B77BFBAC1E3A15A69FAF8E594C700ADF9BF88C0A6A52E0F5630772BA9 ====

–––––––––––-

DON'T MODIFY THIS FILE

–––––––––––-

PERFORMER: auCDtect Task Manager, ver. 1.5.1RC3 build 1.5.1.4
Copyright © 2008-2010 y-soft. All rights reserved
http://y-soft.org

ANALYZER: auCDtect: CD records authenticity detector, version 0.8.2
Copyright © 2004 Oleg Berngardt. All rights reserved.
Copyright © 2004 Alexander Djourik. All rights reserved.


FILE: Orange Goblin - Coup De Grace (2011, 3984-15015-2).wav
Size: 651148892 Hash: FF10291CFD32B69BC1BEFA77B23DDE46 Accuracy: -m0
Conclusion: CDDA 100%
Signature: F9D80612C2C60A45DD203EAFD4B77FF7742B064F

================================================================================
foobar2000 1.1.3 / Dynamic Range Meter 1.1.0
log date: 2012-07-05 19:56:34

––––––––––––––––––––––––––––––––––––––––
Analyzed: Orange Goblin / Coup De Grace (2011, 3984-15015-2)
––––––––––––––––––––––––––––––––––––––––

DR Peak RMS Duration Track
––––––––––––––––––––––––––––––––––––––––
DR6 -0.20 dB -6.91 dB 1:58 01-Your World Will Hate This
DR5 -0.20 dB -6.48 dB 3:43 02-Monkey Panic
DR6 -0.20 dB -7.40 dB 4:26 03-Rage Of Angles
DR6 -0.20 dB -7.51 dB 5:37 04-Made Of Rats
DR5 -0.20 dB -6.44 dB 4:01 05-Whiskey Leech
DR6 -0.20 dB -6.75 dB 4:34 06-Getting High On The Bad Times
DR6 -0.20 dB -8.45 dB 4:12 07-Graviton
DR6 -0.20 dB -6.50 dB 5:13 08-Red Web
DR6 -0.20 dB -6.86 dB 4:25 09-Born With Big Hands
DR6 -0.20 dB -6.97 dB 4:30 10-Jesus Beater
DR6 -0.20 dB -6.95 dB 1:19 11-We Bite
DR5 -0.20 dB -7.53 dB 7:22 12-Stinin' O' Gin
DR5 -0.20 dB -6.45 dB 3:47 13-No Law (From High Times) (Bonus Track)
DR6 -0.20 dB -7.30 dB 2:48 14-No Class (Originally Recorded By Motorhead) (Bonus Track)
DR6 -0.20 dB -6.89 dB 3:37 15-Freelance Fiend (Originally Recorded By Leafhound) (Bonus Track)
––––––––––––––––––––––––––––––––––––––––

Number of tracks: 15
Official DR value: DR6

Samplerate: 44100 Hz
Channels: 2
Bits per sample: 16
Bitrate: 1411 kbps
Codec: PCM
================================================================================





Orange Goblin - 5CD Box Set (2011) RESTORED

Orange Goblin - Thieving From The House Of God (2004)
FLAC, IMG+CUE+LOG | 460 MB | MP3 CBR 320 Kbps | 140 MB | PNG -> 80 MB
Label: Metal Blade/Rise Above #3984-15016-2| RAR 3% Rec. | FilePost

Many wondered how Orange Goblin would cope as a four-piece following the departure of second guitar player Pete O'Malley, but, by making it sound like nothing has changed, the band's fifth album, 2004's Thieving from the House of God, answers that question with a perfunctory "just fine, thank you." Of course, as will be discussed shortly, this same "staying of the course" could also pose a problem. But first things first: except for retreating just a tad from the overt punk-metal of its predecessor, Coup de Grace, Thieving from the House of God retains the same, appropriately thick and meaty post-stoner rock crunch – neither here nor there in terms of outright hard rock or heavy metal – that Orange Goblin fans have come to expect. "Some You Win, Some You Lose" gets the ball rolling in promising fashion and the novelty of counterpoint vocals in the chorus; and ensuing hard rockers like "Hard Luck" and "Black Egg" each manage a few surprises between them – be it in the former's clever lyrics, or the latter's striking use of piercing, soulful female vocals. But prospects quickly grow dim with the forgettable "One Room, One Axe, One Outcome" (which has only its name to call interesting), and any hopes that Orange Goblin will magically conjure a truly great single or minor metal classic are duly squashed as one moves through the album. The mounting riff-fest of "Round Up the Horses" momentarily harkens back to the giant, Sabbath-sized power chords of the band's early LPs, but all it signals in the end is a strong, not thrilling, finale driven by the friendly countenance of ZZ Top's "Just Got Paid," and the mildly interesting, nine-minute, sub-space sprawl of "Crown of Locusts." More than anything, Thieving from the House of God leaves very contradictory feelings in its wake. On the one hand, there's a positive notion of "mission accomplished" for the band's transition into existence as a quartet; but on the other, there's a negative and worrisome sense of "what now?" realization suggesting that, despite their best efforts, Orange Goblin may well be doomed to always remain a very good hard rock/heavy metal band which may never amount to a truly great hard rock/heavy metal band.

~ allmusic.com
Tracklist :

1. Some You Win, Some You Lose - 3:19
2. One Room, One Axe, One Outcome - 5:29
3. Hard Luck - 2:31
4. Black Egg - 5:04
5. You're Not The One (Who Can Save Rock N' Roll) - 2:20
6. If It Ain't Broke, Break It - 5:26
7. Lazy Mary - 3:18
8. Round Up The Horses - 5:33
9. Tosh Lines - 1:21
10. Just Got Paid (ZZ Top Cover) - 3:32
11. Crown Of Locusts - 9:17
12. White Night Cyanide (B-Side) (Bonus Track) - 2:26
13. New Rose (Original Recorded By The Damned) (Bonus Track) - 2:40
14. Bad Blues (Unreleased Track) (Bonus Track) - 2:26

Exact Audio Copy V1.0 beta 3 from 29. August 2011

EAC extraction logfile from 16. June 2012, 19:46

Orange Goblin / Thieving From The House Of God (2011, 3984-15016-2)

Used drive : PIONEER DVD-RW DVR-219L Adapter: 1 ID: 0

Read mode : Secure
Utilize accurate stream : Yes
Defeat audio cache : Yes
Make use of C2 pointers : No

Read offset correction : 6
Overread into Lead-In and Lead-Out : No
Fill up missing offset samples with silence : Yes
Delete leading and trailing silent blocks : No
Null samples used in CRC calculations : Yes
Used interface : Native Win32 interface for Win NT & 2000

Used output format : Internal WAV Routines
Sample format : 44.100 Hz; 16 Bit; Stereo


TOC of the extracted CD

Track | Start | Length | Start sector | End sector
––––––––––––––––––––––––––––-
1 | 0:00.00 | 3:19.20 | 0 | 14944
2 | 3:19.20 | 5:29.33 | 14945 | 39652
3 | 8:48.53 | 2:30.50 | 39653 | 50952
4 | 11:19.28 | 5:04.31 | 50953 | 73783
5 | 16:23.59 | 2:20.14 | 73784 | 84297
6 | 18:43.73 | 5:25.58 | 84298 | 108730
7 | 24:09.56 | 3:17.60 | 108731 | 123565
8 | 27:27.41 | 5:32.63 | 123566 | 148528
9 | 33:00.29 | 1:20.64 | 148529 | 154592
10 | 34:21.18 | 3:31.63 | 154593 | 170480
11 | 37:53.06 | 9:16.63 | 170481 | 212243
12 | 47:09.69 | 2:25.47 | 212244 | 223165
13 | 49:35.41 | 2:40.35 | 223166 | 235200
14 | 52:16.01 | 2:26.28 | 235201 | 246178


Range status and errors

Selected range

Filename D:\.www.AvaxHome.ru\Orange Goblin - Thieving From The House Of God (2011, 3984-15016-2).wav

Peak level 97.7 %
Extraction speed 7.1 X
Range quality 100.0 %
Test CRC B623A421
Copy CRC B623A421
Copy OK

No errors occurred


AccurateRip summary

Track 1 cannot be verified as accurate (confidence 5) [D43518F6], AccurateRip returned [B2E8AEEC] (AR v2)
Track 2 cannot be verified as accurate (confidence 5) [7F3BEB60], AccurateRip returned [1A80C30C] (AR v2)
Track 3 cannot be verified as accurate (confidence 5) [5941194A], AccurateRip returned [4D7F3098] (AR v2)
Track 4 cannot be verified as accurate (confidence 5) [86DAB6F0], AccurateRip returned [5A3D62B0] (AR v2)
Track 5 cannot be verified as accurate (confidence 5) [7AD60526], AccurateRip returned [3A96C725] (AR v2)
Track 6 cannot be verified as accurate (confidence 5) [3CF75BFC], AccurateRip returned [1691A826] (AR v2)
Track 7 cannot be verified as accurate (confidence 5) [290B4B8C], AccurateRip returned [1B8F4723] (AR v2)
Track 8 cannot be verified as accurate (confidence 5) [46418698], AccurateRip returned [8621E5DF] (AR v2)
Track 9 cannot be verified as accurate (confidence 5) [8C0EAC86], AccurateRip returned [DC4C2D78] (AR v2)
Track 10 cannot be verified as accurate (confidence 5) [C55872C6], AccurateRip returned [417B37BD] (AR v2)
Track 11 cannot be verified as accurate (confidence 5) [AE5A24F2], AccurateRip returned [234970C0] (AR v2)
Track 12 cannot be verified as accurate (confidence 5) [6FA0FCC3], AccurateRip returned [A0F467A6] (AR v2)
Track 13 cannot be verified as accurate (confidence 5) [74DBDE05], AccurateRip returned [61891A0B] (AR v2)
Track 14 cannot be verified as accurate (confidence 5) [259CC443], AccurateRip returned [10F55E3B] (AR v2)

No tracks could be verified as accurate
You may have a different pressing from the one(s) in the database

End of status report

–– CUETools DB Plugin V2.1.3

[CTDB TOCID: OK7kjGXg1lqVoTHTmPZ1hhghQVA-] found, Submit result: OK7kjGXg1lqVoTHTmPZ1hhghQVA- has been confirmed
[14d7883b] (2/2) Accurately ripped


==== Log checksum ABFB380C7DCA0164D518B166388AB87F9415FEDD7DB57267E4D2C97CA9781873 ====

–––––––––––-

DON'T MODIFY THIS FILE

–––––––––––-

PERFORMER: auCDtect Task Manager, ver. 1.5.1RC3 build 1.5.1.4
Copyright © 2008-2010 y-soft. All rights reserved
http://y-soft.org

ANALYZER: auCDtect: CD records authenticity detector, version 0.8.2
Copyright © 2004 Oleg Berngardt. All rights reserved.
Copyright © 2004 Alexander Djourik. All rights reserved.


FILE: Orange Goblin - Thieving From The House Of God (2011, 3984-15016-2).wav
Size: 579013052 Hash: A7AA710D88559C6EF48F16B522EB478F Accuracy: -m0
Conclusion: CDDA 100%
Signature: 0537C557258B6166C394CF25DD0F1087BEF84294
================================================================================
foobar2000 1.1.3 / Dynamic Range Meter 1.1.0
log date: 2012-07-05 20:13:08

––––––––––––––––––––––––––––––––––––––––
Analyzed: Orange Goblin / Thieving From The House Of God (2011, 3984-15016-2)
––––––––––––––––––––––––––––––––––––––––

DR Peak RMS Duration Track
––––––––––––––––––––––––––––––––––––––––
DR4 -0.20 dB -4.67 dB 3:19 01-Some You Win, Some You Lose
DR5 -0.20 dB -5.92 dB 5:29 02-One Room, One Axe, One Outcome
DR4 -0.20 dB -5.23 dB 2:31 03-Hard Luck
DR4 -0.20 dB -5.42 dB 5:04 04-Black Egg
DR5 -0.20 dB -6.42 dB 2:20 05-You're Not The One (Who Can Save Rock N' Roll)
DR4 -0.20 dB -5.88 dB 5:26 06-If It Ain't Broke, Break It
DR4 -0.20 dB -5.24 dB 3:18 07-Lazy Mary
DR4 -0.20 dB -5.13 dB 5:33 08-Round Up The Horses
DR4 -0.20 dB -4.81 dB 1:21 09-Tosh Lines
DR5 -0.20 dB -6.14 dB 3:32 10-Just Got Paid (ZZ Top Cover)
DR4 -0.20 dB -5.51 dB 9:17 11-Crown Of Locusts
DR4 -0.20 dB -5.83 dB 2:26 12-White Night Cyanide (B-Side) (Bonus Track)
DR4 -0.20 dB -4.73 dB 2:40 13-New Rose (Original Recorded By The Damned) (Bonus Track)
DR5 -0.20 dB -5.89 dB 2:26 14-Bad Blues (Unreleased Track) (Bonus Track)
––––––––––––––––––––––––––––––––––––––––

Number of tracks: 14
Official DR value: DR4

Samplerate: 44100 Hz
Channels: 2
Bits per sample: 16
Bitrate: 1411 kbps
Codec: PCM
================================================================================

• Ben Ward - Vocals
• Joe Hoare - Guitars
• Pete OMalley - Guitars
• Martyn Millard - Bass
• Chris Turner Drums

Please, do not write these links at any web pages. Enjoy & keep the files alive!
* - EAC Image, standard LOG, embedded cuesheet, Foobar2000 ready
Download lossless* (flac) + covers via Nitroflare.com:
***
Orange Goblin - Frequencies From Planet Ten (1997)
Lossless (FLAC)* - http://www.nitroflare.com/view/4DE9FF3DA078181/og1997fflos.rar
All Covers (PNG) - http://www.nitroflare.com/view/634790238E87116/og1997ffcov.rar
Lossy HQ (320 Kbps CBR) - http://www.nitroflare.com/view/5C6B32218AC48D4/og1997ffmp3.rar
***
Orange Goblin - Time Travelling Blues (1998)
Lossless (FLAC)* - http://www.nitroflare.com/view/59E9641D83FCE0E/og1998ttlos.rar
All Covers (PNG) - http://www.nitroflare.com/view/3D5B952C9FC0C93/og1998ttcov.rar
Lossy HQ (320 Kbps CBR) - http://www.nitroflare.com/view/22475B2CC0C7223/og1998ttmp3.rar
***
Orange Goblin - The Big Black (2000)
Lossless (FLAC)* - http://www.nitroflare.com/view/1A14635F9E474C1/og2000tblos.rar
All Covers (PNG) - http://www.nitroflare.com/view/B2EC54C887AEB9D/og2000tbcov.rar
Lossy HQ (320 Kbps CBR) - http://www.nitroflare.com/view/E58CD1D76934F48/og2000tbmp3.rar
***
Orange Goblin - Coup De Grace (2002)
Lossless (FLAC)* - http://www.nitroflare.com/view/C3AC783C56290FB/og2002cdlos.rar
All Covers (PNG) - http://www.nitroflare.com/view/28D02FB1D81A9E8/og2002cdcov.rar
Lossy HQ (320 Kbps CBR) - http://www.nitroflare.com/view/9213151EC71DDC2/og2002cdmp3.rar
***
Orange Goblin - Thieving From The House Of God (2004)
Lossless (FLAC)* - http://www.nitroflare.com/view/BA7E3DAD6BCDF6D/og2004tflos.rar
All Covers (PNG) - http://www.nitroflare.com/view/96C34CDF191117B/og2004tfcov.rar
Lossy HQ (320 Kbps CBR) - http://www.nitroflare.com/view/5939FE9A7C34107/og2004tfmp3.rar

* Original CD -> EAC image, embedded cuesheet & more, foobar2000 ready, etc.
(all CUEs, LOGs and other technical info includes in the internal "CD_Support" archive).

Please, do not write these links at any web pages. Enjoy & keep the files alive!