Subcategories

Orchestre de L’Opera de Lyon, John Eliot Gardiner - Gluck: Iphigenie en Tauride (1985)

Posted By: tirexiss
Orchestre de L’Opera de Lyon, John Eliot Gardiner - Gluck: Iphigenie en Tauride (1985)

Orchestre de L’Opera de Lyon, John Eliot Gardiner - Gluck: Iphigenie en Tauride (1985)
EAC | FLAC (image+.cue, log) | Covers Included | 01:42:12 | 451 MB
Genre: Classical, Opera | Label: Philips | Catalog: 416 149-2

This is the masterwork, Gluck's last important opera, which convinced the teenage medical student Berlioz, when he first heard it in 1821, that he had to be a composer. He worshipped Gluck and took his side in the phoney "Gluck vs.Piccini War". He set himself the task of sitting in the Conservatoire library to copy out the entire score in order to absorb its lessons. Its directness and drama influenced his artistic style his whole life through, as evinced by key points in "Les Troyens". Its popularity is witnessed by the fact that it was performed 400 times between its premiere in 1779, when Gluck was already 65, and 1829. It is indeed a marvellously compact and immediate creation and we are lucky to have some good recording choices before us.
There have been only three studio recordings of this important "reform opera" but most punters will choose between John Eliot Gardiner's 1985 studio version on Philips or the live recording by Minkowski in 1999. The adventurous who don't give a fig for period practice might be drawn to the big-scale, big-band, big-voiced, live La Scala one, assembled from a series of performances in 1992. Obviously this is with a large modern orchestra - although it is worth remembering that when Berlioz heard it in Paris, the band numbered a hefty 80. I do not understand some previous scathing reviews of this performance; it is what it is and there are options if you don't want it. Nor is the sound anywhere near as dire as one reviewer suggests with his absurd one star; it is of course perfectly listenable even if, by studio recording standards, the generous acoustic is a bit opaque and cavernous. As a result, Muti rushes his performers in search of excitement and it misses some of tender intimacy of the score - but by heck, it's thrilling in a way that eludes Minkowski. There are other recordings but I suggest that those are the three main contenders.
I am thus not as keen on the Minkowski performance for the same reason that I found his "Armide" lacking: his manner is often too slow and deliberate, which vitiates the drama. You certainly cannot say that of Muti, who thrashes the action for all it's worth. Gardiner has smaller forces but his phrasing is better sprung and more involving than Minkowski, who is sometimes plodding; by contrast, Gardiner makes a wonderful job of the opening storm, with its shrieking piccolos. Nor, for all that she has a beautiful voice, is Delunsch as striking as either Vaness or Diane Montague; the former is all wildfire and volume, the latter slimmer, clearer and very affecting, but lacking Vaness's punch. Remember, this was a Callas role and it needs real bite. All three recordings have superb baritones: Thomas Allen's lean, smooth voice features twice and Simon Keenlyside is equally beautiful. Similarly, all three have excellent tenors although I find John Aler's pure, light lyric tenor the most affecting; both in his arias and when he is singing in thirds with Allen, it is vocal heaven. Yann Beuron for Minkowski is almost as good and Gösta Winbergh, as you might expect from Muti's approach, sings out to a big house with heroic tone.
In short, all three recordings have their merits: remember, "baroque" means wild and extravagant, so you cannot just dismiss Muti's approach as crass but HIP purists who see Gluck as primarily an exponent of classical simplicity and restraint will go for the Minkowski, Traditionalist dinosaurs who want to hear Grand Opera - the direction in which Gluck was heading and Berlioz developed - will enjoy the Muti, but Gardiner represents the compromise or juste milieu between the two. Your choice.

Orchestre de L’Opera de Lyon, John Eliot Gardiner - Gluck: Iphigenie en Tauride (1985)

Track List:

CD 1:
Act 1
1. Scène 1. Introduction et choeur. "Grands Dieux ! soyez-nous secouables" 07:04
2. Récitatif. "Iphigénie, ô ciel!" - Choeur. "O songe affreux!" - Récitatif. "O race de Pélops!" 06:30
3. Air. "O toi qui prolongeas mes jours" - Choeur. "Quand verrons-nous tarir nos pleurs?" 04:27
4. Scène 2. Récitatif. "Dieux! le malheur en" - Air. "De noir pressentiments" 02:53
5. Scène 3. Choeur. "Les Dieux apaisent" - Récitatif. "Dieux! étouffez en moi" - Scène 4. Récitatif. "Et vous, à vos Dieux" - Choeur. "Il nous fallait du sang" 03:09
6. Ballet - Scène 5. Choeur. "Il nous fallait du sang" 03:49
Act 2
7. Scène 1. Récitatif. "Quel silence effrayant!" 02:38
8. Air. "Dieux qui me poursuivez" - Récitatif. "Quel langage accablant" 02:35
9. Air. "Unis dès la plus tendre enfance" 03:58
10. Scène 2. Récitatif. "Etrangers malheureux" - Scène 3. Récitatif. "Dieux protecteurs" 02:27
11. Air. "Le calme rentre dans mon coeur" 02:13
12. Scène 4. Pantomime - Choeur et danse. "Vengeons et la nature et les Dieux" 02:49
13. Scène 5. Récitatif. "Je vois toute" - Scène 6. Choeur. "Patrie infortunée" 05:45
14. Air et choeur. "O malheureuse Iphigénie!" 04:29
15. Récitatif. "Honorez avec moi" - Choeur. "Contemplez ces tristes apprêts" - Air. "O mon frère"

Exact Audio Copy V1.2 from 12. August 2016

EAC extraction logfile from 2. July 2017, 17:10

John Eliot Gardiner, Orchestre de l’Opéra de Lyon / Iphigénie en Tauride (Disc 1)

Used drive : MATSHITADVD-RAM UJ8G6 Adapter: 1 ID: 0

Read mode : Secure
Utilize accurate stream : Yes
Defeat audio cache : Yes
Make use of C2 pointers : No

Read offset correction : 103
Overread into Lead-In and Lead-Out : No
Fill up missing offset samples with silence : Yes
Delete leading and trailing silent blocks : No
Null samples used in CRC calculations : Yes
Used interface : Native Win32 interface for Win NT & 2000

Used output format : User Defined Encoder
Selected bitrate : 768 kBit/s
Quality : High
Add ID3 tag : No
Command line compressor : C:\Program Files (x86)\Exact Audio Copy\Flac\flac.exe
Additional command line options : -6 -V -T "ARTIST=%artist%" -T "TITLE=%title%" -T "ALBUM=%albumtitle%" -T "DATE=%year%" -T "TRACKNUMBER=%tracknr%" -T "GENRE=%genre%" -T "COMMENT=%comment%" -T "BAND=%albuminterpret%" -T "ALBUMARTIST=%albuminterpret%" -T "COMPOSER=%composer%" %haslyrics%–tag-from-file=LYRICS="%lyricsfile%"%haslyrics% -T "DISCNUMBER=%cdnumber%" -T "TOTALDISCS=%totalcds%" -T "TOTALTRACKS=%numtracks%" %hascover%–picture="%coverfile%"%hascover% %source% -o %dest%


TOC of the extracted CD

Track | Start | Length | Start sector | End sector
––––––––––––––––––––––––––––-
1 | 0:00.33 | 7:04.30 | 33 | 31862
2 | 7:04.63 | 6:30.05 | 31863 | 61117
3 | 13:34.68 | 4:27.02 | 61118 | 81144
4 | 18:01.70 | 2:52.58 | 81145 | 94102
5 | 20:54.53 | 3:09.37 | 94103 | 108314
6 | 24:04.15 | 3:56.18 | 108315 | 126032
7 | 28:00.33 | 2:38.12 | 126033 | 137894
8 | 30:38.45 | 2:35.20 | 137895 | 149539
9 | 33:13.65 | 3:58.18 | 149540 | 167407
10 | 37:12.08 | 2:27.00 | 167408 | 178432
11 | 39:39.08 | 2:12.55 | 178433 | 188387
12 | 41:51.63 | 2:49.15 | 188388 | 201077
13 | 44:41.03 | 5:45.05 | 201078 | 226957
14 | 50:26.08 | 4:28.62 | 226958 | 247119
15 | 54:54.70 | 4:36.38 | 247120 | 267857


Range status and errors

Selected range

Filename C:\Users\Roy\Music\GLUCK - Iphigénie en Tauride (1985) [Gardiner;\CD (FLAC + CUE)\CD 1\Christoph Willibald Gluck - Iphigénie en Tauride (Disc 1).wav

Peak level 95.0 %
Extraction speed 4.2 X
Range quality 100.0 %
Test CRC 9F8DCEA3
Copy CRC 9F8DCEA3
Copy OK

No errors occurred


AccurateRip summary

Track 1 accurately ripped (confidence 8) [ACB7BBDE] (AR v2)
Track 2 accurately ripped (confidence 8) [05A46339] (AR v2)
Track 3 accurately ripped (confidence 8) [7ED59E10] (AR v2)
Track 4 accurately ripped (confidence 8) [26BFD432] (AR v2)
Track 5 accurately ripped (confidence 8) [02AB5025] (AR v2)
Track 6 accurately ripped (confidence 8) [018DFD88] (AR v2)
Track 7 accurately ripped (confidence 8) [3C462566] (AR v2)
Track 8 accurately ripped (confidence 8) [C1447C0F] (AR v2)
Track 9 accurately ripped (confidence 7) [021FEE97] (AR v2)
Track 10 accurately ripped (confidence 8) [A7D42621] (AR v2)
Track 11 accurately ripped (confidence 8) [FA8F6CE4] (AR v2)
Track 12 accurately ripped (confidence 8) [A5F68A13] (AR v2)
Track 13 accurately ripped (confidence 8) [3EB3B2ED] (AR v2)
Track 14 accurately ripped (confidence 8) [AF899B5C] (AR v2)
Track 15 accurately ripped (confidence 8) [A4F6F8FE] (AR v2)

All tracks accurately ripped

End of status report

–– CUETools DB Plugin V2.1.6

[CTDB TOCID: DprQXAN31TYhpDOPN91D49hGy7I-] found
Submit result: already submitted
Track | CTDB Status
1 | (42/43) Accurately ripped
2 | (43/43) Accurately ripped
3 | (43/43) Accurately ripped
4 | (42/43) Accurately ripped
5 | (43/43) Accurately ripped
6 | (43/43) Accurately ripped
7 | (42/43) Accurately ripped
8 | (41/43) Accurately ripped
9 | (43/43) Accurately ripped
10 | (43/43) Accurately ripped
11 | (42/43) Accurately ripped
12 | (43/43) Accurately ripped
13 | (43/43) Accurately ripped
14 | (42/43) Accurately ripped
15 | (41/43) Accurately ripped


==== Log checksum 24ADD56622E86C24FA277859C1AFD34840D350C4C1C9A53DD7468BF46F5F7CFB ====

[CUETools log; Date: 03.07.2017 10:31:39; Version: 2.1.5]
Pregap length 00:00:33.
[CTDB TOCID: DprQXAN31TYhpDOPN91D49hGy7I-] found.
Track | CTDB Status
1 | (42/43) Accurately ripped
2 | (43/43) Accurately ripped
3 | (43/43) Accurately ripped
4 | (42/43) Accurately ripped
5 | (43/43) Accurately ripped
6 | (43/43) Accurately ripped
7 | (42/43) Accurately ripped
8 | (41/43) Accurately ripped
9 | (43/43) Accurately ripped
10 | (43/43) Accurately ripped
11 | (42/43) Accurately ripped
12 | (43/43) Accurately ripped
13 | (43/43) Accurately ripped
14 | (42/43) Accurately ripped
15 | (41/43) Accurately ripped
[AccurateRip ID: 00229898-0178f722-d40df30f] found.
Track [ CRC | V2 ] Status
01 [d2d53fb7|acb7bbde] (09+08/63) Accurately ripped
02 [d3931f82|05a46339] (09+08/64) Accurately ripped
03 [5405de5f|7ed59e10] (09+08/64) Accurately ripped
04 [5c4ea65c|26bfd432] (09+08/64) Accurately ripped
05 [a996df90|02ab5025] (09+08/64) Accurately ripped
06 [033c3d18|018dfd88] (08+08/61) Accurately ripped
07 [6f76a638|3c462566] (08+08/61) Accurately ripped
08 [edd9964c|c1447c0f] (08+08/63) Accurately ripped
09 [b35883d1|021fee97] (08+07/60) Accurately ripped
10 [c44f4f0b|a7d42621] (08+08/63) Accurately ripped
11 [481b37cb|fa8f6ce4] (08+08/63) Accurately ripped
12 [75a92c5f|a5f68a13] (08+08/63) Accurately ripped
13 [38a021fc|3eb3b2ed] (08+08/63) Accurately ripped
14 [c369663b|af899b5c] (08+08/63) Accurately ripped
15 [738b180f|a4f6f8fe] (09+08/62) Accurately ripped
Offsetted by -1501:
01 [97878bf4] (02/63) Accurately ripped
02 [de406ecd] (02/64) Accurately ripped
03 [32d8e16c] (02/64) Accurately ripped
04 [da6f63d8] (02/64) Accurately ripped
05 [a9a0e936] (02/64) Accurately ripped
06 [4ee2cff0] (02/61) Accurately ripped
07 [81c9a472] (02/61) Accurately ripped
08 [309542ce] (02/63) Accurately ripped
09 [92fd0aab] (02/60) Accurately ripped
10 [748eb8e7] (02/63) Accurately ripped
11 [7bdd7f82] (02/63) Accurately ripped
12 [2bddea14] (02/63) Accurately ripped
13 [161d2689] (02/63) Accurately ripped
14 [dbe9417d] (02/63) Accurately ripped
15 [e75b15eb] (02/62) Accurately ripped
Offsetted by -837:
01 [b69f19d5] (04/63) Accurately ripped
02 [50428378] (04/64) Accurately ripped
03 [f095b6c8] (04/64) Accurately ripped
04 [6e31504d] (04/64) Accurately ripped
05 [b37a91d6] (04/64) Accurately ripped
06 [23542935] (04/61) Accurately ripped
07 [b3049793] (04/61) Accurately ripped
08 [0683ad7b] (04/63) Accurately ripped
09 [af85eea9] (04/60) Accurately ripped
10 [3709af4d] (04/63) Accurately ripped
11 [6b9cc24f] (04/63) Accurately ripped
12 [89f4ccc0] (04/63) Accurately ripped
13 [8d99e781] (04/63) Accurately ripped
14 [5059d068] (04/63) Accurately ripped
15 [58fb0653] (04/62) Accurately ripped
Offsetted by -796:
01 [d0723a73] (04/63) Accurately ripped
02 [58fbaf01] (04/64) Accurately ripped
03 [c99d486a] (04/64) Accurately ripped
04 [e3df4633] (04/64) Accurately ripped
05 [37bba998] (04/64) Accurately ripped
06 [28700809] (04/61) Accurately ripped
07 [225839d1] (04/61) Accurately ripped
08 [426dc601] (04/63) Accurately ripped
09 [81ef7964] (04/60) Accurately ripped
10 [83852deb] (04/63) Accurately ripped
11 [9243f79d] (04/63) Accurately ripped
12 [6e003ab1] (04/63) Accurately ripped
13 [0b1b91a0] (04/63) Accurately ripped
14 [0ee4189c] (04/63) Accurately ripped
15 [b3c5a90b] (04/62) Accurately ripped
Offsetted by -203:
01 [c774b6f6] (00/63) No match (V2 was not tested)
02 [83115c6c] (00/64) No match (V2 was not tested)
03 [819aeda2] (00/64) No match (V2 was not tested)
04 [e385d9fe] (00/64) No match (V2 was not tested)
05 [ff64f235] (00/64) No match (V2 was not tested)
06 [cfffe828] (00/61) No match (V2 was not tested)
07 [3884012d] (00/61) No match (V2 was not tested)
08 [f365fa59] (00/63) No match (V2 was not tested)
09 [96d84b0b] (00/60) No match (V2 was not tested)
10 [7acc10a8] (00/63) No match (V2 was not tested)
11 [b67eb52b] (00/63) No match (V2 was not tested)
12 [5cc517db] (00/63) No match (V2 was not tested)
13 [033dcd70] (00/63) No match (V2 was not tested)
14 [f4f48fd0] (00/63) No match (V2 was not tested)
15 [ee215492] (00/62) No match (V2 was not tested)
Offsetted by -132:
01 [6bd895c8] (02/63) Accurately ripped
02 [5ff9a944] (02/64) Accurately ripped
03 [583f7ab8] (02/64) Accurately ripped
04 [97f073cd] (02/64) Accurately ripped
05 [cc59d050] (02/64) Accurately ripped
06 [acc80d15] (00/61) No match (V2 was not tested)
07 [9f5b26ab] (00/61) No match (V2 was not tested)
08 [0f0f2a13] (02/63) Accurately ripped
09 [71c2d693] (00/60) No match (V2 was not tested)
10 [82ea4cc0] (02/63) Accurately ripped
11 [dcf61081] (02/63) Accurately ripped
12 [3b24fbc7] (02/63) Accurately ripped
13 [47a0e967] (02/63) Accurately ripped
14 [6fe49a7b] (02/63) Accurately ripped
15 [7f2be923] (00/62) No match (V2 was not tested)

Track Peak [ CRC32 ] [W/O NULL] [ LOG ]
– 95,0 [9F8DCEA3] [06581EC6] CRC32
01 91,3 [5CEB283C] [BBB4EB9B]
02 70,4 [8C57A45E] [1545E318]
03 55,9 [E1ED11EC] [DCE47E35]
04 95,0 [AC9135F7] [B9ABEFB5]
05 63,2 [FB5E9609] [9D889C51]
06 77,8 [B8B9074B] [D5CDD72F]
07 47,7 [69CD769B] [CAE84BFF]
08 61,5 [08221DDD] [94743A8C]
09 40,4 [3881AD46] [3538CE3B]
10 62,2 [341676F6] [9E854E26]
11 21,6 [8A79FE0E] [2A48AB0C]
12 70,1 [CA5EC331] [44C4C4ED]
13 59,1 [886258CE] [74EC4CE3]
14 75,5 [6629036D] [5E0B534C]
15 29,9 [C7A19467] [89EBA9BC]

CD 2:
Act 3
1. Scène 1. Récitatif. "Je cède à vos" - Air. "D'une image, hélas! trop" - Scène 2. Récitatif. "Voici ces captifs" - Scène 3. Récitatif. "O joie inattendue!" 05:18
2. Trio. "Je pourrais du tyran tromper la" - Scène 4. Récitatif. "O moment trop heureux!" 04:08
3. Duo. "Et tu prétends encore que" - Récitatif. "Quoi! je ne vaincrai pas " 04:39
4. Air. "Ah! mon ami, j'implore ta pitié" - Duo. "Pylade! - Ah! mon ami, j'implore ta pitié" 02:21
5. Scène 5. Récitatif. "Malgré toi, je saurai" - "Quoi? toujours à mes voeux" - Scène 6. Récitatif. "Puisque le ciel à vos jours s'intéresse" 03:34
6. Scène 7. Air. "Divinité des grands âmes" 01:57
Act 4
7. Scène 1. Récitatif. "Non, cet affreux devoir" - Air. "Je t'implore et je tremble" 03:54
8. Scène 2. Choeur. "O Diane sois-nous" - Récitatif. "La force m'abandonne" 04:02
9. Hymne. "Chaste fille de Latone" 01:59
10. Récitatif. "Quel moment! Dieux puissants" - Scène 3. Récitatif. "Tremblez! tremblez!" 04:27
11. Scène 4. Air. "De tes forfaits la trame" - Récitatif. "Qu'oses-tu proposer" - Scène 5. Récitatif. "C'est à toi de mourir!" - Scène 6. Récitatif. "Arrêtez!" 03:32
12. Scène 7. Récitatif. "Ta soeur! qu'ai-je entendu?" - Air. "Dans cet objet touchant" - Choeur final. "Les Dieux, longtemps en courroux" 02:46

Exact Audio Copy V1.2 from 12. August 2016

EAC extraction logfile from 2. July 2017, 18:42

John Eliot Gardiner, Orchestre de l’Opéra de Lyon / Iphigénie en Tauride (Disc 2)

Used drive : MATSHITADVD-RAM UJ8G6 Adapter: 1 ID: 0

Read mode : Secure
Utilize accurate stream : Yes
Defeat audio cache : Yes
Make use of C2 pointers : No

Read offset correction : 103
Overread into Lead-In and Lead-Out : No
Fill up missing offset samples with silence : Yes
Delete leading and trailing silent blocks : No
Null samples used in CRC calculations : Yes
Used interface : Native Win32 interface for Win NT & 2000

Used output format : User Defined Encoder
Selected bitrate : 768 kBit/s
Quality : High
Add ID3 tag : No
Command line compressor : C:\Program Files (x86)\Exact Audio Copy\Flac\flac.exe
Additional command line options : -6 -V -T "ARTIST=%artist%" -T "TITLE=%title%" -T "ALBUM=%albumtitle%" -T "DATE=%year%" -T "TRACKNUMBER=%tracknr%" -T "GENRE=%genre%" -T "COMMENT=%comment%" -T "BAND=%albuminterpret%" -T "ALBUMARTIST=%albuminterpret%" -T "COMPOSER=%composer%" %haslyrics%–tag-from-file=LYRICS="%lyricsfile%"%haslyrics% -T "DISCNUMBER=%cdnumber%" -T "TOTALDISCS=%totalcds%" -T "TOTALTRACKS=%numtracks%" %hascover%–picture="%coverfile%"%hascover% %source% -o %dest%


TOC of the extracted CD

Track | Start | Length | Start sector | End sector
––––––––––––––––––––––––––––-
1 | 0:00.33 | 5:17.67 | 33 | 23874
2 | 5:18.25 | 4:08.30 | 23875 | 42504
3 | 9:26.55 | 4:38.53 | 42505 | 63407
4 | 14:05.33 | 2:21.00 | 63408 | 73982
5 | 16:26.33 | 3:34.30 | 73983 | 90062
6 | 20:00.63 | 2:04.45 | 90063 | 99407
7 | 22:05.33 | 3:54.00 | 99408 | 116957
8 | 25:59.33 | 4:02.25 | 116958 | 135132
9 | 30:01.58 | 1:59.02 | 135133 | 144059
10 | 32:00.60 | 4:27.30 | 144060 | 164114
11 | 36:28.15 | 3:31.43 | 164115 | 179982
12 | 39:59.58 | 2:45.50 | 179983 | 192407


Range status and errors

Selected range

Filename C:\Users\Roy\Music\GLUCK - Iphigénie en Tauride (1985) [Gardiner;\CD (FLAC + CUE)\CD 2\Christoph Willibald Gluck - Iphigénie en Tauride (Disc 2).wav

Peak level 69.9 %
Extraction speed 3.8 X
Range quality 100.0 %
Test CRC 61D2D87C
Copy CRC 61D2D87C
Copy OK

No errors occurred


AccurateRip summary

Track 1 accurately ripped (confidence 8) [C636E92F] (AR v2)
Track 2 accurately ripped (confidence 8) [74A61680] (AR v2)
Track 3 accurately ripped (confidence 8) [68A8AD3C] (AR v2)
Track 4 accurately ripped (confidence 9) [68AF4076] (AR v2)
Track 5 accurately ripped (confidence 8) [965C8848] (AR v2)
Track 6 accurately ripped (confidence 8) [6D89B339] (AR v2)
Track 7 accurately ripped (confidence 8) [466807D1] (AR v2)
Track 8 accurately ripped (confidence 8) [51AC79A1] (AR v2)
Track 9 accurately ripped (confidence 8) [5317244E] (AR v2)
Track 10 accurately ripped (confidence 8) [D3E1A6BC] (AR v2)
Track 11 accurately ripped (confidence 8) [DB5A39EB] (AR v2)
Track 12 accurately ripped (confidence 8) [0A8CC751] (AR v2)

All tracks accurately ripped

End of status report

–– CUETools DB Plugin V2.1.6

[CTDB TOCID: WmVtmRSSzrJ6wuMp5E5ZP_TsPzA-] found
Submit result: already submitted
Track | CTDB Status
1 | (39/42) Accurately ripped
2 | (40/42) Accurately ripped
3 | (40/42) Accurately ripped
4 | (41/42) Accurately ripped
5 | (40/42) Accurately ripped
6 | (40/42) Accurately ripped
7 | (40/42) Accurately ripped
8 | (40/42) Accurately ripped
9 | (40/42) Accurately ripped
10 | (40/42) Accurately ripped
11 | (40/42) Accurately ripped
12 | (40/42) Accurately ripped


==== Log checksum F4ABCCB13662A60C2519AE45D6130409B06C121E6AC357928824297B8A62CB8B ====

[CUETools log; Date: 03.07.2017 10:32:01; Version: 2.1.5]
Pregap length 00:00:33.
[CTDB TOCID: WmVtmRSSzrJ6wuMp5E5ZP_TsPzA-] found.
Track | CTDB Status
1 | (39/42) Accurately ripped
2 | (40/42) Accurately ripped
3 | (40/42) Accurately ripped
4 | (41/42) Accurately ripped
5 | (40/42) Accurately ripped
6 | (40/42) Accurately ripped
7 | (40/42) Accurately ripped
8 | (40/42) Accurately ripped
9 | (40/42) Accurately ripped
10 | (40/42) Accurately ripped
11 | (40/42) Accurately ripped
12 | (40/42) Accurately ripped
[AccurateRip ID: 00143b6c-00b889d1-920a050c] found.
Track [ CRC | V2 ] Status
01 [7dca4e07|c636e92f] (06+08/62) Accurately ripped
02 [62bf0516|74a61680] (06+08/62) Accurately ripped
03 [1d3730f6|68a8ad3c] (06+08/62) Accurately ripped
04 [276817b9|68af4076] (06+09/63) Accurately ripped
05 [8e6b8a31|965c8848] (06+08/61) Accurately ripped
06 [11adfec9|6d89b339] (06+08/62) Accurately ripped
07 [0cddeae1|466807d1] (07+08/63) Accurately ripped
08 [a0b6f3b0|51ac79a1] (07+08/63) Accurately ripped
09 [c9dbda01|5317244e] (07+08/63) Accurately ripped
10 [b0db3f29|d3e1a6bc] (07+08/63) Accurately ripped
11 [cb8efec8|db5a39eb] (07+08/63) Accurately ripped
12 [dfce7802|0a8cc751] (07+08/63) Accurately ripped
Offsetted by -1535:
01 [eb89610d] (06/62) Accurately ripped
02 [6cda18b4] (06/62) Accurately ripped
03 [c04e681a] (06/62) Accurately ripped
04 [4431f64a] (06/63) Accurately ripped
05 [3005977e] (06/61) Accurately ripped
06 [4714ea7b] (06/62) Accurately ripped
07 [c6607c32] (06/63) Accurately ripped
08 [8f0d84d1] (06/63) Accurately ripped
09 [590c4290] (06/63) Accurately ripped
10 [462a5054] (06/63) Accurately ripped
11 [9a38ff42] (06/63) Accurately ripped
12 [f595646b] (06/63) Accurately ripped
Offsetted by -877:
01 [18d914b8] (06/62) Accurately ripped
02 [02137160] (06/62) Accurately ripped
03 [bf9363d1] (06/62) Accurately ripped
04 [ba82417d] (06/63) Accurately ripped
05 [340d0670] (06/61) Accurately ripped
06 [b2f58b25] (06/62) Accurately ripped
07 [d30e4684] (06/63) Accurately ripped
08 [c9fc1dfc] (06/63) Accurately ripped
09 [e0415c8d] (06/63) Accurately ripped
10 [a27b82ac] (06/63) Accurately ripped
11 [e10ff907] (06/63) Accurately ripped
12 [0b4ee5b1] (06/63) Accurately ripped
Offsetted by -948:
01 [7cbcee4c] (00/62) No match (V2 was not tested)
02 [0fc9bc01] (00/62) No match (V2 was not tested)
03 [43d5779e] (00/62) No match (V2 was not tested)
04 [f35d8fa0] (00/63) No match (V2 was not tested)
05 [1ea334ce] (00/61) No match (V2 was not tested)
06 [6ca4f543] (00/62) No match (V2 was not tested)
07 [ce0dfb69] (00/63) No match (V2 was not tested)
08 [b4a3af22] (00/63) No match (V2 was not tested)
09 [d4cf5397] (00/63) No match (V2 was not tested)
10 [00396871] (00/63) No match (V2 was not tested)
11 [3cbd15fa] (00/63) No match (V2 was not tested)
12 [737b7c56] (00/63) No match (V2 was not tested)

Track Peak [ CRC32 ] [W/O NULL] [ LOG ]
– 69,9 [61D2D87C] [2A8DF739] CRC32
01 68,8 [BCEF7216] [E19B7DA7]
02 46,7 [65D176CD] [BE1F2C2E]
03 62,3 [AEB813ED] [62175ED7]
04 32,6 [8DDF018D] [9410AA1D]
05 46,0 [BB754D03] [D0850D5E]
06 59,8 [D5FEBD55] [E42A6AA7]
07 66,4 [D752BBD8] [AAFEA7CF]
08 48,3 [F9479B5F] [1AF94A9B]
09 60,0 [9512A794] [F91EC552]
10 69,9 [D9C8F35D] [CEBD76D0]
11 69,0 [8BF1AD66] [7179EA7D]
12 50,1 [375F15A8] [1EB3E160]

Performers:
Iphigénie - Diana Montague
Oreste - Thomas Allen
Pylade - John Aler
Thoas - René Massis
1e Prêtresse - Nancy Argenta
2e Prêtresse - Sophie Boulin
Diane - Colette Alliot-Lugaz
Une Grecque - Danielle Borst
Un ministre - René Schirrer
Prêtresses
Jane Armstrong, Suzanna Flowers
Carol Hall, Lucinda Houghton
Nicola Jenkin, Jean Knibbs
Rachel Platt, Mary Seers

Monteverdi Choir
Orchestre de L’Opéra de Lyon
John Eliot Gardiner, conductor

Thanks to the Original ripper (unknown)!

Download: