Subcategories

VA & David Bowie: Original New York Cast Of Lazarus (2016)

Posted By: v3122
VA & David Bowie: Original New York Cast Of Lazarus (2016)

VA & David Bowie: Original New York Cast Of Lazarus (2016)
EAC | Flac(Image) + Cue + Log & MP3 CBR 320Kbps
2CD | Columbia, 88985374912 | ~ 533 or 204 Mb | Scans Included
Rock, Pop, Musical

~ The original cast recording to the music by David Bowie and Enda Walsh ~

Ten months after the death of David Bowie, and we’re left with what exactly? Apart from a void in pop culture, he has bequeathed us an amazing final album (Blackstar) as well as Lazarus, a work of musical theatre that began life off-Broadway in December 2015. (It opens at London’s King Cross Theatre on November 8th; previews from October 25th.)
Written with Cork playwright Enda Walsh, Lazarus was intended as a sequel to Bowie and Nicolas Roeg's 1976 film The Man Who Fell to Earth. Bowie’s ill health may have prevented him from appearing in the stage production, but his prints are all over the cast album.
The first of two discs is the 19-track stage soundtrack, recorded on January 11th, hours after Bowie died. There are versions of The Man Who Sold the World, Life on Mars, Changes, Where Are We Now, Sound and Vision, Heroes and All the Young Dudes. The songs are pulled out of recognisable shape by actors Michael C Hall, Cristin Milioti and Sophia Anne Caruso, but also invested with a sparser, weirder kind of theatrical bent that is suitably audacious.
Disc two comprises four songs: Lazarus (from Blackstar) and three that, we are told, constitute Bowie’s final ever recordings. Written specifically for the musical and recorded at the same time as Blackstar (with the same terrific art-jazz band and empathetic producer Tony Visconti), they allude to death while maintaining the songwriter’s sense of the abstract.
Translation: if you’re searching for real clues in the lyrics, search elsewhere.
That the songs are as good as anything on Bowie’s swansong is clear: Killing a Little Time nods smartly to multi-limbed jazz-rock and When I Met You is blessed with a bracing chorus and controlled tune. No Plan, meanwhile, is a truly sublime ballad/torch song – a real Bowie knockout.
It seems there is still, against all odds, something in the air.
VA & David Bowie: Original New York Cast Of Lazarus (2016)


VA & David Bowie: Original New York Cast Of Lazarus (2016):

VA & David Bowie: Original New York Cast Of Lazarus (2016)

Tracklist CD1 - Lazarus (Original New York Cast by David Bowie & Enda Walsh):

01. Ricky Nelson - Hello Mary Lou (Goodbye Heart) [0:41]
02. Michael C. Hall & Original New York Cast of Lazarus - Lazarus [3:39]
03. Michael C. Hall, Lynn Craig & Original New York Cast of Lazarus - It's No Game [3:54]
04. Sophia Anne Caruso & Original New York Cast of Lazarus - This Is Not America [4:18]
05. Charlie Pollack - The Man Who Sold The World [3:22]
06. Sophia Anne Caruso - No Plan [3:36]
07. Michael Esper & Original New York Cast of Lazarus - Love Is Lost [2:55]
08. Cristin Milioti & Original New York Cast of Lazarus - Changes [3:58]
09. Michael C. Hall & Original New York Cast of Lazarus - Where Are We Now? [4:23]
10. Michael C. Hall, Cristin Milioti, Michael Esper, Sophia Anne Caruso, Krystina Alabado & Original New York Cast of Lazarus - Absolute Beginners [4:41]
11. Michael Esper - Dirty Boys [2:29]
12. Michael C. Hall - Killing A Little Time [3:49]
13. Sophia Anne Caruso - Life On Mars? [3:48]
14. Nicholas Christopher, Lynn Craig, Michael Esper, Sophia Anne Caruso & Original New York Cast of Lazarus - All The Young Dudes [2:55]
15. David Bowie - Sound And Vision [0:40]
16. Cristin Militia - Always Crashing In The Same Car [3:12]
17. Michael Esper & Original New York Cast of Lazarus - Valentine's Day [3:01]
18. Michael C. Hall & Krystina Alabama - When I Met You [3:56]
19. Michael C. Hall, Sophia Anne Caruso & Original New York Cast of Lazarus - Heroes [4:43]

Exact Audio Copy V1.1 from 23. June 2015

EAC extraction logfile from 21. October 2016, 17:47

Original New York Cast By David Bowie & Enda Walsh / Lazarus (CD1)

Used drive : Pioneer BDR-209DBK Adapter: 0 ID: 0

Read mode : Secure
Utilize accurate stream : Yes
Defeat audio cache : Yes
Make use of C2 pointers : No

Read offset correction : 6
Overread into Lead-In and Lead-Out : No
Fill up missing offset samples with silence : Yes
Delete leading and trailing silent blocks : No
Null samples used in CRC calculations : Yes
Used interface : Installed external ASPI interface

Used output format : Internal WAV Routines
Sample format : 44.100 Hz; 16 Bit; Stereo


TOC of the extracted CD

Track | Start | Length | Start sector | End sector
––––––––––––––––––––––––––––-
1 | 0:00.00 | 0:40.45 | 0 | 3044
2 | 0:40.45 | 3:39.08 | 3045 | 19477
3 | 4:19.53 | 3:53.46 | 19478 | 36998
4 | 8:13.24 | 4:18.06 | 36999 | 56354
5 | 12:31.30 | 3:22.15 | 56355 | 71519
6 | 15:53.45 | 3:35.56 | 71520 | 87700
7 | 19:29.26 | 2:55.34 | 87701 | 100859
8 | 22:24.60 | 3:58.13 | 100860 | 118722
9 | 26:22.73 | 4:22.55 | 118723 | 138427
10 | 30:45.53 | 4:40.63 | 138428 | 159490
11 | 35:26.41 | 2:28.42 | 159491 | 170632
12 | 37:55.08 | 3:48.59 | 170633 | 187791
13 | 41:43.67 | 3:48.34 | 187792 | 204925
14 | 45:32.26 | 2:55.29 | 204926 | 218079
15 | 48:27.55 | 0:40.36 | 218080 | 221115
16 | 49:08.16 | 3:12.28 | 221116 | 235543
17 | 52:20.44 | 3:00.48 | 235544 | 249091
18 | 55:21.17 | 3:56.05 | 249092 | 266796
19 | 59:17.22 | 4:43.37 | 266797 | 288058


Range status and errors

Selected range

Filename H:\Lazarus - Original NY Cast (EAC)\CD1\Original New York Cast By David Bowie & Enda Walsh - Lazarus (CD1).wav

Peak level 100.0 %
Extraction speed 7.9 X
Range quality 100.0 %
Test CRC 065EF84B
Copy CRC 065EF84B
Copy OK

No errors occurred


AccurateRip summary

Track 1 not present in database
Track 2 not present in database
Track 3 not present in database
Track 4 not present in database
Track 5 not present in database
Track 6 not present in database
Track 7 not present in database
Track 8 not present in database
Track 9 not present in database
Track 10 not present in database
Track 11 not present in database
Track 12 not present in database
Track 13 not present in database
Track 14 not present in database
Track 15 not present in database
Track 16 not present in database
Track 17 not present in database
Track 18 not present in database
Track 19 not present in database

None of the tracks are present in the AccurateRip database

End of status report

foobar2000 1.2.9 / Dynamic Range Meter 1.1.1
log date: 2016-10-22 06:51:22

––––––––––––––––––––––––––––––––––––––––
Analyzed: Charlie Pollack / Lazarus (CD1) (1)
Cristin Milioti & Original New York Cast of Lazarus / Lazarus (CD1) (2)
Cristin Militia / Lazarus (CD1) (3)
––––––––––––––––––––––––––––––––––––––––

DR Peak RMS Duration Track
––––––––––––––––––––––––––––––––––––––––
DR8 0.00 dB -9.84 dB 3:22 05-The Man Who Sold The World
DR7 -0.05 dB -10.93 dB 3:58 08-Changes
DR6 0.00 dB -8.23 dB 3:12 16-Always Crashing In The Same Car
––––––––––––––––––––––––––––––––––––––––

Number of tracks: 3
Official DR value: DR7

Samplerate: 44100 Hz
Channels: 2
Bits per sample: 16
Bitrate: 857 kbps
Codec: FLAC
================================================================================

––––––––––––––––––––––––––––––––––––––––
Analyzed: David Bowie / Lazarus (CD1) (1)
Michael C. Hall & Krystina Alabama / Lazarus (CD1) (2)
––––––––––––––––––––––––––––––––––––––––

DR Peak RMS Duration Track
––––––––––––––––––––––––––––––––––––––––
DR9 0.00 dB -11.46 dB 0:40 15-Sound And Vision
DR6 0.00 dB -8.00 dB 3:56 18-When I Met You
––––––––––––––––––––––––––––––––––––––––

Number of tracks: 2
Official DR value: DR8

Samplerate: 44100 Hz
Channels: 2
Bits per sample: 16
Bitrate: 857 kbps
Codec: FLAC
================================================================================

––––––––––––––––––––––––––––––––––––––––
Analyzed: Michael C. Hall & Original New York Cast of Lazarus / Lazarus (CD1) (1-2)
Michael C. Hall, Cristin Milioti, Michael Esper, Sophia Anne Caruso, Krystina Alabado & Original New York Cast of Lazarus / Lazarus (CD1) (3)
––––––––––––––––––––––––––––––––––––––––

DR Peak RMS Duration Track
––––––––––––––––––––––––––––––––––––––––
DR6 0.00 dB -8.13 dB 3:39 02-Lazarus
DR7 -0.04 dB -8.77 dB 4:23 09-Where Are We Now?
DR6 0.00 dB -8.55 dB 4:41 10-Absolute Beginners
––––––––––––––––––––––––––––––––––––––––

Number of tracks: 3
Official DR value: DR6

Samplerate: 44100 Hz
Channels: 2
Bits per sample: 16
Bitrate: 857 kbps
Codec: FLAC
================================================================================

––––––––––––––––––––––––––––––––––––––––
Analyzed: Michael C. Hall, Lynn Craig & Original New York Cast of Lazarus / Lazarus (CD1) (1)
Michael C. Hall, Sophia Anne Caruso & Original New York Cast of Lazarus / Lazarus (CD1) (2)
––––––––––––––––––––––––––––––––––––––––

DR Peak RMS Duration Track
––––––––––––––––––––––––––––––––––––––––
DR6 0.00 dB -7.11 dB 3:54 03-It's No Game
DR9 -0.07 dB -11.91 dB 4:43 19-Heroes
––––––––––––––––––––––––––––––––––––––––

Number of tracks: 2
Official DR value: DR7

Samplerate: 44100 Hz
Channels: 2
Bits per sample: 16
Bitrate: 857 kbps
Codec: FLAC
================================================================================

––––––––––––––––––––––––––––––––––––––––
Statistics for: 12-Killing A Little Time
Number of samples: 10089492
Duration: 3:49
––––––––––––––––––––––––––––––––––––––––

Left Right

Peak Value: 0.00 dB –- 0.00 dB
Avg RMS: -7.32 dB –- -7.42 dB
DR channel: 6.13 dB –- 5.92 dB
––––––––––––––––––––––––––––––––––––––––

Official DR Value: DR6

Samplerate: 44100 Hz
Channels: 2
Bits per sample: 16
Bitrate: 857 kbps
Codec: FLAC
================================================================================
––––––––––––––––––––––––––––––––––––––––
Analyzed: Michael Esper & Original New York Cast of Lazarus / Lazarus (CD1)
––––––––––––––––––––––––––––––––––––––––

DR Peak RMS Duration Track
––––––––––––––––––––––––––––––––––––––––
DR6 0.00 dB -7.14 dB 2:55 07-Love Is Lost
DR5 0.00 dB -6.67 dB 3:01 17-Valentine's Day
––––––––––––––––––––––––––––––––––––––––

Number of tracks: 2
Official DR value: DR6

Samplerate: 44100 Hz
Channels: 2
Bits per sample: 16
Bitrate: 857 kbps
Codec: FLAC
================================================================================

––––––––––––––––––––––––––––––––––––––––
Analyzed: Michael Esper / Lazarus (CD1) (1)
Nicholas Christopher, Lynn Craig, Michael Esper, Sophia Anne Caruso & Original New York Cast of Lazarus / Lazarus (CD1) (2)
––––––––––––––––––––––––––––––––––––––––

DR Peak RMS Duration Track
––––––––––––––––––––––––––––––––––––––––
DR6 0.00 dB -9.40 dB 2:29 11-Dirty Boys
DR5 0.00 dB -7.34 dB 2:55 14-All The Young Dudes
––––––––––––––––––––––––––––––––––––––––

Number of tracks: 2
Official DR value: DR6

Samplerate: 44100 Hz
Channels: 2
Bits per sample: 16
Bitrate: 857 kbps
Codec: FLAC
================================================================================

––––––––––––––––––––––––––––––––––––––––
Analyzed: Ricky Nelson / Lazarus (CD1) (1)
Sophia Anne Caruso & Original New York Cast of Lazarus / Lazarus (CD1) (2)
Sophia Anne Caruso / Lazarus (CD1) (3-4)
––––––––––––––––––––––––––––––––––––––––

DR Peak RMS Duration Track
––––––––––––––––––––––––––––––––––––––––
DR9 -3.56 dB -16.39 dB 0:41 01-Hello Mary Lou (Goodbye Heart)
DR8 -0.11 dB -11.83 dB 4:18 04-This Is Not America
DR7 -0.03 dB -10.14 dB 3:36 06-No Plan
DR7 0.00 dB -9.50 dB 3:48 13-Life On Mars?
––––––––––––––––––––––––––––––––––––––––

Number of tracks: 4
Official DR value: DR8

Samplerate: 44100 Hz
Channels: 2
Bits per sample: 16
Bitrate: 857 kbps
Codec: FLAC

[CUETools log; Date: 22.10.2016 6:40:58; Version: 2.1.4]
[CTDB TOCID: fGLul9dOsBPCEULFDuZcdipZR2U-] found.
Track | CTDB Status
1 | (13/13) Accurately ripped
2 | (13/13) Accurately ripped
3 | (13/13) Accurately ripped
4 | (13/13) Accurately ripped
5 | (13/13) Accurately ripped
6 | (13/13) Accurately ripped
7 | (13/13) Accurately ripped
8 | (13/13) Accurately ripped
9 | (13/13) Accurately ripped
10 | (13/13) Accurately ripped
11 | (13/13) Accurately ripped
12 | (13/13) Accurately ripped
13 | (13/13) Accurately ripped
14 | (13/13) Accurately ripped
15 | (13/13) Accurately ripped
16 | (13/13) Accurately ripped
17 | (13/13) Accurately ripped
18 | (13/13) Accurately ripped
19 | (13/13) Accurately ripped
[AccurateRip ID: 002b40cf-0262e8b2-0e0f0013] disk not present in database.

Track Peak [ CRC32 ] [W/O NULL] [ LOG ]
– 100,0 [065EF84B] [D4997CDC] CRC32
01 66,3 [FB1506D2] [DEF3BF76]
02 100,0 [E1492A7C] [2828E408]
03 100,0 [B5EFEFA3] [EA6F1421]
04 98,7 [C877D19C] [927B6B2F]
05 100,0 [9F167A1C] [2080E012]
06 99,6 [51FAC13A] [38140866]
07 100,0 [BEB41A1E] [151005B0]
08 99,4 [8A4B5B58] [5C9F9136]
09 99,4 [0E4AD778] [78508169]
10 100,0 [4695D6C1] [19506459]
11 100,0 [879859AC] [C9BCD414]
12 100,0 [5D94B68D] [CCB838D6]
13 100,0 [2BB76312] [0511F5DC]
14 100,0 [07ECECEE] [8B88E54B]
15 100,0 [D1F9C6A8] [3E34F947]
16 100,0 [36E96396] [11E491FD]
17 100,0 [47CDE3B3] [6482CFC4]
18 100,0 [01CFAFB3] [69ED411D]
19 99,2 [2635E190] [F0403128]

VA & David Bowie: Original New York Cast Of Lazarus (2016)

Tracklist CD2:

01. David Bowie - Lazarus [6:24]
02. David Bowie - No Plan [3:42]
03. David Bowie - Killing A Little Time [3:49]
04. David Bowie - When I Met You [4:09]

Exact Audio Copy V1.1 from 23. June 2015

EAC extraction logfile from 21. October 2016, 18:06

David Bowie / Lazarus (CD2)

Used drive : Pioneer BDR-209DBK Adapter: 0 ID: 0

Read mode : Secure
Utilize accurate stream : Yes
Defeat audio cache : Yes
Make use of C2 pointers : No

Read offset correction : 6
Overread into Lead-In and Lead-Out : No
Fill up missing offset samples with silence : Yes
Delete leading and trailing silent blocks : No
Null samples used in CRC calculations : Yes
Used interface : Installed external ASPI interface

Used output format : Internal WAV Routines
Sample format : 44.100 Hz; 16 Bit; Stereo


TOC of the extracted CD

Track | Start | Length | Start sector | End sector
––––––––––––––––––––––––––––-
1 | 0:00.00 | 6:24.34 | 0 | 28833
2 | 6:24.34 | 3:41.60 | 28834 | 45468
3 | 10:06.19 | 3:48.68 | 45469 | 62636
4 | 13:55.12 | 4:08.64 | 62637 | 81300


Range status and errors

Selected range

Filename H:\Lazarus - Original NY Cast (EAC)\CD2\David Bowie - Lazarus (CD2).wav

Peak level 100.0 %
Extraction speed 1.3 X
Range quality 100.0 %
Test CRC 4FC5C673
Copy CRC 4FC5C673
Copy OK

No errors occurred


AccurateRip summary

Track 1 not present in database
Track 2 not present in database
Track 3 not present in database
Track 4 not present in database

None of the tracks are present in the AccurateRip database

End of status report

foobar2000 1.2.9 / Dynamic Range Meter 1.1.1
log date: 2016-10-22 06:51:12

––––––––––––––––––––––––––––––––––––––––
Analyzed: David Bowie / Lazarus (CD2)
––––––––––––––––––––––––––––––––––––––––

DR Peak RMS Duration Track
––––––––––––––––––––––––––––––––––––––––
DR5 0.00 dB -6.89 dB 6:24 01-Lazarus
DR7 -0.03 dB -7.93 dB 3:42 02-No Plan
DR5 0.00 dB -6.06 dB 3:49 03-Killing A Little Time
DR5 0.00 dB -7.13 dB 4:09 04-When I Met You
––––––––––––––––––––––––––––––––––––––––

Number of tracks: 4
Official DR value: DR6

Samplerate: 44100 Hz
Channels: 2
Bits per sample: 16
Bitrate: 890 kbps
Codec: FLAC

[CUETools log; Date: 22.10.2016 6:45:11; Version: 2.1.4]
[CTDB TOCID: MWDqK..pm4Se65Zs4GfwPZSMr7k-] found.
Track | CTDB Status
1 | (15/15) Accurately ripped
2 | (15/15) Accurately ripped
3 | (15/15) Accurately ripped
4 | (15/15) Accurately ripped
[AccurateRip ID: 00035481-000cfcb9-33043c04] disk not present in database.

Track Peak [ CRC32 ] [W/O NULL] [ LOG ]
– 100,0 [4FC5C673] [B7E80B8E] CRC32
01 100,0 [E23C179C] [1DF6E19C]
02 99,6 [0D47AF60] [36BC1B0D]
03 100,0 [81A3458A] [769DC290]
04 100,0 [478AF589] [F6486708]

VA & David Bowie: Original New York Cast Of Lazarus (2016)

All thanks go to the original releaser

David Bowie in my Blog

Download VA & David Bowie: Original New York Cast Of Lazarus (2016):