Subcategories

Orquesta Sinfonica de Barcelona, Antoni Ros Marba - Tomas Breton: La Dolores (2000)

Posted By: tirexiss
Orquesta Sinfonica de Barcelona, Antoni Ros Marba - Tomas Breton: La Dolores (2000)

Orquesta Sinfonica de Barcelona, Antoni Ros Marba - Tomas Breton: La Dolores (2000)
EAC | FLAC (image+.cue, log) | Covers Included | 02:33:52 | 617 MB
Genre: Classical, Opera | Label: Decca | Catalog: 466 060 2

Tomas Breton's La Dolores from 1895–in which all the male characters love the heroine, Dolores, who works in an inn–is an opera espagnola: a full-blown opera, not a zarzuela, and its plot, characters, mood, and music could belong to no other country but Spain. Breton's musical idiom is late romantic, and he's a fine composer. The opera's acts build with good intensity, and throughout he keeps the local flavor alive with dances and rhythms that are peculiarly Spanish. Elisabete Matos is a good, colorful singer, but since Dolores is so easy to fall in love with, so should her voice be; the role could have used Victoria de los Angeles's combination of earthiness and purity. The supporting roles are well, if occasionally roughly, taken. Tito Beltran makes the most of the second-tenor role of Celemin, but the plum role of Lazaro goes to Placido Domingo, who is in good, generalized-ardency voice and demeanor. Antonio Ros-Marba leads a lively, completely idiomatic performance. This is a worthy addition to the catalog. – Robert Levine

Orquesta Sinfonica de Barcelona, Antoni Ros Marba - Tomas Breton: La Dolores (2000)

Track List:

CD 1:
01. La Dolores: Preludio
02. La Dolores: Acto Primero - Trabaja, trabaja, que es fiesta manana! (Alpargateros)
03. La Dolores: Acto Primero - Soldados! (Vendedoras)
04. La Dolores: Acto Primero - Por que a sus inferiores. . . ? (Patricio)
05. La Dolores: Acto Primero - Por tu gracia! - Por tu aquel! (Patricio) (Rojas)
06. La Dolores: Acto Primero - Dolores! - Bien vengas Lazaro (Lazaro) (Dolores)
07. La Dolores: Acto Primero - Me han dicho que casabas (Dolores)
08. La Dolores: Acto Primero - Pasacalle
09. La Dolores: Acto Primero - Jota
10. La Dolores: Acto Primero - Bravo, bravo! bien senores (Rojas)
11. La Dolores: Acto Segundo - Preludio
12. La Dolores: Acto Segundo - Ay que misa mayor! (Gaspara)
13. La Dolores: Acto Segundo - Que hacer, Senor, en situacion tan ruda! (Lazaro)
14. La Dolores: Acto Segundo - Adios curita! (Patricio)
15. La Dolores: Acto Segundo - Don Patricio, que esta haciendo? (Rojas)
16. La Dolores: Acto Segundo - En cuanto de la musica (Rojas)

Exact Audio Copy V1.3 from 2. September 2016

EAC extraction logfile from 17. August 2017, 14:35

Antoni Ros Marbà / Tomás Bretón - La Dolores CD1

Used drive : MATSHITADVD-RAM UJ8E1 Adapter: 1 ID: 0

Read mode : Secure
Utilize accurate stream : Yes
Defeat audio cache : Yes
Make use of C2 pointers : No

Read offset correction : 6
Overread into Lead-In and Lead-Out : No
Fill up missing offset samples with silence : Yes
Delete leading and trailing silent blocks : No
Null samples used in CRC calculations : Yes
Used interface : Native Win32 interface for Win NT & 2000

Used output format : User Defined Encoder
Selected bitrate : 1024 kBit/s
Quality : High
Add ID3 tag : No
Command line compressor : C:\Program Files (x86)\Exact Audio Copy\FLAC\FLAC.EXE
Additional command line options : -6 -V -T "ARTIST=%artist%" -T "TITLE=%title%" -T "ALBUM=%albumtitle%" -T "DATE=%year%" -T "TRACKNUMBER=%tracknr%" -T "GENRE=%genre%" -T "COMMENT=%comment%" -T "BAND=%albuminterpret%" -T "ALBUMARTIST=%albuminterpret%" -T "COMPOSER=%composer%" %haslyrics%–tag-from-file=LYRICS="%lyricsfile%"%haslyrics% -T "DISCNUMBER=%cdnumber%" -T "TOTALDISCS=%totalcds%" -T "TOTALTRACKS=%numtracks%" %hascover%–picture="%coverfile%"%hascover% %source% -o %dest%


TOC of the extracted CD

Track | Start | Length | Start sector | End sector
––––––––––––––––––––––––––––-
1 | 0:00.00 | 4:35.33 | 0 | 20657
2 | 4:35.33 | 6:40.17 | 20658 | 50674
3 | 11:15.50 | 4:54.29 | 50675 | 72753
4 | 16:10.04 | 6:57.23 | 72754 | 104051
5 | 23:07.27 | 1:40.43 | 104052 | 111594
6 | 24:47.70 | 4:16.69 | 111595 | 130863
7 | 29:04.64 | 7:50.26 | 130864 | 166139
8 | 36:55.15 | 4:50.49 | 166140 | 187938
9 | 41:45.64 | 7:29.25 | 187939 | 221638
10 | 49:15.14 | 5:28.26 | 221639 | 246264
11 | 54:43.40 | 1:26.61 | 246265 | 252775
12 | 56:10.26 | 1:59.64 | 252776 | 261764
13 | 58:10.15 | 5:06.31 | 261765 | 284745
14 | 63:16.46 | 2:57.72 | 284746 | 298092
15 | 66:14.43 | 1:43.56 | 298093 | 305873
16 | 67:58.24 | 4:51.18 | 305874 | 327716


Range status and errors

Selected range

Filename C:\Users\Usuario\Desktop\Antoni Ros Marbà - Tomás Bretón - La Dolores CD1.wav

Peak level 100.0 %
Extraction speed 5.0 X
Range quality 99.9 %
Test CRC C7FD0767
Copy CRC C7FD0767
Copy OK

No errors occurred


AccurateRip summary

Track 1 accurately ripped (confidence 6) [9672ECE9] (AR v2)
Track 2 accurately ripped (confidence 6) [CC204DEC] (AR v2)
Track 3 accurately ripped (confidence 6) [01EFBE0D] (AR v2)
Track 4 accurately ripped (confidence 6) [BACE6707] (AR v2)
Track 5 accurately ripped (confidence 6) [0BA9B980] (AR v2)
Track 6 accurately ripped (confidence 6) [BA3A70A2] (AR v2)
Track 7 accurately ripped (confidence 6) [7950EF7C] (AR v2)
Track 8 accurately ripped (confidence 6) [3E075ED7] (AR v2)
Track 9 accurately ripped (confidence 6) [985C39D9] (AR v2)
Track 10 accurately ripped (confidence 6) [34E6FD8E] (AR v2)
Track 11 accurately ripped (confidence 6) [78EAC042] (AR v2)
Track 12 accurately ripped (confidence 6) [FB96AD5E] (AR v2)
Track 13 accurately ripped (confidence 6) [BF20C711] (AR v2)
Track 14 accurately ripped (confidence 6) [A3C5EFAD] (AR v2)
Track 15 accurately ripped (confidence 6) [7E6B9FCD] (AR v2)
Track 16 accurately ripped (confidence 6) [1F969D3B] (AR v2)

All tracks accurately ripped

End of status report

–– CUETools DB Plugin V2.1.6

[CTDB TOCID: GFZ.JKasNINQiyaJ1uoZ_sE6MGE-] found
Submit result: GFZ.JKasNINQiyaJ1uoZ_sE6MGE- has been confirmed
Track | CTDB Status
1 | (6/6) Accurately ripped
2 | (6/6) Accurately ripped
3 | (6/6) Accurately ripped
4 | (6/6) Accurately ripped
5 | (6/6) Accurately ripped
6 | (6/6) Accurately ripped
7 | (6/6) Accurately ripped
8 | (6/6) Accurately ripped
9 | (6/6) Accurately ripped
10 | (6/6) Accurately ripped
11 | (6/6) Accurately ripped
12 | (6/6) Accurately ripped
13 | (6/6) Accurately ripped
14 | (6/6) Accurately ripped
15 | (6/6) Accurately ripped
16 | (6/6) Accurately ripped


==== Log checksum D0CBCD5BBE145D60D803FFA1EBF959627D516A86F4FF00DA38C64A47199C79B9 ====

[CUETools log; Date: 18.08.2017 10:36:21; Version: 2.1.5]
[CTDB TOCID: GFZ.JKasNINQiyaJ1uoZ_sE6MGE-] found.
Track | CTDB Status
1 | (7/7) Accurately ripped
2 | (7/7) Accurately ripped
3 | (7/7) Accurately ripped
4 | (7/7) Accurately ripped
5 | (7/7) Accurately ripped
6 | (7/7) Accurately ripped
7 | (7/7) Accurately ripped
8 | (7/7) Accurately ripped
9 | (7/7) Accurately ripped
10 | (7/7) Accurately ripped
11 | (7/7) Accurately ripped
12 | (7/7) Accurately ripped
13 | (7/7) Accurately ripped
14 | (7/7) Accurately ripped
15 | (7/7) Accurately ripped
16 | (7/7) Accurately ripped
[AccurateRip ID: 002e70e0-0223b855-1a111110] found.
Track [ CRC | V2 ] Status
01 [809de446|9672ece9] (0+6/6) Accurately ripped
02 [98b46fb8|cc204dec] (0+6/6) Accurately ripped
03 [ae7d4a49|01efbe0d] (0+6/6) Accurately ripped
04 [99b04856|bace6707] (0+6/6) Accurately ripped
05 [7188178f|0ba9b980] (0+6/6) Accurately ripped
06 [66adde6d|ba3a70a2] (0+6/6) Accurately ripped
07 [9bd8d55e|7950ef7c] (0+6/6) Accurately ripped
08 [2fb0d01b|3e075ed7] (0+6/6) Accurately ripped
09 [a9ad118d|985c39d9] (0+6/6) Accurately ripped
10 [9db6b765|34e6fd8e] (0+6/6) Accurately ripped
11 [d43983b1|78eac042] (0+6/6) Accurately ripped
12 [8609bde4|fb96ad5e] (0+6/6) Accurately ripped
13 [846d6630|bf20c711] (0+6/6) Accurately ripped
14 [585be108|a3c5efad] (0+6/6) Accurately ripped
15 [643d8a6d|7e6b9fcd] (0+6/6) Accurately ripped
16 [c1828526|1f969d3b] (0+6/6) Accurately ripped

Track Peak [ CRC32 ] [W/O NULL] [ LOG ]
– 100,0 [C7FD0767] [80E320B9] CRC32
01 85,0 [26C9A452] [02FF4EA0]
02 61,0 [3B885103] [0EC57559]
03 100,0 [C5AD4E4E] [68A06F96]
04 46,3 [58E850D9] [ED671F55]
05 90,9 [03CE0313] [C73F34CF]
06 40,4 [25CB3E2D] [C210D4B2]
07 82,7 [A6BE757F] [50668FD1]
08 60,0 [9CFE16BE] [CF9A5129]
09 100,0 [C6537D04] [E1FB1E5E]
10 85,4 [26BF21EF] [E81D0361]
11 12,0 [3A396F22] [B2744A33]
12 26,5 [A8D9AF0A] [1BABFDA2]
13 41,8 [F5CF583E] [91C9E569]
14 72,2 [3E46D187] [4021B99A]
15 61,7 [0FE877C7] [8CED3F39]
16 95,0 [9592B265] [CD5C61BD]

CD 2:
01. La Dolores: Acto Segundo - Marchemos! (Patricio)
02. La Dolores: Acto Segundo - La guitarra! - Prevenida, te la vengo yo a traer! (Melchor) (Dolores)
03. La Dolores: Acto Segundo - Dolores. . . si peque! (Melchor)
04. La Dolores: Acto Segundo - Sera posible, oh cielo, que mi alma dolorida. . . ! (Dolores)
05. La Dolores: Acto Segundo - No eches la llave a todo evento (Rojas)
06. La Dolores: Acto Segundo - Vengan todos que es de ver! (Celemin)
07. La Dolores: Acto Segundo - Viva Patricio, viva, viva! (Coro)
08. La Dolores: Acto Tercero - Preludio
09. La Dolores: Acto Tercero - Ora pr nobis. . . Stella Matutina (Coro) (Dolores) (Gaspara) (Celemin) (Lazaro)
10. La Dolores: Acto Tercero - A las cinco salir debes manana (Gaspara)
11. La Dolores: Acto Tercero - Pues solos un momento quedamos por azar ( Celemin)
12. La Dolores: Acto Tercero - Yo le decia . . . - Callate! (Celemin) (Dolores)
13. La Dolores: Acto Tercero - Infame, infame sirvienta! (Gaspara)
14. La Dolores: Acto Tercero - Tarde senti cuitada (Dolores)
15. La Dolores: Acto Tercero - Ya no te temo, hora fatidica! (Dolores)
16. La Dolores: Acto Tercero - Jesus! - Que! - Sonabas, mujer infelice! (Dolores) (Lazaro)
17. La Dolores: Acto Tercero - Entra! - Tardaste! (Dolores) (Melchor)
18. La Dolores: Acto Tercero - Ah! . . . Lazaro! - Yo soy! (Dolores) (Lazaro)

Exact Audio Copy V1.3 from 2. September 2016

EAC extraction logfile from 17. August 2017, 15:20

Antoni Ros Marbà / Tomás Bretón - La Dolores CD2

Used drive : MATSHITADVD-RAM UJ8E1 Adapter: 1 ID: 0

Read mode : Secure
Utilize accurate stream : Yes
Defeat audio cache : Yes
Make use of C2 pointers : No

Read offset correction : 6
Overread into Lead-In and Lead-Out : No
Fill up missing offset samples with silence : Yes
Delete leading and trailing silent blocks : No
Null samples used in CRC calculations : Yes
Used interface : Native Win32 interface for Win NT & 2000

Used output format : User Defined Encoder
Selected bitrate : 1024 kBit/s
Quality : High
Add ID3 tag : No
Command line compressor : C:\Program Files (x86)\Exact Audio Copy\FLAC\FLAC.EXE
Additional command line options : -6 -V -T "ARTIST=%artist%" -T "TITLE=%title%" -T "ALBUM=%albumtitle%" -T "DATE=%year%" -T "TRACKNUMBER=%tracknr%" -T "GENRE=%genre%" -T "COMMENT=%comment%" -T "BAND=%albuminterpret%" -T "ALBUMARTIST=%albuminterpret%" -T "COMPOSER=%composer%" %haslyrics%–tag-from-file=LYRICS="%lyricsfile%"%haslyrics% -T "DISCNUMBER=%cdnumber%" -T "TOTALDISCS=%totalcds%" -T "TOTALTRACKS=%numtracks%" %hascover%–picture="%coverfile%"%hascover% %source% -o %dest%


TOC of the extracted CD

Track | Start | Length | Start sector | End sector
––––––––––––––––––––––––––––-
1 | 0:00.00 | 3:13.56 | 0 | 14530
2 | 3:13.56 | 3:21.61 | 14531 | 29666
3 | 6:35.42 | 4:08.38 | 29667 | 48304
4 | 10:44.05 | 5:44.15 | 48305 | 74119
5 | 16:28.20 | 6:28.24 | 74120 | 103243
6 | 22:56.44 | 2:30.34 | 103244 | 114527
7 | 25:27.03 | 5:49.66 | 114528 | 140768
8 | 31:16.69 | 7:35.39 | 140769 | 174932
9 | 38:52.33 | 2:53.13 | 174933 | 187920
10 | 41:45.46 | 1:58.42 | 187921 | 196812
11 | 43:44.13 | 3:45.57 | 196813 | 213744
12 | 47:29.70 | 2:39.09 | 213745 | 225678
13 | 50:09.04 | 6:03.58 | 225679 | 252961
14 | 56:12.62 | 4:53.54 | 252962 | 274990
15 | 61:06.41 | 6:28.67 | 274991 | 304157
16 | 67:35.33 | 5:17.09 | 304158 | 327941
17 | 72:52.42 | 5:59.11 | 327942 | 354877
18 | 78:51.53 | 2:11.16 | 354878 | 364718


Range status and errors

Selected range

Filename C:\Users\Usuario\Desktop\Antoni Ros Marbà - Tomás Bretón - La Dolores CD2.wav

Peak level 59.5 %
Extraction speed 3.6 X
Range quality 99.9 %
Test CRC BF73B95B
Copy CRC BF73B95B
Copy OK

No errors occurred


AccurateRip summary

Track 1 accurately ripped (confidence 6) [EF3CD976] (AR v2)
Track 2 accurately ripped (confidence 6) [E80679DD] (AR v2)
Track 3 accurately ripped (confidence 6) [70365AA0] (AR v2)
Track 4 accurately ripped (confidence 6) [FE49F799] (AR v2)
Track 5 accurately ripped (confidence 6) [FE70C2E8] (AR v2)
Track 6 accurately ripped (confidence 6) [8BEFD58B] (AR v2)
Track 7 accurately ripped (confidence 6) [52C26C60] (AR v2)
Track 8 accurately ripped (confidence 6) [B8D630FE] (AR v2)
Track 9 accurately ripped (confidence 6) [E1578A54] (AR v2)
Track 10 accurately ripped (confidence 6) [6A5DA023] (AR v2)
Track 11 accurately ripped (confidence 6) [9DDDFFAE] (AR v2)
Track 12 accurately ripped (confidence 6) [4983F9B9] (AR v2)
Track 13 accurately ripped (confidence 6) [BEDEDA96] (AR v2)
Track 14 accurately ripped (confidence 6) [CE985230] (AR v2)
Track 15 accurately ripped (confidence 6) [7893C502] (AR v2)
Track 16 accurately ripped (confidence 6) [E0FBAE41] (AR v2)
Track 17 accurately ripped (confidence 6) [017D7773] (AR v2)
Track 18 accurately ripped (confidence 6) [D8BBCC12] (AR v2)

All tracks accurately ripped

End of status report

–– CUETools DB Plugin V2.1.6

[CTDB TOCID: fpamG2reGtCVBgjrA8s4XakPhv0-] found
Submit result: fpamG2reGtCVBgjrA8s4XakPhv0- has been confirmed
Track | CTDB Status
1 | (6/6) Accurately ripped
2 | (6/6) Accurately ripped
3 | (6/6) Accurately ripped
4 | (6/6) Accurately ripped
5 | (6/6) Accurately ripped
6 | (6/6) Accurately ripped
7 | (6/6) Accurately ripped
8 | (6/6) Accurately ripped
9 | (6/6) Accurately ripped
10 | (6/6) Accurately ripped
11 | (6/6) Accurately ripped
12 | (6/6) Accurately ripped
13 | (6/6) Accurately ripped
14 | (6/6) Accurately ripped
15 | (6/6) Accurately ripped
16 | (6/6) Accurately ripped
17 | (6/6) Accurately ripped
18 | (6/6) Accurately ripped


==== Log checksum C55C924C8ED2189FBCDCC9E1424850FBB523CD63143FEA00F55C08EC120082FB ====

[CUETools log; Date: 18.08.2017 10:36:44; Version: 2.1.5]
[CTDB TOCID: fpamG2reGtCVBgjrA8s4XakPhv0-] found.
Track | CTDB Status
1 | (7/7) Accurately ripped
2 | (7/7) Accurately ripped
3 | (7/7) Accurately ripped
4 | (7/7) Accurately ripped
5 | (7/7) Accurately ripped
6 | (7/7) Accurately ripped
7 | (7/7) Accurately ripped
8 | (7/7) Accurately ripped
9 | (7/7) Accurately ripped
10 | (7/7) Accurately ripped
11 | (7/7) Accurately ripped
12 | (7/7) Accurately ripped
13 | (7/7) Accurately ripped
14 | (7/7) Accurately ripped
15 | (7/7) Accurately ripped
16 | (7/7) Accurately ripped
17 | (7/7) Accurately ripped
18 | (7/7) Accurately ripped
[AccurateRip ID: 0033f081-02ba6c4d-1d12fe12] found.
Track [ CRC | V2 ] Status
01 [5595f6aa|ef3cd976] (0+6/6) Accurately ripped
02 [37fb6b13|e80679dd] (0+6/6) Accurately ripped
03 [deeda1e1|70365aa0] (0+6/6) Accurately ripped
04 [1bc600ae|fe49f799] (0+6/6) Accurately ripped
05 [0607383a|fe70c2e8] (0+6/6) Accurately ripped
06 [c7dca3ab|8befd58b] (0+6/6) Accurately ripped
07 [8d5c8b30|52c26c60] (0+6/6) Accurately ripped
08 [490ada4e|b8d630fe] (0+6/6) Accurately ripped
09 [b82da600|e1578a54] (0+6/6) Accurately ripped
10 [7eb55d8d|6a5da023] (0+6/6) Accurately ripped
11 [774c0261|9dddffae] (0+6/6) Accurately ripped
12 [3c02fe00|4983f9b9] (0+6/6) Accurately ripped
13 [e5550749|bededa96] (0+6/6) Accurately ripped
14 [f31e30ba|ce985230] (0+6/6) Accurately ripped
15 [476216d2|7893c502] (0+6/6) Accurately ripped
16 [b777b817|e0fbae41] (0+6/6) Accurately ripped
17 [0286628c|017d7773] (0+6/6) Accurately ripped
18 [1620871d|d8bbcc12] (0+6/6) Accurately ripped

Track Peak [ CRC32 ] [W/O NULL] [ LOG ]
– 59,5 [BF73B95B] [BFD28736] CRC32
01 40,9 [F6555D40] [018DE262]
02 55,5 [B8DC1DB7] [744265B5]
03 50,8 [4647986E] [139E49D8]
04 53,1 [63BE3C4C] [305F35F9]
05 59,5 [B2D39F16] [45D21D8B]
06 59,5 [CBD53AF4] [5308D8CB]
07 59,5 [E9E5C338] [8C953A3A]
08 40,3 [254DD9B3] [390BB0C4]
09 13,4 [D1A80F92] [4D8E9E0B]
10 26,7 [8E52A329] [60C4C6BE]
11 50,3 [B5619786] [9B4E6207]
12 43,7 [551C01E5] [0FA23E96]
13 39,8 [7C73689F] [7EE9B564]
14 28,9 [68AEE701] [DC702390]

Performers:
Dolores – Elisabete Matos
Gaspara – Raquel Pierotti
Lázaro – Plácido Domingo
Celemín – Tito Beltrán
Melchor – Manuel Lanza
Sargento Rojas – Stefano Palatchi
Patricio – Enrique Baquerizo
Coro del Gran Teatro del Liceo

Orquesta Sinfónica de Barcelona y Nacional de Catalunya
Director - Antoni Ros Marbà

Thanks to the Original ripper (unknown)!

Download: