Subcategories

Oscar Castro-Neves - Playful Heart (2003) {Mack Avenue}

Posted By: tiburon
Oscar Castro-Neves - Playful Heart (2003) {Mack Avenue}

Oscar Castro-Neves - Playful Heart (2003) {Mack Avenue}
EAC 1.0b3 | FLAC tracks level 8 | Cue+Log+M3U | Scans 300dpi | 295MB + 5% Recovery
MP3 CBR 320 Kbps | 127MB + 5% Recovery
Genre: Brazilian Jazz, Bossa Nova

The beloved Brazilian guitar legend's resumé is so chock-full of varied musical experiences – jazz, pop, film scoring, ten years with Sergio Mendes – that his brilliant solo efforts can't help but include informal homages to different eras of his life. He starts out here getting straight to the heart of the matter, paying tribute to his fellow countryman Antonio Carlos Jobim with a self-contained plucky guitar/vocal duet of "Waters of March," which includes spirited scat passages. He moves into samba mode for a lively medley of Dizzy Gillespie and Charlie Parker tunes, "Groovin' High/Whispering," deferring to Toots Thielemans' always engaging harmonica for melody as he harmonizes gently; then they switch roles. His other medley is a wilder, more percussive mix of a standard and an original, "Lorry's Swing/Autumn Leaves." Mixing modes, tempos, and moods, he mines standards ("Watch What Happens," "My Foolish Heart") and Brazilian classics (more by Jobim and Luiz Bonfá), and offers a dreamy take on "The Fool on the Hill," the Beatles song that Mendes made a famous cover of. No matter the rhythm pattern, outside percussion influence, or ensemble contribution (Don Grusin and Gary Meek make notable contributions), the soul of each tune is Castro-Neves' precise, melodic strings. From the diversity of this disc, it's clear he has a lot of beautiful memories to play with.
Track List
01. Waters Of March 3:00
02. Groovin' High/Whispering 2:50
03. Watch What Happens 3:46
04. My Foolish Heart 3:43
05. Manha De #3 Carnaval/Prelude #3 4:26
06. Four Brothers 4:21
07. The Fool On The Hill 4:41
08. Lorry's Swing/Autumn Leaves 3:14
09. Send In The Clowns 4:35
10. Everything Happens To Me 3:57
11. Twenty Year Love Affair 4:48
12. Wave 5:30
13. Caruso 6:21

musicians
Bass, Drums, Percussion – Carlos Del Rosario
Guitar, Arranged By – Oscar Castro-Neves
Harmonica – Toots Thielemans
Piano – Don Grusin
Violin – Charlie Bisharat
Woodwind – Gary Meek

Produced by Oscar Castro-Neves


Exact Audio Copy V1.0 beta 3 from 29. August 2011

EAC extraction logfile from 10. November 2012, 12:44

Oscar Castro-Neves / Playful Heart

Used drive : ATAPI iHBS112 2 Adapter: 2 ID: 0

Read mode : Secure
Utilize accurate stream : Yes
Defeat audio cache : Yes
Make use of C2 pointers : No

Read offset correction : 6
Overread into Lead-In and Lead-Out : No
Fill up missing offset samples with silence : Yes
Delete leading and trailing silent blocks : No
Null samples used in CRC calculations : Yes
Used interface : Installed external ASPI interface
Gap handling : Appended to previous track

Used output format : User Defined Encoder
Selected bitrate : 1024 kBit/s
Quality : High
Add ID3 tag : No
Command line compressor : C:\Program Files (x86)\Exact Audio Copy\Flac\flac.exe
Additional command line options : -8 -V -T "ARTIST=%artist%" -T "TITLE=%title%" -T "ALBUM=%albumtitle%" -T "DATE=%year%" -T "TRACKNUMBER=%tracknr%" -T "GENRE=%genre%" -T "PERFORMER=%albuminterpret%" -T "COMPOSER=%composer%" %haslyrics%–tag-from-file=LYRICS="%lyricsfile%"%haslyrics% -T "ALBUMARTIST=%albumartist%" -T "DISCNUMBER=%cdnumber%" -T "TOTALDISCS=%totalcds%" -T "TOTALTRACKS=%numtracks%" -T "COMMENT=%comment%" %source% -o %dest%


TOC of the extracted CD

Track | Start | Length | Start sector | End sector
––––––––––––––––––––––––––––-
1 | 0:00.00 | 3:02.13 | 0 | 13662
2 | 3:02.13 | 2:51.65 | 13663 | 26552
3 | 5:54.03 | 3:48.28 | 26553 | 43680
4 | 9:42.31 | 3:45.68 | 43681 | 60623
5 | 13:28.24 | 4:28.64 | 60624 | 80787
6 | 17:57.13 | 4:23.40 | 80788 | 100552
7 | 22:20.53 | 4:43.46 | 100553 | 121823
8 | 27:04.24 | 3:16.70 | 121824 | 136593
9 | 30:21.19 | 4:37.59 | 136594 | 157427
10 | 34:59.03 | 3:59.63 | 157428 | 175415
11 | 38:58.66 | 4:48.06 | 175416 | 197021
12 | 43:46.72 | 5:32.30 | 197022 | 221951
13 | 49:19.27 | 6:21.37 | 221952 | 250563


Track 1

Filename G:\EAC Rips\Oscar Castro-Neves - 2003 - Playful Heart - CD - Original Release - FLAC\01 - Waters of March (Águas de Março).wav

Pre-gap length 0:00:02.00

Peak level 98.8 %
Extraction speed 1.8 X
Track quality 100.0 %
Test CRC 90738579
Copy CRC 90738579
Track not present in AccurateRip database
Copy OK

Track 2

Filename G:\EAC Rips\Oscar Castro-Neves - 2003 - Playful Heart - CD - Original Release - FLAC\02 - Groovin' High (Whispering).wav

Pre-gap length 0:00:02.00

Peak level 98.8 %
Extraction speed 2.0 X
Track quality 100.0 %
Test CRC 09CB97F0
Copy CRC 09CB97F0
Track not present in AccurateRip database
Copy OK

Track 3

Filename G:\EAC Rips\Oscar Castro-Neves - 2003 - Playful Heart - CD - Original Release - FLAC\03 - Watch What Happens.wav

Pre-gap length 0:00:01.42

Peak level 98.3 %
Extraction speed 1.6 X
Track quality 99.9 %
Test CRC 268F1A41
Copy CRC 268F1A41
Track not present in AccurateRip database
Copy OK

Track 4

Filename G:\EAC Rips\Oscar Castro-Neves - 2003 - Playful Heart - CD - Original Release - FLAC\04 - My Foolish Heart.wav

Pre-gap length 0:00:02.00

Peak level 98.8 %
Extraction speed 2.4 X
Track quality 100.0 %
Test CRC 6614AAAD
Copy CRC 6614AAAD
Track not present in AccurateRip database
Copy OK

Track 5

Filename G:\EAC Rips\Oscar Castro-Neves - 2003 - Playful Heart - CD - Original Release - FLAC\05 - Manhã de Carnaval; Prelude #3.wav

Pre-gap length 0:00:02.00

Peak level 98.8 %
Extraction speed 2.6 X
Track quality 100.0 %
Test CRC 3B8AB474
Copy CRC 3B8AB474
Track not present in AccurateRip database
Copy OK

Track 6

Filename G:\EAC Rips\Oscar Castro-Neves - 2003 - Playful Heart - CD - Original Release - FLAC\06 - Four Brothers.wav

Pre-gap length 0:00:02.00

Peak level 98.8 %
Extraction speed 2.8 X
Track quality 100.0 %
Test CRC AE09D8CE
Copy CRC AE09D8CE
Track not present in AccurateRip database
Copy OK

Track 7

Filename G:\EAC Rips\Oscar Castro-Neves - 2003 - Playful Heart - CD - Original Release - FLAC\07 - The Fool On The Hill.wav

Pre-gap length 0:00:02.00

Peak level 98.8 %
Extraction speed 3.0 X
Track quality 100.0 %
Test CRC 123D6AFB
Copy CRC 123D6AFB
Track not present in AccurateRip database
Copy OK

Track 8

Filename G:\EAC Rips\Oscar Castro-Neves - 2003 - Playful Heart - CD - Original Release - FLAC\08 - Lorry's Swing; Autumn Leaves.wav

Pre-gap length 0:00:02.00

Peak level 95.8 %
Extraction speed 3.0 X
Track quality 100.0 %
Test CRC 49A5E4C8
Copy CRC 49A5E4C8
Track not present in AccurateRip database
Copy OK

Track 9

Filename G:\EAC Rips\Oscar Castro-Neves - 2003 - Playful Heart - CD - Original Release - FLAC\09 - Send In The Clowns.wav

Pre-gap length 0:00:02.00

Peak level 98.8 %
Extraction speed 3.3 X
Track quality 100.0 %
Test CRC D280B142
Copy CRC D280B142
Track not present in AccurateRip database
Copy OK

Track 10

Filename G:\EAC Rips\Oscar Castro-Neves - 2003 - Playful Heart - CD - Original Release - FLAC\10 - Everything Happens To Me.wav

Pre-gap length 0:00:02.00

Peak level 98.8 %
Extraction speed 3.3 X
Track quality 100.0 %
Test CRC 3C444FBC
Copy CRC 3C444FBC
Track not present in AccurateRip database
Copy OK

Track 11

Filename G:\EAC Rips\Oscar Castro-Neves - 2003 - Playful Heart - CD - Original Release - FLAC\11 - Twenty Year Love Affair.wav

Pre-gap length 0:00:02.00

Peak level 98.8 %
Extraction speed 3.6 X
Track quality 100.0 %
Test CRC 469369ED
Copy CRC 469369ED
Track not present in AccurateRip database
Copy OK

Track 12

Filename G:\EAC Rips\Oscar Castro-Neves - 2003 - Playful Heart - CD - Original Release - FLAC\12 - Wave.wav

Peak level 98.8 %
Extraction speed 3.8 X
Track quality 100.0 %
Test CRC 256ABB2C
Copy CRC 256ABB2C
Track not present in AccurateRip database
Copy OK

Track 13

Filename G:\EAC Rips\Oscar Castro-Neves - 2003 - Playful Heart - CD - Original Release - FLAC\13 - Caruso.wav

Pre-gap length 0:00:02.00

Peak level 98.8 %
Extraction speed 3.2 X
Track quality 99.9 %
Test CRC BB58A8ED
Copy CRC BB58A8ED
Track not present in AccurateRip database
Copy OK


None of the tracks are present in the AccurateRip database

No errors occurred

End of status report

–– CUETools DB Plugin V2.1.3

[CTDB TOCID: yzWcshRlxecDOOiax9evkOIOvsU-] disk not present in database, Submit result: yzWcshRlxecDOOiax9evkOIOvsU- has been uploaded


==== Log checksum EB41DFF108E091BB453DE0CB5DC47A41B4F6F7AF5DF05F88D68F429D87FDE5E9 ====

Oscar Castro-Neves - Playful Heart (2003) {Mack Avenue}


Thanks to the original ripper