Subcategories

Oscar Peterson - Stephane Grappelli Quartet Vol. 1-2 [Recorded 1973] (2001) (Repost)

Posted By: gribovar
Oscar Peterson - Stephane Grappelli Quartet Vol. 1-2 [Recorded 1973] (2001) (Repost)

Oscar Peterson - Stephane Grappelli Quartet Vol. 1-2 [Recorded 1973] (2001)
EAC Rip | FLAC (tracks+.cue+log) - 436 MB | MP3 CBR 320 kbps (LAME 3.93) - 185 MB | Covers - 95 MB
Genre: Jazz | RAR 3% Rec. | Label: Universal Music

Vol. 1. One of the nice things about jazz is the cross-pollination of different players in multiple settings. No one would've thought of pairing swing violinist Stéphane Grappelli and bop pianist Oscar Peterson, for instance, but the match works very well. The pair have expanded into a quartet on this reissue with the aid of double bassist Niels-Henning Ørsted Pedersen and drummer Kenny Clarke. The set, recorded in 1973 in Paris, includes a handful of standards, from Pinkard/Tracey/Tauber's "Them There Eyes" to Rodgers & Hart's "Thou Swell." As one might guess, Grappelli is in his own element on upbeat, swinging pieces like "Makin' Whoopee" and "Walkin' My Baby Back Home." Peterson likewise joins in the spirit of these pieces, making them the most interesting interpretations on the album. Other material, like the lingering "Flamingo" and "My One and Only Love," are also enjoyable, but seem rather tepid in comparison. The latter composition is also handicapped by its nearly ten-minute length. Peterson and Grappelli end with a nice, bouncy version of "Thou Swell" that brings the whole affair to a satisfying close. Quartet, Vol. 1 isn't a perfect recording, but it is an enjoyable one, showing how much fun it is to pair unlikely musicians in the studio and see what happens.

Vol. 2. Oscar Peterson and Stephane Grappelli are in top form as they romp through five standards and an original blues on this studio date, one of two initially taped for Musidisc and later reissued with its companion album in a two-record set by Prestige. Finally available on a Verve CD in its "Jazz in Paris" series, the veterans are joined by two premiere sidemen, bassist Niels-Henning Ørsted Pedersen and drummer Kenny Clarke. It's a treat to listen to Peterson and Grappelli stimulate one another with their seemingly effortless playing, especially during the dazzling, very swinging take of "I Won't Dance." This CD, along with the earlier volume, should be snapped up without hesitation.

Oscar Peterson - Stephane Grappelli Quartet Vol. 1-2 [Recorded 1973] (2001) (Repost)

Oscar Peterson - Stephane Grappelli Quartet Vol. 1 [Recorded 1973] (2001)
EAC Rip | FLAC (tracks+.cue+log) - 221 MB | MP3 CBR 320 kbps (LAME 3.93) - 92 MB | Covers - 48 MB
Genre: Jazz | RAR 3% Rec. | Label: Universal Music (013 028-2)

Tracklist:
01. Theme There Eyes
02. Flamingo
03. Makin' Whoopee
04. Looking At You
05. Walkin' My Baby Back Home
06. My One And Only Love
07. Thou Swell

Total time: 39:20

Exact Audio Copy V1.0 beta 1 from 15. November 2010

EAC extraction logfile from 1. August 2011, 21:04

Stephane Grappelli quartet vol.1 / Oscar Peterson

Used drive : HL-DT-STDVD+-RW GSA-T21N Adapter: 0 ID: 0

Read mode : Secure
Utilize accurate stream : Yes
Defeat audio cache : Yes
Make use of C2 pointers : No

Read offset correction : 667
Overread into Lead-In and Lead-Out : No
Fill up missing offset samples with silence : Yes
Delete leading and trailing silent blocks : No
Null samples used in CRC calculations : Yes
Used interface : Native Win32 interface for Win NT & 2000
Gap handling : Appended to previous track

Used output format : User Defined Encoder
Selected bitrate : 896 kBit/s
Quality : High
Add ID3 tag : No
Command line compressor : C:\Program Files\Audio\Exact Audio Copy\Flac\flac.exe
Additional command line options : -8 -V -T "ARTIST=%a" -T "TITLE=%t" -T "ALBUM=%g" -T "DATE=%y" -T "TRACKNUMBER=%n" -T "TOTALTRACKS=%x" -T "GENRE=%m" -T "ALBUMARTIST=%v" -T "ALBUM ARTIST=%v" -T "COMMENT=EAC Secure Mode, Test & Copy, AccurateRip, FLAC -8" %s


TOC of the extracted CD

Track | Start | Length | Start sector | End sector
––––––––––––––––––––––––––––-
1 | 0:00.00 | 4:51.20 | 0 | 21844
2 | 4:51.20 | 5:37.65 | 21845 | 47184
3 | 10:29.10 | 4:37.01 | 47185 | 67960
4 | 15:06.11 | 4:45.10 | 67961 | 89345
5 | 19:51.21 | 5:02.10 | 89346 | 112005
6 | 24:53.31 | 9:48.33 | 112006 | 156138
7 | 34:41.64 | 4:38.27 | 156139 | 177015


Track 1

Filename F:\JAZZ IN PARIS\Oscar Peterson - Stephane Grappelli quartet vol.1 (1973) [FLAC] {Gitanes 013 028-2}\01 - Theme There Eyes.wav

Pre-gap length 0:00:02.00

Peak level 94.5 %
Extraction speed 3.0 X
Track quality 100.0 %
Test CRC 83A985A3
Copy CRC 83A985A3
Accurately ripped (confidence 3) [B88B03DC]
Copy OK

Track 2

Filename F:\JAZZ IN PARIS\Oscar Peterson - Stephane Grappelli quartet vol.1 (1973) [FLAC] {Gitanes 013 028-2}\02 - Flamingo.wav

Pre-gap length 0:00:01.47

Peak level 79.2 %
Extraction speed 3.4 X
Track quality 100.0 %
Test CRC 85DB50E5
Copy CRC 85DB50E5
Accurately ripped (confidence 3) [8062148E]
Copy OK

Track 3

Filename F:\JAZZ IN PARIS\Oscar Peterson - Stephane Grappelli quartet vol.1 (1973) [FLAC] {Gitanes 013 028-2}\03 - Makin' Whoopee.wav

Pre-gap length 0:00:01.47

Peak level 91.0 %
Extraction speed 3.8 X
Track quality 100.0 %
Test CRC 53830C6D
Copy CRC 53830C6D
Accurately ripped (confidence 3) [6F0DD8F9]
Copy OK

Track 4

Filename F:\JAZZ IN PARIS\Oscar Peterson - Stephane Grappelli quartet vol.1 (1973) [FLAC] {Gitanes 013 028-2}\04 - Looking at You.wav

Pre-gap length 0:00:01.47

Peak level 82.3 %
Extraction speed 4.0 X
Track quality 100.0 %
Test CRC 1B5B34FE
Copy CRC 1B5B34FE
Accurately ripped (confidence 3) [0D0F2099]
Copy OK

Track 5

Filename F:\JAZZ IN PARIS\Oscar Peterson - Stephane Grappelli quartet vol.1 (1973) [FLAC] {Gitanes 013 028-2}\05 - Walkin' My Baby Back Home.wav

Pre-gap length 0:00:01.47

Peak level 84.8 %
Extraction speed 4.3 X
Track quality 100.0 %
Test CRC C30CECB2
Copy CRC C30CECB2
Accurately ripped (confidence 3) [A1DAE18E]
Copy OK

Track 6

Filename F:\JAZZ IN PARIS\Oscar Peterson - Stephane Grappelli quartet vol.1 (1973) [FLAC] {Gitanes 013 028-2}\06 - My One and Only Love.wav

Pre-gap length 0:00:01.47

Peak level 80.6 %
Extraction speed 5.0 X
Track quality 100.0 %
Test CRC D68A94EF
Copy CRC D68A94EF
Accurately ripped (confidence 3) [3D8470A8]
Copy OK

Track 7

Filename F:\JAZZ IN PARIS\Oscar Peterson - Stephane Grappelli quartet vol.1 (1973) [FLAC] {Gitanes 013 028-2}\07 - Thou Swell.wav

Pre-gap length 0:00:01.48

Peak level 85.8 %
Extraction speed 5.0 X
Track quality 100.0 %
Test CRC CDFFBB54
Copy CRC CDFFBB54
Accurately ripped (confidence 3) [699277C2]
Copy OK


All tracks accurately ripped

No errors occurred

End of status report

==== Log checksum 7FD8C6B627FB92A0FE9E6C9B06F1A7A57FFAD35E2F300568DA836E7E5205CCF1 ====

[CUETools log; Date: 25.04.2018 23:41:12; Version: 2.1.4]
[CTDB TOCID: q8IHj5QYvzCZL.o32cbkaU1H6go-] found.
Track | CTDB Status
1 | (88/89) Accurately ripped
2 | (88/89) Accurately ripped
3 | (89/89) Accurately ripped
4 | (89/89) Accurately ripped
5 | (89/89) Accurately ripped
6 | (87/89) Accurately ripped
7 | (89/89) Accurately ripped
[AccurateRip ID: 000a3f0a-003e54dd-59093807] found.
Track [ CRC | V2 ] Status
01 [b88b03dc|9d6125de] (04+07/75) Accurately ripped
02 [8062148e|d4d19f6c] (04+07/75) Accurately ripped
03 [6f0dd8f9|24d3d2b1] (04+07/74) Accurately ripped
04 [0d0f2099|40e237c7] (04+07/75) Accurately ripped
05 [a1dae18e|2509e575] (04+07/74) Accurately ripped
06 [3d8470a8|5bb8112b] (04+07/74) Accurately ripped
07 [699277c2|ec5efd89] (04+07/75) Accurately ripped
Offsetted by 12:
01 [abf589b4] (02/75) Accurately ripped
02 [7d76a9ba] (02/75) Accurately ripped
03 [9bb1f7ad] (02/74) Accurately ripped
04 [32de8469] (02/75) Accurately ripped
05 [cc499892] (02/74) Accurately ripped
06 [b4aae648] (02/74) Accurately ripped
07 [1d959b06] (02/75) Accurately ripped
Offsetted by 641:
01 [2dafc6ae] (04/75) Accurately ripped
02 [e46d8a27] (04/75) Accurately ripped
03 [14f74108] (04/74) Accurately ripped
04 [1b6a8995] (04/75) Accurately ripped
05 [fc74e6f9] (04/74) Accurately ripped
06 [c4cad120] (04/74) Accurately ripped
07 [4e8f68dd] (04/75) Accurately ripped
Offsetted by 676:
01 [9e512264] (11/75) Accurately ripped
02 [dbe99292] (11/75) Accurately ripped
03 [ec809a95] (10/74) Accurately ripped
04 [b45cc209] (11/75) Accurately ripped
05 [f837d21a] (11/74) Accurately ripped
06 [cafafd88] (10/74) Accurately ripped
07 [b0ede50e] (11/75) Accurately ripped

Track Peak [ CRC32 ] [W/O NULL] [ LOG ]
– 94,5 [E0201A61] [D363F90B]
01 94,5 [83A985A3] [5E21365E] CRC32
02 79,2 [85DB50E5] [B0576BA2] CRC32
03 91,0 [53830C6D] [1A8C782A] CRC32
04 82,3 [1B5B34FE] [D04BDDF2] CRC32
05 84,8 [C30CECB2] [D03919E6] CRC32
06 80,6 [D68A94EF] [B3EFA1D1] CRC32
07 85,8 [CDFFBB54] [69CF8CE4] CRC32

Oscar Peterson - Stephane Grappelli Quartet Vol. 1-2 [Recorded 1973] (2001) (Repost)

Oscar Peterson - Stephane Grappelli Quartet Vol. 2 [Recorded 1973] (2001)
EAC Rip | FLAC (tracks+.cue+log) - 215 MB | MP3 CBR 320 kbps (LAME 3.93) - 93 MB | Covers - 47 MB
Genre: Jazz | RAR 3% Rec. | Label: Universal Music (013 029-2)

Tracklist:
01. I Won't Dance
02. The Folks Who Live On The Hill
03. Autumn Leaves
04. My Heart Stood Still
05. Blues For Musidisc
06. If I Had You

Total time: 39:43

Exact Audio Copy V1.0 beta 1 from 15. November 2010

EAC extraction logfile from 2. August 2011, 12:25

Stephane Grappelli quartet vol.2 / Oscar Peterson

Used drive : HL-DT-STDVD+-RW GSA-T21N Adapter: 0 ID: 0

Read mode : Secure
Utilize accurate stream : Yes
Defeat audio cache : Yes
Make use of C2 pointers : No

Read offset correction : 667
Overread into Lead-In and Lead-Out : No
Fill up missing offset samples with silence : Yes
Delete leading and trailing silent blocks : No
Null samples used in CRC calculations : Yes
Used interface : Native Win32 interface for Win NT & 2000
Gap handling : Appended to previous track

Used output format : User Defined Encoder
Selected bitrate : 896 kBit/s
Quality : High
Add ID3 tag : No
Command line compressor : C:\Program Files\Audio\Exact Audio Copy\Flac\flac.exe
Additional command line options : -8 -V -T "ARTIST=%a" -T "TITLE=%t" -T "ALBUM=%g" -T "DATE=%y" -T "TRACKNUMBER=%n" -T "TOTALTRACKS=%x" -T "GENRE=%m" -T "ALBUMARTIST=%v" -T "ALBUM ARTIST=%v" -T "COMMENT=EAC Secure Mode, Test & Copy, AccurateRip, FLAC -8" %s


TOC of the extracted CD

Track | Start | Length | Start sector | End sector
––––––––––––––––––––––––––––-
1 | 0:00.00 | 6:48.36 | 0 | 30635
2 | 6:48.36 | 5:41.47 | 30636 | 56257
3 | 12:30.08 | 6:36.69 | 56258 | 86026
4 | 19:07.02 | 5:07.13 | 86027 | 109064
5 | 24:14.15 | 8:38.68 | 109065 | 147982
6 | 32:53.08 | 6:50.05 | 147983 | 178737


Track 1

Filename F:\JAZZ IN PARIS\Oscar Peterson - Stephane Grappelli quartet vol.2 (1973) [FLAC] {Gitanes 013 029-2}\01 - I Won't Dance.wav

Pre-gap length 0:00:02.00

Peak level 69.6 %
Extraction speed 3.2 X
Track quality 100.0 %
Test CRC 50277256
Copy CRC 50277256
Accurately ripped (confidence 6) [1E76551E]
Copy OK

Track 2

Filename F:\JAZZ IN PARIS\Oscar Peterson - Stephane Grappelli quartet vol.2 (1973) [FLAC] {Gitanes 013 029-2}\02 - The Folks Who Live on the Hill.wav

Pre-gap length 0:00:01.47

Peak level 55.6 %
Extraction speed 3.5 X
Track quality 100.0 %
Test CRC 4BB6A7CB
Copy CRC 4BB6A7CB
Accurately ripped (confidence 6) [46B716DA]
Copy OK

Track 3

Filename F:\JAZZ IN PARIS\Oscar Peterson - Stephane Grappelli quartet vol.2 (1973) [FLAC] {Gitanes 013 029-2}\03 - Autumn Leaves.wav

Pre-gap length 0:00:01.47

Peak level 74.5 %
Extraction speed 4.1 X
Track quality 100.0 %
Test CRC 39B3EB1B
Copy CRC 39B3EB1B
Accurately ripped (confidence 6) [BC52ECF7]
Copy OK

Track 4

Filename F:\JAZZ IN PARIS\Oscar Peterson - Stephane Grappelli quartet vol.2 (1973) [FLAC] {Gitanes 013 029-2}\04 - My Heart Stood Still.wav

Pre-gap length 0:00:01.47

Peak level 82.6 %
Extraction speed 3.7 X
Track quality 99.9 %
Test CRC 12C0D738
Copy CRC 12C0D738
Accurately ripped (confidence 6) [65587034]
Copy OK

Track 5

Filename F:\JAZZ IN PARIS\Oscar Peterson - Stephane Grappelli quartet vol.2 (1973) [FLAC] {Gitanes 013 029-2}\05 - Blues for Musidisc.wav

Pre-gap length 0:00:01.47

Peak level 84.9 %
Extraction speed 4.8 X
Track quality 100.0 %
Test CRC 09034910
Copy CRC 09034910
Accurately ripped (confidence 6) [A0EB50DA]
Copy OK

Track 6

Filename F:\JAZZ IN PARIS\Oscar Peterson - Stephane Grappelli quartet vol.2 (1973) [FLAC] {Gitanes 013 029-2}\06 - If I Had You.wav

Pre-gap length 0:00:01.46

Peak level 66.6 %
Extraction speed 5.1 X
Track quality 100.0 %
Test CRC BAB21182
Copy CRC BAB21182
Accurately ripped (confidence 5) [73BC7A63]
Copy OK


All tracks accurately ripped

No errors occurred

End of status report

==== Log checksum 6D8E568FFE9D57F17C2CEB962C328D12AAB99E4C2BF16F460757C43702E39165 ====

[CUETools log; Date: 25.04.2018 23:41:51; Version: 2.1.4]
[CTDB TOCID: 77SJeXIPk0ChgscjLhehSUdnUqU-] found.
Track | CTDB Status
1 | (69/70) Accurately ripped
2 | (70/70) Accurately ripped
3 | (63/70) Accurately ripped
4 | (70/70) Accurately ripped
5 | (69/70) Accurately ripped
6 | (70/70) Accurately ripped
[AccurateRip ID: 000949c3-0031b8b0-4a094f06] found.
Track [ CRC | V2 ] Status
01 [1e76551e|37e29073] (06+08/74) Accurately ripped
02 [46b716da|5f1f2566] (06+07/73) Accurately ripped
03 [bc52ecf7|e1a9336c] (06+08/73) Accurately ripped
04 [65587034|d037c2df] (06+07/73) Accurately ripped
05 [a0eb50da|46173e6e] (06+08/74) Accurately ripped
06 [73bc7a63|805d8500] (05+08/73) Accurately ripped
Offsetted by 9:
01 [16f69048] (03/74) Accurately ripped
02 [2cb96b45] (03/73) Accurately ripped
03 [702bda4a] (03/73) Accurately ripped
04 [53360591] (03/73) Accurately ripped
05 [c6eaa9d2] (03/74) Accurately ripped
06 [534f3b6e] (03/73) Accurately ripped
Offsetted by 676:
01 [07a422c6] (14/74) Accurately ripped
02 [6d9ef806] (14/73) Accurately ripped
03 [646a55c3] (13/73) Accurately ripped
04 [bdea0a28] (14/73) Accurately ripped
05 [ffd6c0ba] (14/74) Accurately ripped
06 [b73d1e0f] (14/73) Accurately ripped
Offsetted by 641:
01 [413fae78] (00/74) No match
02 [99cecc2d] (00/73) No match
03 [8c9081f2] (00/73) No match
04 [af1a8c69] (05/73) Accurately ripped
05 [a4f5bc12] (05/74) Accurately ripped
06 [fc742f56] (05/73) Accurately ripped
Offsetted by 642:
01 [5cdc26d2] (05/74) Accurately ripped
02 [5e07f200] (05/73) Accurately ripped
03 [841a636d] (00/73) No match (V2 was not tested)
04 [57c1641e] (00/73) No match
05 [e2121b4a] (00/74) No match
06 [bff644c9] (00/73) No match

Track Peak [ CRC32 ] [W/O NULL] [ LOG ]
– 84,9 [85408391] [7ECE1767]
01 69,6 [50277256] [26FB1740] CRC32
02 55,6 [4BB6A7CB] [87DFE96E] CRC32
03 74,5 [39B3EB1B] [C5DF1457] CRC32
04 82,6 [12C0D738] [47994F52] CRC32
05 84,9 [09034910] [66092A8D] CRC32
06 66,6 [BAB21182] [0D4BC6BE] CRC32

Thanks to the original releaser

See also: