Subcategories

Steep Canyon Rangers - Out in the Open (2018)

Posted By: SERTiL
Steep Canyon Rangers - Out in the Open (2018)

Steep Canyon Rangers - Out in the Open (2018)
EAC Rip | FLAC (tracks)+cue, log, m3u, front cover | 275 MB
Label: Ramseur Records ‎– 212588 | Tracks: 11 | Time: 46:52 min
Country, Bluegrass, Americana

The sessions that produced Out In The Open were brisk and instinctive, expansive yet intimate, visceral and immediate - and they would have had to be, for herein are songs that tell the big story by drawing the small ones. There is, to my ear, as much of Raymond Carver's literate and humane influence on display as the Osborne Brothers, as much Welty in the pointed details - both sublime and confounding - as Clark and Van Zandt. Compassion and determination act as connective tissue when, throughout this song cycle, the bones, muscle, and blood of daily life dance with loose-limbed motion toward the inevitable, guided by an ethos best articulated by Sam Beckett who directed that when we falter, we try again and ''fail better.''

While in the studio, the Rangers stood in a circle - facing each other and the music with a well-worn brotherhood that was as well open to all they could not imagine transpiring between them. The songs were written as a map, and their shared history a compass blade, but the road itself - the journey - was a moving target and, as with all relevant music, remains one. And the Steep Canyon Rangers are moving along with it. - Joe Henry

Tracklist:
01. Farmers and Pharaohs 04:02
02. Let Me out of This Town 03:42
03. Out in the Open 03:25
04. Can't Get Home 03:29
05. Going Midwest 03:47
06. When She Was Mine 04:26
07. Love Harder 03:58
08. Shenandoah Valley 02:43
09. Best of Me 04:37
10. Roadside Anthems 05:03
11. Let Me Die in My Footsteps 03:23
12. The Speed We're Traveling 04:17

Exact Audio Copy V1.1 from 23. June 2015

EAC extraction logfile from 8. February 2018, 16:18

Steep Canyon Rangers / Out in the Open

Used drive : HL-DT-STDVDRAM GT50N Adapter: 1 ID: 0

Read mode : Secure
Utilize accurate stream : Yes
Defeat audio cache : Yes
Make use of C2 pointers : No

Read offset correction : 103
Overread into Lead-In and Lead-Out : No
Fill up missing offset samples with silence : Yes
Delete leading and trailing silent blocks : No
Null samples used in CRC calculations : Yes
Used interface : Native Win32 interface for Win NT & 2000
Gap handling : Appended to previous track

Used output format : User Defined Encoder
Selected bitrate : 1024 kBit/s
Quality : High
Add ID3 tag : No
Command line compressor : C:\Program Files (x86)\Exact Audio Copy\Flac\flac.exe
Additional command line options : -8 -e -V -T "ARTIST=%artist%" -T "TITLE=%title%" -T "ALBUM=%albumtitle%" -T "DATE=%year%" -T "TRACKNUMBER=%tracknr%" -T "GENRE=%genre%" -T "PERFORMER=%albuminterpret%" -T "COMPOSER=%composer%" %haslyrics%–tag-from-file=LYRICS="%lyricsfile%"%haslyrics% -T "ALBUMARTIST=%albumartist%" -T "DISCNUMBER=%cdnumber%" -T "TOTALDISCS=%totalcds%" -T "TOTALTRACKS=%numtracks%" -T "COMMENT=%comment%" %source% -o %dest%


TOC of the extracted CD

Track | Start | Length | Start sector | End sector
––––––––––––––––––––––––––––-
1 | 0:00.00 | 4:02.55 | 0 | 18204
2 | 4:02.55 | 3:42.43 | 18205 | 34897
3 | 7:45.23 | 3:25.19 | 34898 | 50291
4 | 11:10.42 | 3:29.38 | 50292 | 66004
5 | 14:40.05 | 3:47.12 | 66005 | 83041
6 | 18:27.17 | 4:26.11 | 83042 | 103002
7 | 22:53.28 | 3:58.02 | 103003 | 120854
8 | 26:51.30 | 2:43.52 | 120855 | 133131
9 | 29:35.07 | 4:37.04 | 133132 | 153910
10 | 34:12.11 | 5:03.08 | 153911 | 176643
11 | 39:15.19 | 3:22.69 | 176644 | 191862
12 | 42:38.13 | 4:17.41 | 191863 | 211178


Track 1

Filename C:\Rips v2\Steep Canyon Rangers - Out in the Open {2018} [212587] (FLAC)\01 - Farmers and Pharaohs.wav

Pre-gap length 0:00:02.00

Peak level 98.4 %
Extraction speed 2.5 X
Track quality 100.0 %
Test CRC 88121550
Copy CRC 88121550
Track not present in AccurateRip database
Copy OK

Track 2

Filename C:\Rips v2\Steep Canyon Rangers - Out in the Open {2018} [212587] (FLAC)\02 - Let Me Out of This Town.wav

Peak level 98.9 %
Extraction speed 2.7 X
Track quality 100.0 %
Test CRC 9F403966
Copy CRC 9F403966
Track not present in AccurateRip database
Copy OK

Track 3

Filename C:\Rips v2\Steep Canyon Rangers - Out in the Open {2018} [212587] (FLAC)\03 - Out in the Open.wav

Peak level 100.0 %
Extraction speed 2.8 X
Track quality 100.0 %
Test CRC 51B12991
Copy CRC 51B12991
Track not present in AccurateRip database
Copy OK

Track 4

Filename C:\Rips v2\Steep Canyon Rangers - Out in the Open {2018} [212587] (FLAC)\04 - Can't Get Home.wav

Peak level 98.9 %
Extraction speed 2.4 X
Track quality 99.9 %
Test CRC 7139456B
Copy CRC 7139456B
Track not present in AccurateRip database
Copy OK

Track 5

Filename C:\Rips v2\Steep Canyon Rangers - Out in the Open {2018} [212587] (FLAC)\05 - Going Midwest.wav

Peak level 98.3 %
Extraction speed 3.2 X
Track quality 100.0 %
Test CRC 16EC21B1
Copy CRC 16EC21B1
Track not present in AccurateRip database
Copy OK

Track 6

Filename C:\Rips v2\Steep Canyon Rangers - Out in the Open {2018} [212587] (FLAC)\06 - When She Was Mine.wav

Peak level 98.7 %
Extraction speed 3.5 X
Track quality 100.0 %
Test CRC 013EAFF4
Copy CRC 013EAFF4
Track not present in AccurateRip database
Copy OK

Track 7

Filename C:\Rips v2\Steep Canyon Rangers - Out in the Open {2018} [212587] (FLAC)\07 - Love Harder.wav

Peak level 99.1 %
Extraction speed 2.9 X
Track quality 99.9 %
Test CRC 3BA73581
Copy CRC 3BA73581
Track not present in AccurateRip database
Copy OK

Track 8

Filename C:\Rips v2\Steep Canyon Rangers - Out in the Open {2018} [212587] (FLAC)\08 - Shenandoah Valley.wav

Peak level 98.2 %
Extraction speed 2.6 X
Track quality 99.9 %
Test CRC B89C1E10
Copy CRC B89C1E10
Track not present in AccurateRip database
Copy OK

Track 9

Filename C:\Rips v2\Steep Canyon Rangers - Out in the Open {2018} [212587] (FLAC)\09 - Best of Me.wav

Peak level 98.9 %
Extraction speed 4.1 X
Track quality 100.0 %
Test CRC B47375C2
Copy CRC B47375C2
Track not present in AccurateRip database
Copy OK

Track 10

Filename C:\Rips v2\Steep Canyon Rangers - Out in the Open {2018} [212587] (FLAC)\10 - Roadside Anthems.wav

Peak level 99.5 %
Extraction speed 3.5 X
Track quality 99.9 %
Test CRC DAC46541
Copy CRC DAC46541
Track not present in AccurateRip database
Copy OK

Track 11

Filename C:\Rips v2\Steep Canyon Rangers - Out in the Open {2018} [212587] (FLAC)\11 - Let Me Die in My Footsteps.wav

Peak level 98.7 %
Extraction speed 4.2 X
Track quality 100.0 %
Test CRC 5867BBAA
Copy CRC 5867BBAA
Track not present in AccurateRip database
Copy OK

Track 12

Filename C:\Rips v2\Steep Canyon Rangers - Out in the Open {2018} [212587] (FLAC)\12 - The Speed We're Traveling.wav

Peak level 99.9 %
Extraction speed 2.3 X
Track quality 100.0 %
Test CRC F2C1F0AF
Copy CRC F2C1F0AF
Track not present in AccurateRip database
Copy OK


None of the tracks are present in the AccurateRip database

No errors occurred

End of status report

–– CUETools DB Plugin V2.1.6

[CTDB TOCID: FUUuHfRIDck7s.btJhwEgqQdLi0-] found
Submit result: FUUuHfRIDck7s.btJhwEgqQdLi0- has been confirmed
Track | CTDB Status
1 | (3/3) Accurately ripped
2 | (3/3) Accurately ripped
3 | (3/3) Accurately ripped
4 | (3/3) Accurately ripped
5 | (3/3) Accurately ripped
6 | (3/3) Accurately ripped
7 | (3/3) Accurately ripped
8 | (3/3) Accurately ripped
9 | (3/3) Accurately ripped
10 | (3/3) Accurately ripped
11 | (3/3) Accurately ripped
12 | (3/3) Accurately ripped


==== Log checksum BBBD32A80F9817B415469A42465E53945B3146AF8AF51C9C655267B6150B0290 ====


Thanks to the Original customer.