Outlasted - Into The Night (2016) {Special Edition}

Posted By: popsakov
Outlasted - Into The Night (2016) {Special Edition}

Outlasted - Into The Night (2016) {Special Edition}
EAC Rip | FLAC (Img) + Cue + Log ~ 291 Mb | MP3 CBR320 ~ 96 Mb
Scans (JPG, 300 dpi) ~ 39 Mb | RAR 5% Recovery
Melodic Rock, AOR | MelodicRock Records #MRR047SE

MelodicRock Records further expands its international roster with the signing of hot Norwegian newcomers Outlasted. MRR released the debut Outlasted album ‘Into The Night’ in in two configurations – the regular edition and a limited Special Edition featuring 2 exclusive bonus tracks. The album is produced by guitarist Terje Fløyli and expertly mastered by Harry Hess.

Outlasted - Into The Night (2016) {Special Edition}

One of the new breed of Scandinavian rock bands, Outlasted picks up the mantle of classic rock and wears it with distinction. A five-piece band based in Norway, Outlasted’s harmonic and melodic lineup comprises Glenn Wikran on vocals, Terje Fløyli on guitars, and Odd-Børge Hansen at the piano and keyboards. On the rhythmic side of its tracks are Aleksander Schjølberg holding down the bass, and drummer Rune Erling Pedersen who provides the percussive pyrotechnics of this exciting new ensemble that features great hooks, catchy choruses, and full background harmonies provided by all band members.

With a dedication to musical excellence, Outlasted fuses the sound of the golden age of recording with the compelling songwriting of classic rock and brings both into the future with modern production techniques and stellar musicianship. The song feature a solid, punchy rhythm section, soaring vocals, and beautifully textured arrangements—in short, melodic rock at its finest.
Outlasted - Into The Night (2016) {Special Edition}


***************

Outlasted - Into The Night (2016) {Special Edition}

Track List:

01. Someone Like You [3:00]
02. Ghost Of Love [3:18]
03. Loving You Ain't Easy [2:53]
04. Live For Today [3:13]
05. I Want You To Know [3:32]
06. Living A Lie [3:57]
07. Sacrifice [3:31]
08. Anything For You [3:23]
09. Writing On The Wall [2:54]
10. Unbroken [3:23]
Bonus Tracks
11. Nothing Left To Say (bonus track) [3:01]
12. Back To You (bonus track) [3:26]

Personnel:

Glenn Wikran - Vocals & Additional Guitars
Terje Fløyli - Guitars
Odd-Børge Hansen - Piano & Keyboards
Aleksander Schjølberg - Bass
Rune Pedersen - Drums

Additional Musicians:
Rune Bryn - Drums on All Tracks
Rickard Johannesson - Bass on Track 1, 2, 4, 5, 6, 7, 9 & 10
Kjetil Andreassen - Acoustic Guitar on Track 3
Lasse Ingebrigtsen - Backing Vocals on All Tracks Except Track 9
Ronny Wikmark - Additional Keyboards

Exact Audio Copy V1.0 beta 3 from 29. August 2011

EAC extraction logfile from 14. September 2016, 21:00

Outlasted / Into The Night

Used drive : SlimtypeDVD A DS8A5SH Adapter: 0 ID: 0

Read mode : Secure
Utilize accurate stream : Yes
Defeat audio cache : Yes
Make use of C2 pointers : No

Read offset correction : 6
Overread into Lead-In and Lead-Out : No
Fill up missing offset samples with silence : Yes
Delete leading and trailing silent blocks : No
Null samples used in CRC calculations : Yes
Used interface : Installed external ASPI interface

Used output format : User Defined Encoder
Selected bitrate : 320 kBit/s
Quality : High
Add ID3 tag : No
Command line compressor : C:\Program Files (x86)\Exact Audio Copy\Flac\flac.exe
Additional command line options : -V -8 -T "Date=%year%" -T "Genre=%genre%" %source%


TOC of the extracted CD

Track | Start | Length | Start sector | End sector
––––––––––––––––––––––––––––-
1 | 0:00.00 | 2:59.63 | 0 | 13487
2 | 2:59.63 | 3:18.24 | 13488 | 28361
3 | 6:18.12 | 2:52.38 | 28362 | 41299
4 | 9:10.50 | 3:13.32 | 41300 | 55806
5 | 12:24.07 | 3:32.36 | 55807 | 71742
6 | 15:56.43 | 3:57.25 | 71743 | 89542
7 | 19:53.68 | 3:30.42 | 89543 | 105334
8 | 23:24.35 | 3:23.07 | 105335 | 120566
9 | 26:47.42 | 2:54.22 | 120567 | 133638
10 | 29:41.64 | 3:22.40 | 133639 | 148828
11 | 33:04.29 | 3:01.02 | 148829 | 162405
12 | 36:05.31 | 3:25.70 | 162406 | 177850


Range status and errors

Selected range

Filename D:\My Music\Outlasted - 2016 Into The Night\Outlasted - Into The Night.wav

Peak level 100.0 %
Extraction speed 4.1 X
Range quality 100.0 %
Test CRC 147504A1
Copy CRC 147504A1
Copy OK

No errors occurred


AccurateRip summary

Track 1 not present in database
Track 2 not present in database
Track 3 not present in database
Track 4 not present in database
Track 5 not present in database
Track 6 not present in database
Track 7 not present in database
Track 8 not present in database
Track 9 not present in database
Track 10 not present in database
Track 11 not present in database
Track 12 not present in database

None of the tracks are present in the AccurateRip database

End of status report

==== Log checksum F57F816A04C073FD81F018DAD423C1D1D227E713433B955B97606DD85A7DBF41 ====

foobar2000 1.2.6 / Dynamic Range Meter 1.1.1
log date: 2016-09-15 22:48:14

––––––––––––––––––––––––––––––––––––––––
Analyzed: Outlasted / Into The Night
––––––––––––––––––––––––––––––––––––––––

DR Peak RMS Duration Track
––––––––––––––––––––––––––––––––––––––––
DR7 0.00 dB -7.76 dB 3:00 01-Someone Like You
DR7 0.00 dB -7.92 dB 3:18 02-Ghost Of Love
DR7 0.00 dB -8.06 dB 2:53 03-Loving You Ain't Easy
DR7 -0.06 dB -7.91 dB 3:13 04-Live For Today
DR7 -0.03 dB -7.91 dB 3:32 05-I Want You To Know
DR7 0.00 dB -8.63 dB 3:57 06-Living A Lie
DR6 -0.04 dB -7.51 dB 3:31 07-Sacrifice
DR8 -0.15 dB -9.13 dB 3:23 08-Anything For You
DR7 0.00 dB -8.69 dB 2:54 09-Writing On The Wall
DR7 0.00 dB -8.80 dB 3:23 10-Unbroken
DR7 0.00 dB -9.30 dB 3:01 11-Nothing Left To Say (bonus track)
DR7 0.00 dB -8.71 dB 3:26 12-Back To You (bonus track)
––––––––––––––––––––––––––––––––––––––––

Number of tracks: 12
Official DR value: DR7

Samplerate: 44100 Hz
Channels: 2
Bits per sample: 16
Bitrate: 980 kbps
Codec: FLAC
================================================================================

[CUETools log; Date: 15.09.2016 22:48:17; Version: 2.1.5]
[CTDB TOCID: ddc5xptV3DReYxB3uvbbDk.RorI-] found.
Track | CTDB Status
1 | (3/3) Accurately ripped
2 | (3/3) Accurately ripped
3 | (3/3) Accurately ripped
4 | (3/3) Accurately ripped
5 | (3/3) Accurately ripped
6 | (3/3) Accurately ripped
7 | (3/3) Accurately ripped
8 | (3/3) Accurately ripped
9 | (3/3) Accurately ripped
10 | (3/3) Accurately ripped
11 | (3/3) Accurately ripped
12 | (3/3) Accurately ripped
[AccurateRip ID: 001187c6-00a46ce8-b009430c] disk not present in database.

Track Peak [ CRC32 ] [W/O NULL] [ LOG ]
– 100,0 [147504A1] [0B8851CC] CRC32
01 100,0 [8F65170C] [0D9858E1]
02 100,0 [96E836AD] [3D12979F]
03 100,0 [4BDCF315] [517310F0]
04 99,3 [C0F6F124] [4922A464]
05 99,6 [7BAA67B9] [D9C8FA56]
06 100,0 [2324070A] [B0EECAB6]
07 99,4 [F370947C] [31F39F81]
08 98,2 [96DDD680] [2F091DC6]
09 100,0 [E63BA066] [91BE8F1D]
10 100,0 [A012A9C2] [388B0E97]
11 100,0 [848F808A] [AAC5C7B1]
12 100,0 [A12BB6AC] [8326BA70]

Outlasted - Into The Night (2016) {Special Edition}

Outlasted - Into The Night (2016) {Special Edition}

All thanks go to kolushew

> Visit my blog <

Download: