Subcategories

Outsiders (Dutch band) - CQ (1968)

Posted By: uff
Outsiders (Dutch band) - CQ (1968)

Outsiders (Dutch band) - CQ (1968)
Rock | 1cd | EAC Rip | Flac + Cue + Log | covers
Polygram 519 099-2 | rel: 1993 | 370Mb

C.Q.’s strength is in it’s consistency and diversity. No two songs sound alike yet every experiment is well thought out and successful. The group’s hallmark start-stop punk rhythms are firmly in place on many of C.Q.‘s tracks but by 1968 the Outsiders had grown considerably, incorporating more folk-rock and psych sounds into their repertoire. Psych cuts such as the very European sounding “Zsarrahh” (supposedly a nod to Wally Tax’s Russian roots), the brief “Bear,” an avant garde folk-rock cut titled “Prison Song” and “C.Q.” heralded a new, more experimental outfit. Other cuts such as the sensitive “You’re Everything On Earth,” a bluesy, spacy cut titled “It Seems Like Nothings Gonna Come My Way Today,” and “I Love You No. 2″ were folk-rock gems that showed off Tax’s soft, expressive side. That being said, it’s the harder cuts that warrant the greatest attention. “Misfit,” “Doctor,” “The Man On The Dune,” ”Happyville,” and “Wish You Were Here With Me Today” are masterful acid punkers. “Doctor,” one of the group’s best LP tracks, features distorted vocals and an explosive fuzz guitar freakout. “The Man On The Dune,” another classic and personal favorite, is a blistering psych punker with jagged guitar fuzz and a strange, unsettling conclusion. It goes without saying that C.Q. is one of the immortal 60s albums.

Track listing
1 I Don't Care (2:41)
2 You Remind Me (2:45)
3 Zsarrahh (3:27)
4 Misfit (3:05)
5 C.Q. (3:28 )
6 Daddy Died on Saturday (3:03)
7 It Seems Like Nothing's Gonna Come My Way Today (1:51)
8 Doctor (4:43)
9 Man on the Dune (2:08)
10 The Bear (1:05)
11 Happyville (2:27)
12 You're Everything on Earth (3:07)
13 Wish You Were Here With Me Today (1:55)
14 I Love You, No. 2 (3:14)
15 Prison Song (5:38 )
16 Do You Feel Allright (3:27)
17 Amsterdam - Tax Free (5:01)
18 Evening - Tax Free (3:43)

Personnel
- Frank Beek : Bass, Guitar, Organ, Piano, Vibraphone, Cymbal, Vocals
- Ronald Splinter : Guitar, Bass, Vocals
- Leendert "Buzz" Busch : Drums, Congas, Tambourine, Maracas, Jew's Harp [Mouthharp], Vocals
- Wally Tax : Vocals, Guitar, Vibraphone, Harmonica, Flute, Balalaika, Tambourine, Cymbal, Organ

EAC extraction logfile from 14. August 2005, 20:25 for CD
The Outsiders / CQ (Complete Polydor Tapes)

Used drive : ASUS DVD-E616P3 Adapter: 0 ID: 0
Read mode : Secure with NO C2, accurate stream, disable cache
Read offset correction : 738
Overread into Lead-In and Lead-Out : No

Used output format : Internal WAV Routines
44.100 Hz; 16 Bit; Stereo

Other options :
Fill up missing offset samples with silence : Yes
Delete leading and trailing silent blocks : No
Installed external ASPI interface


Track 1
Filename C:\Seeds\The Outsiders - CQ (1968)[FLAC]\01 - I Don't Care.wav

Pre-gap length 0:00:02.42

Peak level 89.8 %
Track quality 100.0 %
Test CRC 560EF900
Copy CRC 560EF900
Copy OK

Track 2
Filename C:\Seeds\The Outsiders - CQ (1968)[FLAC]\02 - You Remind Me.wav

Pre-gap length 0:00:01.93

Peak level 85.4 %
Track quality 100.0 %
Test CRC 80163FC7
Copy CRC 80163FC7
Copy OK

Track 3
Filename C:\Seeds\The Outsiders - CQ (1968)[FLAC]\03 - Misfit.wav

Pre-gap length 0:00:01.06

Peak level 93.8 %
Track quality 100.0 %
Test CRC 86BB2E36
Copy CRC 86BB2E36
Copy OK

Track 4
Filename C:\Seeds\The Outsiders - CQ (1968)[FLAC]\04 - Zsarrahh.wav

Pre-gap length 0:00:01.16

Peak level 96.9 %
Track quality 100.0 %
Test CRC 7B64B2CF
Copy CRC 7B64B2CF
Copy OK

Track 5
Filename C:\Seeds\The Outsiders - CQ (1968)[FLAC]\05 - C.Q..wav

Peak level 95.7 %
Track quality 100.0 %
Test CRC 068A537F
Copy CRC 068A537F
Copy OK

Track 6
Filename C:\Seeds\The Outsiders - CQ (1968)[FLAC]\06 - Daddy Died On Saturday.wav

Peak level 93.2 %
Track quality 100.0 %
Test CRC 047E2934
Copy CRC 047E2934
Copy OK

Track 7
Filename C:\Seeds\The Outsiders - CQ (1968)[FLAC]\07 - It Seems Like Nothing's Gonna Come My Way Today.wav

Peak level 88.5 %
Track quality 100.0 %
Test CRC CDBD96A1
Copy CRC CDBD96A1
Copy OK

Track 8
Filename C:\Seeds\The Outsiders - CQ (1968)[FLAC]\08 - Doctor.wav

Peak level 97.9 %
Track quality 100.0 %
Test CRC 1C6FB6C3
Copy CRC 1C6FB6C3
Copy OK

Track 9
Filename C:\Seeds\The Outsiders - CQ (1968)[FLAC]\09 - The Man On The Dune.wav

Peak level 87.6 %
Track quality 100.0 %
Test CRC 5763CC58
Copy CRC 5763CC58
Copy OK

Track 10
Filename C:\Seeds\The Outsiders - CQ (1968)[FLAC]\10 - The Bear.wav

Peak level 74.1 %
Track quality 100.0 %
Test CRC B4E0C2F1
Copy CRC B4E0C2F1
Copy OK

Track 11
Filename C:\Seeds\The Outsiders - CQ (1968)[FLAC]\11 - Happyville.wav

Pre-gap length 0:00:01.13

Peak level 84.9 %
Track quality 100.0 %
Test CRC 58A64FEB
Copy CRC 58A64FEB
Copy OK

Track 12
Filename C:\Seeds\The Outsiders - CQ (1968)[FLAC]\12 - You're Everything On Earth.wav

Peak level 66.8 %
Track quality 100.0 %
Test CRC A75D7D78
Copy CRC A75D7D78
Copy OK

Track 13
Filename C:\Seeds\The Outsiders - CQ (1968)[FLAC]\13 - Wish You Were Here With Me Today.wav

Peak level 87.0 %
Track quality 99.9 %
Test CRC 0DD7192F
Copy CRC 0DD7192F
Copy OK

Track 14
Filename C:\Seeds\The Outsiders - CQ (1968)[FLAC]\14 - I Love No. 2.wav

Peak level 96.8 %
Track quality 100.0 %
Test CRC A883C6E7
Copy CRC A883C6E7
Copy OK

Track 15
Filename C:\Seeds\The Outsiders - CQ (1968)[FLAC]\15 - Prisonsong.wav

Peak level 100.0 %
Track quality 100.0 %
Test CRC 6CC09C07
Copy CRC 6CC09C07
Copy OK

Track 16
Filename C:\Seeds\The Outsiders - CQ (1968)[FLAC]\16 - Do You Feel Alright.wav

Peak level 81.4 %
Track quality 100.0 %
Test CRC 4CCD45AD
Copy CRC 4CCD45AD
Copy OK

Track 17
Filename C:\Seeds\The Outsiders - CQ (1968)[FLAC]\17 - Amsterdam.wav

Peak level 100.0 %
Track quality 99.9 %
Test CRC C232DD2F
Copy CRC C232DD2F
Copy OK

Track 18
Filename C:\Seeds\The Outsiders - CQ (1968)[FLAC]\18 - Evening.wav

Peak level 84.3 %
Track quality 100.0 %
Test CRC 284A1B77
Copy CRC 284A1B77
Copy OK

No errors occured


End of status report



[CUETools log; Date: 2013.08.06. 13:20:22; Version: 2.1.4]
Pregap length 00:00:32.
[CTDB TOCID: Lj4YdMObf4Iu8KhgA29zTIe96nQ-] disk not present in database.
[AccurateRip ID: 0022949e-01cf0f62-e20d4412] found.
Track [ CRC | V2 ] Status
01 [6cc9d068|81793aa1] (0+0/0) No match
02 [f3078c09|7d1e26b4] (0+0/0) No match
03 [d067cb32|86cce850] (0+0/0) No match
04 [aee7425d|339e2d34] (0+0/0) No match
05 [47baf503|da941078] (0+0/0) No match
06 [f92adc01|71d194a1] (0+0/0) No match
07 [4f188d85|b3d83bba] (0+0/0) No match
08 [d81e2f82|4cdffabc] (0+0/0) No match
09 [2855be2e|5f280edb] (0+0/0) No match
10 [df229c55|a9bafc00] (0+0/0) No match
11 [26263b74|b1d202b4] (0+0/0) No match
12 [6ff24e91|38fa7c0f] (0+0/0) No match
13 [5095c593|32636ada] (0+0/0) No match
14 [a44c847e|c020d064] (0+0/0) No match
15 [2e5195fe|f884ca87] (0+0/0) No match
16 [51574682|36930482] (0+0/0) No match
17 [b44cfe31|04255921] (0+0/0) No match
18 [99d0287f|dd8e877f] (0+0/0) No match

Track Peak [ CRC32 ] [W/O NULL] [ LOG ]
– 100,0 [228FC496] [5FCBFAD8]
01 89,8 [560EF900] [95EE6D69] CRC32
02 85,4 [80163FC7] [6E5249D1] CRC32
03 93,8 [86BB2E36] [A40745B2] CRC32
04 96,9 [7B64B2CF] [1DE3E72A] CRC32
05 95,7 [068A537F] [AD2012F3] CRC32
06 93,2 [047E2934] [4E1EF1FE] CRC32
07 88,5 [CDBD96A1] [8A3B4A4C] CRC32
08 97,9 [1C6FB6C3] [37303D11] CRC32
09 87,6 [5763CC58] [81C60771] CRC32
10 74,1 [B4E0C2F1] [68C51C20] CRC32
11 84,9 [58A64FEB] [F08CCA9D] CRC32
12 66,8 [A75D7D78] [BBF68CB1] CRC32
13 87,0 [0DD7192F] [8A7FF8E4] CRC32
14 96,8 [A883C6E7] [BD569C52] CRC32
15 100,0 [6CC09C07] [A03EF50C] CRC32
16 81,4 [4CCD45AD] [A6677329] CRC32
17 100,0 [C232DD2F] [79C9B166] CRC32
18 84,3 [284A1B77] [7CDFF8DA] CRC32




Thx to the original uploader