Subcategories
Tags
Language
Tags

Overkill - Historikill 1995-2007 (2015) [14CD Box Set]

Posted By: v3122
Overkill - Historikill 1995-2007 (2015) [14CD Box Set]

Overkill - Historikill 1995-2007 (2015)
EAC | Flac(Image) + Cue + Log & MP3 CBR 320Kbps
Nuclear Blast, NB 3465-0 | ~ 5394 or 1746 Mb | Scans(300dpi, jpg) -> 264 Mb
Thrash Metal

Although everybody seems to have a different account of who came first in the world of New York/New Jersey area thrash metal, it seems certain that New Jersey's Overkill have stayed around the longest, and have never let their fans down by remaining musically consistent and true to their roots for over 30 years. Through much hard work and a slew of infamous live performances at New York area clubs like L'Amours, Overkill established a reputation as a blue-collar, working man's metal band. After the band released a self-financed EP in 1984, Overkill broke onto the scene in 1985 with Feel The Fire, a crushing thrash assault from the self-proclaimed "Wrecking Crew". Originally consisting of vocalist Bobby "Blitz" Ellsworth, bassist D.D. Verni, guitarist Bobby Gustafson, and drummer Rat Skates - were on a tear, borrowing heavily from punk rock roots while adding a venomous metal crunch that allowed them to compete favourably with peers like Testament, Anthrax, and Megadeth.

Numerous classic albums followed including 'Taking Over' and 'Horrorscope' and in 2009 Overkill signed a contract with Nuclear Blast and released the eagerly awaited and acclaimed "Ironbound". Headlining tours ("Killfest") across the old continent and successful gigs on almost every big European festival followed. This album took Overkill back where they belong: the top! 2014 unleashed "White Devil Armory", where they refreshed and modernized the Overkill trademark.

Having recently inked a new worldwide deal with Nuclear Blast Records, their first worldwide release will be a special box set: 'HistoriKill: 1995 - 2007' a complete collection of their pre-NB recordings. It will include eleven Overkill albums on 13 CDs and a bonus CD (incl. demos, remixes and an unreleased cover song) all in sleek digipack sleeves.

Overkill - Historikill 1995-2007 (2015) [14CD Box Set]

~ amazon
Overkill - Historikill 1995-2007 (2015) [14CD Box Set]


Overkill - Historikill 1995-2007 (2015):

Overkill - Historikill 1995-2007 (2015) [14CD Box Set]

CD01-02: Overkill - Wrecking Your Neck - Live (1995)
EAC | Flac(Image) + Cue + Log & MP3 CBR 320Kbps
Nuclear Blast, NB 3536-0 | ~ 760 or 258 Mb | Scans Included
Thrash Metal

Overkill mercifully chose to bide their time regarding the release of their first professionally produced live album. The early '90s brought us behind the scenes footage alongside then-new music videos in Videoscope, but other than bootlegs, quality live footage of Overkill was simply not easy to procure. The real bummer here is that the this particular lineup of Overkill had the best stage presence along with seamless integration of the old material with the new. With Overkill's lineup facing an uncertain future for the second time in five years, the band decided to release their first earnest attempt at a live album as well as a rightfully-deserved swansong for departing axeslingers Cannavino and Gant.

What elevates this above Overkill's other live album Wrecking Everything is the same thing that brought down the aforementioned 2002 album: it's location in Overkill's history. While Wrecking Everything suffered from the inclusion of the tepid groove material that had begun to infect the band's setlists in earnest by that point, Wrecking Your Neck Live benefits from being released prior to The Killing Kind, Bloodletting, and the other late '90s albums that contributed much of the lamer material to Wrecking Everything. Being dropped during the cryptic period immediately following W.F.O., we naturally get a lot of material from said album, along with large chunks of I Hear Black and Horrorscope. When I was younger I would simply call this the "W.F.O. live album", since most of the band's 1994 record is included here. In fact, many of the songs here are obscure W.F.O. inclusions that were likely never/rarely played again afterward, like "Under One" and "Supersonic Hate".

The I Hear Black material is naturally neither here nor there from an entertainment viewpoint, although the two cuts included are among that album's best, making Wrecking Your Neck Live only that much easier to digest at the end of the day. The inclusion of my all-time Overkill favorite "New Machine" earns the album big personal brownie points, and other than a lack of material from Taking Over, the group's earlier material is represented well-enough. In typical Overkill fashion the proceedings are wrapped up courtesy of the cover song "Fuck You". All-in-all a great setlist that is skewed towards material that is all but entirely disregarded nowadays, helping give Wrecking Your Neck Live a unique value even today.

Ironically, this release also sounds much like W.F.O., with Verni's clanging bass tones leading the charge alongside Cannavino's polished rhythm. The guitars aren't necessarily quiet, but just like on the album they often represent here, the six-strings can't help but embody an afterthought of sorts after the vehement bass is taken into account. Verni even includes a one-off bass instrumental called "Anxiety". It sounds decent enough and reminds the crowd that Verni actually does have fairly deft fingers on the four-string, lest we forget. Mallare's presence was still fresh at the time of Wrecking Your Neck Live's release, so he plays with more a fire lit under his ass and feels the need to ratchet up the speed most of the time, adding a new dimension to otherwise plodding mid-paced numbers like "Under One".

While Wrecking Everything is longer and features a video companion piece, it still can't dethrone Wrecking Your Neck Live as Overkill's greatest live record. The production values are crisp and pluggy, lending to the guitars' neck-jerking patterns and Gant's digital-sounding leads. Blitz is also showcased during one of his better vocal periods. Bittersweet conclusion to the end of an era.

by Diamhea, metal-archives.com
Tracklist CD1:

01. Where It Hurts (7:26)
02. Infectious (4:06)
03. Coma (4:00)
04. Supersonic Hate (4:44)
05. Wrecking Crew (1:09)
06. Powersurge (4:12)
07. The Wait - New High In Lows (6:13)
08. Skullcrusher (6:22)
09. Spiritual Void (4:54)
10. Hello From The Gutter (2:35)
11. Anxiety (1:51)
12. Elimination (5:06)
13. Fast Junkie (4:06)
14. World Of Hurt (4:59)

Exact Audio Copy V1.1 from 23. June 2015

EAC extraction logfile from 24. October 2015, 19:52

Overkill / Wrecking Your Neck - Live (Disc 1)

Used drive : PIONEER DVD-RW DVR-215 Adapter: 1 ID: 1

Read mode : Secure
Utilize accurate stream : Yes
Defeat audio cache : Yes
Make use of C2 pointers : No

Read offset correction : 48
Overread into Lead-In and Lead-Out : No
Fill up missing offset samples with silence : Yes
Delete leading and trailing silent blocks : No
Null samples used in CRC calculations : Yes
Used interface : Native Win32 interface for Win NT & 2000

Used output format : User Defined Encoder
Selected bitrate : 1024 kBit/s
Quality : High
Add ID3 tag : No
Command line compressor : C:\Program Files (x86)\Exact Audio Copy\Flac\flac.exe
Additional command line options : -V -8 -T "Date=%year%" -T "Genre=%genre%" %source%


TOC of the extracted CD

Track | Start | Length | Start sector | End sector
––––––––––––––––––––––––––––-
1 | 0:00.00 | 7:25.55 | 0 | 33429
2 | 7:25.55 | 4:06.17 | 33430 | 51896
3 | 11:31.72 | 3:59.45 | 51897 | 69866
4 | 15:31.42 | 4:43.53 | 69867 | 91144
5 | 20:15.20 | 1:09.27 | 91145 | 96346
6 | 21:24.47 | 4:12.10 | 96347 | 115256
7 | 25:36.57 | 6:12.58 | 115257 | 143214
8 | 31:49.40 | 6:22.25 | 143215 | 171889
9 | 38:11.65 | 4:53.60 | 171890 | 193924
10 | 43:05.50 | 2:35.10 | 193925 | 205559
11 | 45:40.60 | 1:50.42 | 205560 | 213851
12 | 47:31.27 | 5:06.25 | 213852 | 236826
13 | 52:37.52 | 4:05.48 | 236827 | 255249
14 | 56:43.25 | 4:59.30 | 255250 | 277704


Range status and errors

Selected range

Filename F:\metallihead\Overkill - Historikill (1996-2007)\Overkill - Wrecking Your Neck - Live (Disc 1).wav

Peak level 100.0 %
Extraction speed 7.2 X
Range quality 100.0 %
Test CRC BD0097C2
Copy CRC BD0097C2
Copy OK

No errors occurred


AccurateRip summary

Track 1 cannot be verified as accurate (confidence 21) [53D14B08], AccurateRip returned [0B5CD3F0] (AR v2)
Track 2 cannot be verified as accurate (confidence 21) [DB877734], AccurateRip returned [8F75249E] (AR v2)
Track 3 cannot be verified as accurate (confidence 21) [940887F4], AccurateRip returned [35D42530] (AR v2)
Track 4 cannot be verified as accurate (confidence 21) [D21B26B2], AccurateRip returned [E28F48C7] (AR v2)
Track 5 cannot be verified as accurate (confidence 21) [B78896F6], AccurateRip returned [2A0AEB11] (AR v2)
Track 6 cannot be verified as accurate (confidence 21) [BC4C994C], AccurateRip returned [D671B6EE] (AR v2)
Track 7 cannot be verified as accurate (confidence 21) [540B2870], AccurateRip returned [701C4606] (AR v2)
Track 8 cannot be verified as accurate (confidence 21) [2321C483], AccurateRip returned [F442BA6D] (AR v2)
Track 9 cannot be verified as accurate (confidence 21) [1536587B], AccurateRip returned [FEC1AB2F] (AR v2)
Track 10 cannot be verified as accurate (confidence 21) [5E6CFEDE], AccurateRip returned [A22A63D8] (AR v2)
Track 11 cannot be verified as accurate (confidence 21) [F278EB01], AccurateRip returned [A476A989] (AR v2)
Track 12 cannot be verified as accurate (confidence 21) [5CD5142B], AccurateRip returned [7A6D7382] (AR v2)
Track 13 cannot be verified as accurate (confidence 21) [39715613], AccurateRip returned [6180BA02] (AR v2)
Track 14 cannot be verified as accurate (confidence 21) [D3DADFCD], AccurateRip returned [868C99CC] (AR v2)

No tracks could be verified as accurate
You may have a different pressing from the one(s) in the database

End of status report

–– CUETools DB Plugin V2.1.6

[CTDB TOCID: 4yp8JvPHQg07tvodVzWvmTkYbrY-] found
Submit result: 4yp8JvPHQg07tvodVzWvmTkYbrY- has been confirmed
Track | CTDB Status
1 | ( 1/31) Accurately ripped, or (28/31) differs in 18 samples @00:00:24,00:32:46
2 | (31/31) Accurately ripped
3 | (31/31) Accurately ripped
4 | (31/31) Accurately ripped
5 | (31/31) Accurately ripped
6 | (31/31) Accurately ripped
7 | (31/31) Accurately ripped
8 | (31/31) Accurately ripped
9 | (31/31) Accurately ripped
10 | (31/31) Accurately ripped
11 | (30/31) Accurately ripped
12 | (31/31) Accurately ripped
13 | (31/31) Accurately ripped
14 | (30/31) Accurately ripped
If you are sure that your rip contains errors, you can use CUETools to repair it.


==== Log checksum 959BD447B6F2EAAA358A181CA903EE3A82EA7EEE9512E5F7787FA90881C88F27 ====

[CUETools log; Date: 27.10.2015 0:30:34; Version: 2.1.4]
[CTDB TOCID: 4yp8JvPHQg07tvodVzWvmTkYbrY-] found.
Track | CTDB Status
1 | ( 2/32) Accurately ripped, or (28/32) differs in 18 samples @00:00:24,00:32:46
2 | (32/32) Accurately ripped
3 | (32/32) Accurately ripped
4 | (32/32) Accurately ripped
5 | (32/32) Accurately ripped
6 | (32/32) Accurately ripped
7 | (32/32) Accurately ripped
8 | (32/32) Accurately ripped
9 | (32/32) Accurately ripped
10 | (32/32) Accurately ripped
11 | (31/32) Accurately ripped
12 | (32/32) Accurately ripped
13 | (32/32) Accurately ripped
14 | (31/32) Accurately ripped
[AccurateRip ID: 0020e687-015926a8-d00e760e] found.
Track [ CRC | V2 ] Status
01 [c88d43ff|53d14b08] (00+00/44) No match
02 [e7b9b7f9|db877734] (00+00/44) No match
03 [e24709a1|940887f4] (00+00/44) No match
04 [6bfe48c1|d21b26b2] (00+00/44) No match
05 [7b30981f|b78896f6] (00+00/44) No match
06 [ae1fd36e|bc4c994c] (00+00/44) No match
07 [c0454c53|540b2870] (00+00/44) No match
08 [b26bde7c|2321c483] (00+00/44) No match
09 [71a467f3|1536587b] (00+00/44) No match
10 [a35573e4|5e6cfede] (00+00/44) No match
11 [09b9e19a|f278eb01] (00+00/44) No match
12 [0a50510b|5cd5142b] (00+00/44) No match
13 [2cb5be27|39715613] (00+00/44) No match
14 [18a6d662|d3dadfcd] (00+00/44) No match
Offsetted by -683:
01 [ed1ad459] (00/44) No match (V2 was not tested)
02 [51d03ab5] (00/44) No match (V2 was not tested)
03 [88e4ca50] (00/44) No match (V2 was not tested)
04 [eb657215] (00/44) No match (V2 was not tested)
05 [a2305c13] (00/44) No match (V2 was not tested)
06 [d2ed83a8] (00/44) No match (V2 was not tested)
07 [8e3df43f] (00/44) No match (V2 was not tested)
08 [f0c85e17] (00/44) No match (V2 was not tested)
09 [231078ac] (00/44) No match (V2 was not tested)
10 [a4499752] (00/44) No match (V2 was not tested)
11 [e4596323] (00/44) No match (V2 was not tested)
12 [0dce67ae] (00/44) No match (V2 was not tested)
13 [9f0094dc] (00/44) No match (V2 was not tested)
14 [6b635470] (00/44) No match (V2 was not tested)
Offsetted by -112:
01 [c14acf5e] (00/44) No match (V2 was not tested)
02 [807dde6a] (03/44) Accurately ripped
03 [017ca625] (03/44) Accurately ripped
04 [72ec190b] (03/44) Accurately ripped
05 [41ef6b7f] (03/44) Accurately ripped
06 [502f6783] (03/44) Accurately ripped
07 [ee76b06c] (03/44) Accurately ripped
08 [b2b7abbf] (03/44) Accurately ripped
09 [fe28a65e] (03/44) Accurately ripped
10 [a6892eb8] (03/44) Accurately ripped
11 [f55b47d6] (03/44) Accurately ripped
12 [eee73537] (03/44) Accurately ripped
13 [2ee21668] (03/44) Accurately ripped
14 [a5b39b73] (03/44) Accurately ripped
Offsetted by -14:
01 [c553eec2] (00/44) No match (V2 was not tested)
02 [344de4fd] (02/44) Accurately ripped
03 [3ad0120e] (02/44) Accurately ripped
04 [23625893] (02/44) Accurately ripped
05 [b12ed863] (02/44) Accurately ripped
06 [e7d5d645] (02/44) Accurately ripped
07 [c8a47889] (02/44) Accurately ripped
08 [419ab790] (02/44) Accurately ripped
09 [fd3822b6] (02/44) Accurately ripped
10 [381f0547] (02/44) Accurately ripped
11 [c637aa23] (02/44) Accurately ripped
12 [bfdbf2d3] (02/44) Accurately ripped
13 [cb286939] (02/44) Accurately ripped
14 [a4d4f00a] (02/44) Accurately ripped
Offsetted by 655:
01 [c9e8bf30] (00/44) No match (V2 was not tested)
02 [8bd628d5] (16/44) Accurately ripped
03 [72d1fb0b] (16/44) Accurately ripped
04 [7df62332] (16/44) Accurately ripped
05 [e8901ad5] (16/44) Accurately ripped
06 [b58b3446] (16/44) Accurately ripped
07 [de2a05bf] (16/44) Accurately ripped
08 [972235f6] (16/44) Accurately ripped
09 [246727d3] (16/44) Accurately ripped
10 [f10dc3c1] (16/44) Accurately ripped
11 [c5083e68] (16/44) Accurately ripped
12 [29ff084b] (16/44) Accurately ripped
13 [550435b7] (16/44) Accurately ripped
14 [cf1241cb] (16/44) Accurately ripped

Track Peak [ CRC32 ] [W/O NULL] [ LOG ]
– 99,9 [BD0097C2] [F54ABA6C] CRC32
01 99,9 [43CDBA35] [92F6BD4E]
02 99,9 [599C21F6] [833FE59D]
03 99,9 [4DDA01D5] [8F57520D]
04 99,9 [4EB56750] [C6482A45]
05 99,9 [A9D501FD] [F81481FD]
06 99,9 [A6AAF0CE] [75010DB0]
07 99,9 [46D4683A] [7EC5E078]
08 99,9 [CD7F6A56] [2E18E05C]
09 99,9 [47A5B2E5] [87D740BE]
10 99,9 [9CE76956] [A08F3B63]
11 99,9 [B815C2C3] [15A471CE]
12 99,9 [EC48F9AA] [59FC2255]
13 99,9 [6EC08301] [CFD31C1C]
14 99,9 [BEEEBB95] [0F9344A2]

Tracklist CD2:

01. Gasoline Dream (7:40)
02. Rotten To The Core (5:38)
03. Horrorscope (5:58)
04. Under One (3:56)
05. New Machine (4:21)
06. Thanx For Nothin' (5:04)
07. Bastard Nation (5:58)
08. Fuck You (7:03)

Exact Audio Copy V1.1 from 23. June 2015

EAC extraction logfile from 24. October 2015, 20:11

Overkill / Wrecking Your Neck - Live (Disc 2)

Used drive : PIONEER DVD-RW DVR-215 Adapter: 1 ID: 1

Read mode : Secure
Utilize accurate stream : Yes
Defeat audio cache : Yes
Make use of C2 pointers : No

Read offset correction : 48
Overread into Lead-In and Lead-Out : No
Fill up missing offset samples with silence : Yes
Delete leading and trailing silent blocks : No
Null samples used in CRC calculations : Yes
Used interface : Native Win32 interface for Win NT & 2000

Used output format : User Defined Encoder
Selected bitrate : 1024 kBit/s
Quality : High
Add ID3 tag : No
Command line compressor : C:\Program Files (x86)\Exact Audio Copy\Flac\flac.exe
Additional command line options : -V -8 -T "Date=%year%" -T "Genre=%genre%" %source%


TOC of the extracted CD

Track | Start | Length | Start sector | End sector
––––––––––––––––––––––––––––-
1 | 0:00.00 | 7:39.70 | 0 | 34494
2 | 7:39.70 | 5:38.37 | 34495 | 59881
3 | 13:18.32 | 5:58.03 | 59882 | 86734
4 | 19:16.35 | 3:55.42 | 86735 | 104401
5 | 23:12.02 | 4:21.23 | 104402 | 123999
6 | 27:33.25 | 5:03.51 | 124000 | 146775
7 | 32:37.01 | 5:57.63 | 146776 | 173613
8 | 38:34.64 | 7:03.15 | 173614 | 205353


Range status and errors

Selected range

Filename F:\metallihead\Overkill - Historikill (1996-2007)\Overkill - Wrecking Your Neck - Live (Disc 2).wav

Peak level 100.0 %
Extraction speed 6.7 X
Range quality 100.0 %
Test CRC 5B9863C2
Copy CRC 5B9863C2
Copy OK

No errors occurred


AccurateRip summary

Track 1 not present in database
Track 2 not present in database
Track 3 not present in database
Track 4 not present in database
Track 5 not present in database
Track 6 not present in database
Track 7 not present in database
Track 8 not present in database

None of the tracks are present in the AccurateRip database

End of status report

–– CUETools DB Plugin V2.1.6

[CTDB TOCID: o1cMxL97sX_u.D9Cut7LNn4Jpa8-] found
Submit result: o1cMxL97sX_u.D9Cut7LNn4Jpa8- has been confirmed
Track | CTDB Status
1 | (1/1) Accurately ripped
2 | (1/1) Accurately ripped
3 | (1/1) Accurately ripped
4 | (1/1) Accurately ripped
5 | (1/1) Accurately ripped
6 | (1/1) Accurately ripped
7 | (1/1) Accurately ripped
8 | (1/1) Accurately ripped


==== Log checksum 88766C6287113DD5A35D5EF415D4E5AECEF3AF6CFF3556072A8DA5BCC2D04A4F ====

[CUETools log; Date: 27.10.2015 0:32:56; Version: 2.1.4]
[CTDB TOCID: o1cMxL97sX_u.D9Cut7LNn4Jpa8-] found.
Track | CTDB Status
1 | (2/2) Accurately ripped
2 | (2/2) Accurately ripped
3 | (2/2) Accurately ripped
4 | (2/2) Accurately ripped
5 | (2/2) Accurately ripped
6 | (2/2) Accurately ripped
7 | (2/2) Accurately ripped
8 | (2/2) Accurately ripped
[AccurateRip ID: 000e455a-005d7a25-6a0ab208] disk not present in database.

Track Peak [ CRC32 ] [W/O NULL] [ LOG ]
– 99,9 [5B9863C2] [02DB6A64] CRC32
01 99,9 [906BF43E] [611FBDF9]
02 99,9 [98813FFB] [9C60DAF5]
03 99,9 [3203BE8D] [AA80B920]
04 99,9 [5E12B69A] [63D8FA44]
05 99,9 [CD3C0757] [667AADA0]
06 99,9 [D55BBAF1] [3139A089]
07 99,9 [6DB3CDB5] [40DDE0CF]
08 99,9 [BDA2612D] [10DB5AC8]

* * * * *

Overkill - Historikill 1995-2007 (2015) [14CD Box Set]

CD03: Overkill - The Killing Kind (1996)
EAC | Flac(Image) + Cue + Log & MP3 CBR 320Kbps
Nuclear Blast, NB 3470-0 | ~ 461 or 159 Mb | Scans Included
Thrash Metal

In 1996, Overkill was infused with a new musical spark as two new guitarists (Joe Comeau and Sebastian Marino) joined the band's ranks, bringing with them some fresh riffs and a higher overall level of musicianship. There is no place where this is better demonstrated than on the instrumental "Feeding Frenzy," a quick-paced, double bass attack anthem. Joining Comeau and Marino on The Killing Kind are original members Bobby "Blitz" Ellsworth on vocals, D.D. Verni on bass, and relative newcomer Tim Mallare on drums. Together, this late-model lineup of the band produce a punchy metal grind that's as musically accomplished as anything Overkill produced. Other standout tracks included the ferociously tight "Bold Pagan Stomp" and "Let Me Shut That For You." After over a decade of thrash and aggressive metal releases, Overkill prove on The Killing Kind that time and music trends had no affect on their commitment to seriously heavy metal.

by Jason Anderson, AMG
Tracklist:

01. Battle (4:32)
02. God-Like (4:11)
03. Certifiable (3:25)
04. Burn You Down / To Ashes (6:47)
05. Let Me Shut That For You (5:19)
06. Bold Face Pagan Stomp (5:42)
07. Feeding Frenzy (4:14)
08. The Cleansing (5:50)
09. The Morning After / Private Bleeding (4:37)
10. Cold, Hard Fact (5:20)
11. Cornucopia (4:47)
12. Tyrant (4:01)
13. Killogy (3:11)

Exact Audio Copy V1.1 from 23. June 2015

EAC extraction logfile from 24. October 2015, 18:04

Overkill / The Killing Kind (Nuclear Blast NB 3470-0)

Used drive : PIONEER DVD-RW DVR-215 Adapter: 1 ID: 1

Read mode : Secure
Utilize accurate stream : Yes
Defeat audio cache : Yes
Make use of C2 pointers : No

Read offset correction : 48
Overread into Lead-In and Lead-Out : No
Fill up missing offset samples with silence : Yes
Delete leading and trailing silent blocks : No
Null samples used in CRC calculations : Yes
Used interface : Native Win32 interface for Win NT & 2000

Used output format : User Defined Encoder
Selected bitrate : 1024 kBit/s
Quality : High
Add ID3 tag : No
Command line compressor : C:\Program Files (x86)\Exact Audio Copy\Flac\flac.exe
Additional command line options : -V -8 -T "Date=%year%" -T "Genre=%genre%" %source%


TOC of the extracted CD

Track | Start | Length | Start sector | End sector
––––––––––––––––––––––––––––-
1 | 0:00.00 | 4:31.69 | 0 | 20393
2 | 4:31.69 | 4:11.25 | 20394 | 39243
3 | 8:43.19 | 3:25.17 | 39244 | 54635
4 | 12:08.36 | 6:47.28 | 54636 | 85188
5 | 18:55.64 | 5:19.37 | 85189 | 109150
6 | 24:15.26 | 5:42.23 | 109151 | 134823
7 | 29:57.49 | 4:13.47 | 134824 | 153845
8 | 34:11.21 | 5:50.33 | 153846 | 180128
9 | 40:01.54 | 4:36.70 | 180129 | 200898
10 | 44:38.49 | 5:19.65 | 200899 | 224888
11 | 49:58.39 | 4:47.20 | 224889 | 246433
12 | 54:45.59 | 4:01.21 | 246434 | 264529
13 | 58:47.05 | 3:10.48 | 264530 | 278827


Range status and errors

Selected range

Filename F:\metallihead\Overkill - Historikill (1996-2007)\Overkill - The Killing Kind (Nuclear Blast NB 3470-0).wav

Peak level 100.0 %
Extraction speed 7.2 X
Range quality 100.0 %
Test CRC 50B64AB4
Copy CRC 50B64AB4
Copy OK

No errors occurred


AccurateRip summary

Track 1 not present in database
Track 2 not present in database
Track 3 not present in database
Track 4 not present in database
Track 5 not present in database
Track 6 not present in database
Track 7 not present in database
Track 8 not present in database
Track 9 not present in database
Track 10 not present in database
Track 11 not present in database
Track 12 not present in database
Track 13 not present in database

None of the tracks are present in the AccurateRip database

End of status report

–– CUETools DB Plugin V2.1.6

[CTDB TOCID: 0hfa3WOncIRD7FTLWD7KtCDGC.U-] found
Submit result: already submitted
Track | CTDB Status
1 | (2/2) Accurately ripped
2 | (2/2) Accurately ripped
3 | (2/2) Accurately ripped
4 | (2/2) Accurately ripped
5 | (2/2) Accurately ripped
6 | (2/2) Accurately ripped
7 | (2/2) Accurately ripped
8 | (2/2) Accurately ripped
9 | (2/2) Accurately ripped
10 | (2/2) Accurately ripped
11 | (2/2) Accurately ripped
12 | (2/2) Accurately ripped
13 | (2/2) Accurately ripped


==== Log checksum 3715F386B5A4D4F941D57CB27CB5FCA4A986DF30CDC7CDC13BA5D3BE9A84EED3 ====

[CUETools log; Date: 27.10.2015 0:34:52; Version: 2.1.4]
[CTDB TOCID: 0hfa3WOncIRD7FTLWD7KtCDGC.U-] found.
Track | CTDB Status
1 | (2/2) Accurately ripped
2 | (2/2) Accurately ripped
3 | (2/2) Accurately ripped
4 | (2/2) Accurately ripped
5 | (2/2) Accurately ripped
6 | (2/2) Accurately ripped
7 | (2/2) Accurately ripped
8 | (2/2) Accurately ripped
9 | (2/2) Accurately ripped
10 | (2/2) Accurately ripped
11 | (2/2) Accurately ripped
12 | (2/2) Accurately ripped
13 | (2/2) Accurately ripped
[AccurateRip ID: 001e6921-0131b9e8-a80e850d] disk not present in database.

Track Peak [ CRC32 ] [W/O NULL] [ LOG ]
– 100,0 [50B64AB4] [4E96E6FF] CRC32
01 97,7 [3BAB928D] [20AEDC7E]
02 97,7 [F5AA6E1D] [4796870B]
03 100,0 [319947B9] [2BDA0FF3]
04 100,0 [6B66A790] [93C176CE]
05 97,7 [EE2D9E8E] [063A1F37]
06 97,7 [F2CF2486] [1E9A6C24]
07 100,0 [45EFF4EB] [50224F20]
08 100,0 [B39EB41B] [E3C6C99A]
09 97,7 [FBD9F804] [FD0C0CE1]
10 97,7 [DDC6BEFE] [025AA777]
11 92,8 [2C906D7A] [016B24C5]
12 98,2 [8F3E6891] [94BE0EC6]
13 99,9 [3346E709] [805FAEDD]

* * * * *

Overkill - Historikill 1995-2007 (2015) [14CD Box Set]

CD04: Overkill - From The Underground And Below (1997)
EAC | Flac(Image) + Cue + Log & MP3 CBR 320Kbps
Nuclear Blast, NB 3471-0 | ~ 366 or 115 Mb | Scans(300dpi, jpg) -> 36 Mb
Thrash Metal

Yet another solid metal outing from veteran New York thrash/power metal outfit Overkill, From the Underground and Below again demonstrates the consistent inventive and energetic stylings that made this band one of America's best underground metal outfits. Together for their third release, the very effective lineup of Bobby "Blitz" Ellsworth on vocals, D.D. Verni on bass, Sebastion Marino and Joe Comeau on guitar and drummer Tim Mallare plow through ten ultra-heavy tracks laced with all the spirited aggression fans of the band should expect. Standout tracks include "Long Time Dyin'" and "Half Past Dead" – just two examples that feature the biting guitar riffs and thumping drums that typify the kind of aggressiveness and precision that Overkill used to build a solid musical reputation. Ellsworth's performances are not quite up to speed on From the Underground and Below, but any vocal shortcomings on this disc are more than made up for by the truly inspired guitar and drum performances and articulate, inventive material.

by Jason Anderson, AMG
Tracklist:

01. It Lives (4:32)
02. Save Me (4:56)
03. Long Time Dyin' (4:53)
04. Genocya (4:46)
05. Half Past Dead (5:30)
06. F.U.C.T. (4:56)
07. I'm Alright (5:49)
08. The Rip N' Tear (4:19)
09. Promises (4:50)
10. Little Bit O' Murder (4:09)

Exact Audio Copy V1.1 from 23. June 2015

EAC extraction logfile from 25. October 2015, 19:08

Overkill / From The Underground And Below (Nuclear Blast NB 3471-0)

Used drive : PIONEER DVD-RW DVR-215 Adapter: 1 ID: 1

Read mode : Secure
Utilize accurate stream : Yes
Defeat audio cache : Yes
Make use of C2 pointers : No

Read offset correction : 48
Overread into Lead-In and Lead-Out : No
Fill up missing offset samples with silence : Yes
Delete leading and trailing silent blocks : No
Null samples used in CRC calculations : Yes
Used interface : Native Win32 interface for Win NT & 2000

Used output format : User Defined Encoder
Selected bitrate : 1024 kBit/s
Quality : High
Add ID3 tag : No
Command line compressor : C:\Program Files (x86)\Exact Audio Copy\Flac\flac.exe
Additional command line options : -V -8 -T "Date=%year%" -T "Genre=%genre%" %source%


TOC of the extracted CD

Track | Start | Length | Start sector | End sector
––––––––––––––––––––––––––––-
1 | 0:00.00 | 4:31.70 | 0 | 20394
2 | 4:31.70 | 4:55.63 | 20395 | 42582
3 | 9:27.58 | 4:53.30 | 42583 | 64587
4 | 14:21.13 | 4:45.60 | 64588 | 86022
5 | 19:06.73 | 5:30.12 | 86023 | 110784
6 | 24:37.10 | 4:55.53 | 110785 | 132962
7 | 29:32.63 | 5:49.30 | 132963 | 159167
8 | 35:22.18 | 4:18.65 | 159168 | 178582
9 | 39:41.08 | 4:49.70 | 178583 | 200327
10 | 44:31.03 | 4:09.19 | 200328 | 219021


Range status and errors

Selected range

Filename F:\metallihead\Overkill - Historikill (1996-2007)\Overkill - From The Underground And Below (Nuclear Blast NB 3471-0).wav

Peak level 99.9 %
Extraction speed 6.7 X
Range quality 99.9 %
Test CRC 47E659DD
Copy CRC 47E659DD
Copy OK

No errors occurred


AccurateRip summary

Track 1 not present in database
Track 2 not present in database
Track 3 not present in database
Track 4 not present in database
Track 5 not present in database
Track 6 not present in database
Track 7 not present in database
Track 8 not present in database
Track 9 not present in database
Track 10 not present in database

None of the tracks are present in the AccurateRip database

End of status report

–– CUETools DB Plugin V2.1.6

[CTDB TOCID: 4.B4i5x7pr_8SBHmiMuFVmXB.sk-] found
Submit result: 4.B4i5x7pr_8SBHmiMuFVmXB.sk- has been confirmed
Track | CTDB Status
1 | (1/1) Accurately ripped
2 | (1/1) Accurately ripped
3 | (1/1) Accurately ripped
4 | (1/1) Accurately ripped
5 | (1/1) Accurately ripped
6 | (1/1) Accurately ripped
7 | (1/1) Accurately ripped
8 | (1/1) Accurately ripped
9 | (1/1) Accurately ripped
10 | (1/1) Accurately ripped


==== Log checksum 9E00173EBCFAD6AE1B395F79DB1CC5595BC3108B0E1D0D42CDB452D3478979F1 ====

[CUETools log; Date: 27.10.2015 0:37:42; Version: 2.1.4]
[CTDB TOCID: 4.B4i5x7pr_8SBHmiMuFVmXB.sk-] found.
Track | CTDB Status
1 | (2/2) Accurately ripped
2 | (2/2) Accurately ripped
3 | (2/2) Accurately ripped
4 | (2/2) Accurately ripped
5 | (2/2) Accurately ripped
6 | (2/2) Accurately ripped
7 | (2/2) Accurately ripped
8 | (2/2) Accurately ripped
9 | (2/2) Accurately ripped
10 | (2/2) Accurately ripped
[AccurateRip ID: 001287e6-0094b4a3-940b680a] disk not present in database.

Track Peak [ CRC32 ] [W/O NULL] [ LOG ]
– 99,9 [47E659DD] [ED195D8B] CRC32
01 99,9 [567A2A4D] [732336B1]
02 99,9 [1ADE4D8E] [930BDFE4]
03 99,9 [7F347F41] [C3808AC4]
04 99,9 [0B233BDF] [B18123E9]
05 99,9 [382B6974] [DDB098E2]
06 99,9 [11026D0B] [D1DA11FC]
07 99,9 [49CB992C] [027AD314]
08 99,9 [03A5BC81] [B2A3867B]
09 99,9 [5BEE96CB] [AF086CE5]
10 99,9 [FEA652D3] [0853C61C]

* * * * *

Overkill - Historikill 1995-2007 (2015) [14CD Box Set]

CD05: Overkill - Necroshine (1999)
EAC | Flac(Image) + Cue + Log & MP3 CBR 320Kbps
Nuclear Blast, NB 3472-0 | ~ 378 or 120 Mb | Scans(300dpi, jpg) -> 38 Mb
Thrash Metal

Overkill's 1999 release Necroshine is both a raw and mildly experimental release for the New York thrash veterans. The slightly stripped-down production may have been intended to harken back to the group's '80s glory days, but after a few significant lineup changes and noticeable (but not necessarily extensive) musical evolution there really was no turning back for the group, especially when considering that they hadn't gone very far in the first place. The mid-'90s additions of guitarists Joe Comeau and Sebastion Marino did refine the groups sonic attack, as the new musicians added a technically proficiency and instrumental depth that the group used to reinforce rather than drift away from their pulsing, aggressive "second wave of thrash" attack. While certainly not a groundbreaking effort, Necroshine has a depth that many Overkill fans might find refreshing. The pounding grind and dynamic vocals of "80 Cycles" is just one example of the band's expanded, yet familiar songwriting repertoire. Other standouts include the steamy "Forked Tongued Kiss" and the title track that opens Necroshine with some monster riffing and a fine vocal performance by Bobby "Blitz" Ellsworth. It's very safe to say that serious fans of the group will not be disappointed with Necroshine.

by Jason Anderson, AMG
Tracklist:

01. Necroshine (6:03)
02. My December (5:01)
03. Let Us Prey (6:40)
04. 80 Cycles (5:50)
05. Revelation (4:40)
06. Stone Cold Jesus (5:19)
07. Forked Tongue Kiss (4:03)
08. I Am Fear (4:31)
09. Black Line (4:44)
10. Dead Man (4:16)

Exact Audio Copy V1.1 from 23. June 2015

EAC extraction logfile from 24. October 2015, 19:07

Overkill / Necroshine (Nuclear Blast NB 3472-0)

Used drive : PIONEER DVD-RW DVR-215 Adapter: 1 ID: 1

Read mode : Secure
Utilize accurate stream : Yes
Defeat audio cache : Yes
Make use of C2 pointers : No

Read offset correction : 48
Overread into Lead-In and Lead-Out : No
Fill up missing offset samples with silence : Yes
Delete leading and trailing silent blocks : No
Null samples used in CRC calculations : Yes
Used interface : Native Win32 interface for Win NT & 2000

Used output format : User Defined Encoder
Selected bitrate : 1024 kBit/s
Quality : High
Add ID3 tag : No
Command line compressor : C:\Program Files (x86)\Exact Audio Copy\Flac\flac.exe
Additional command line options : -V -8 -T "Date=%year%" -T "Genre=%genre%" %source%


TOC of the extracted CD

Track | Start | Length | Start sector | End sector
––––––––––––––––––––––––––––-
1 | 0:00.00 | 6:03.15 | 0 | 27239
2 | 6:03.15 | 5:01.13 | 27240 | 49827
3 | 11:04.28 | 6:40.35 | 49828 | 79862
4 | 17:44.63 | 5:50.25 | 79863 | 106137
5 | 23:35.13 | 4:39.65 | 106138 | 127127
6 | 28:15.03 | 5:18.65 | 127128 | 151042
7 | 33:33.68 | 4:02.55 | 151043 | 169247
8 | 37:36.48 | 4:30.52 | 169248 | 189549
9 | 42:07.25 | 4:43.53 | 189550 | 210827
10 | 46:51.03 | 4:16.14 | 210828 | 230041


Range status and errors

Selected range

Filename F:\metallihead\Overkill - Historikill (1996-2007)\Overkill - Necroshine (Nuclear Blast NB 3472-0).wav

Peak level 100.0 %
Extraction speed 6.9 X
Range quality 100.0 %
Test CRC 6DB5494B
Copy CRC 6DB5494B
Copy OK

No errors occurred


AccurateRip summary

Track 1 not present in database
Track 2 not present in database
Track 3 not present in database
Track 4 not present in database
Track 5 not present in database
Track 6 not present in database
Track 7 not present in database
Track 8 not present in database
Track 9 not present in database
Track 10 not present in database

None of the tracks are present in the AccurateRip database

End of status report

–– CUETools DB Plugin V2.1.6

[CTDB TOCID: 1rtixI6WAZ7rhpAZ5dn5ET_8XKQ-] found
Submit result: 1rtixI6WAZ7rhpAZ5dn5ET_8XKQ- has been confirmed
Track | CTDB Status
1 | (1/1) Accurately ripped
2 | (1/1) Accurately ripped
3 | (1/1) Accurately ripped
4 | (1/1) Accurately ripped
5 | (1/1) Accurately ripped
6 | (1/1) Accurately ripped
7 | (1/1) Accurately ripped
8 | (1/1) Accurately ripped
9 | (1/1) Accurately ripped
10 | (1/1) Accurately ripped


==== Log checksum E80FCB95B82EA80AF8F3535E7F558A8B766E0F3E66A83AF763B8B1A3C8A1183D ====

[CUETools log; Date: 27.10.2015 0:42:16; Version: 2.1.4]
[CTDB TOCID: 1rtixI6WAZ7rhpAZ5dn5ET_8XKQ-] found.
Track | CTDB Status
1 | (2/2) Accurately ripped
2 | (2/2) Accurately ripped
3 | (2/2) Accurately ripped
4 | (2/2) Accurately ripped
5 | (2/2) Accurately ripped
6 | (2/2) Accurately ripped
7 | (2/2) Accurately ripped
8 | (2/2) Accurately ripped
9 | (2/2) Accurately ripped
10 | (2/2) Accurately ripped
[AccurateRip ID: 001475ec-00a15434-8c0bfb0a] disk not present in database.

Track Peak [ CRC32 ] [W/O NULL] [ LOG ]
– 100,0 [6DB5494B] [E695E6DB] CRC32
01 100,0 [B31B0D94] [DBD0566D]
02 100,0 [27225881] [A35EB420]
03 100,0 [8374A612] [41093E99]
04 100,0 [08D9E58F] [C0242B93]
05 100,0 [0DA025B1] [62625FEF]
06 89,1 [4D1446AE] [8C4C5F00]
07 100,0 [D2372C91] [6C218B05]
08 100,0 [526FBD4E] [9AA5B038]
09 100,0 [9DC06001] [B30DEBC1]
10 100,0 [D99CAE45] [EEF3A02C]

* * * * *

Overkill - Historikill 1995-2007 (2015) [14CD Box Set]

CD06: Overkill - Coverkill (1999)
EAC | Flac(Image) + Cue + Log & MP3 CBR 320Kbps
Nuclear Blast, NB 3473-0 | ~ 326 or 103 Mb | Scans(300dpi, jpg) -> 32 Mb
Thrash Metal

Coverkill arrives only several months after its predecessor Necroshine, consisting – as the title suggests – entirely of cover tunes rather than any newly written material. Some of the choices are predictable, but to their credit, Overkill picks some of the more underrated items from major metal artists like Black Sabbath ("Hole in the Sky," "Cornucopia," "Never Say Die"), Deep Purple ("Space Truckin'"), Kiss ("Deuce"), Judas Priest ("Tyrant"), Manowar ("Death Tone"), Jethro Tull ("Hymn 43"), plus the Motorhead tune that gave Overkill their name. These parts of the album actually work pretty well since Overkill is a tight, professional metal band, and they've chosen high-quality material. More problematic are the punk covers by first-generation bands like the Dead Boys ("Ain't Nothin' to Do"), the Sex Pistols ("No Feelings"), and the Ramones ("I'm Against It"). Most thrash/speed metal bands who have done punk covers in the past only point up the fact that metal's often rigorous technical requirements and studied theatricality don't sit well with punk's simplicity and raw expressiveness. And unfortunately, that tends to be the case here as well. But those are only three songs, leaving the rest of the record a fine showcase for Overkill's well-developed musicianship.

by Steve Huey, AMG
Tracklist:

01. Overkill (4:17)
02. No Feelings (2:37)
03. Hymn 43 (2:59)
04. Changes (4:58)
05. Space Truckin' (4:00)
06. Deuce (3:05)
07. Never Say Die (3:26)
08. Death Tone (4:24)
09. Cornucopia (4:47)
10. Tyrant (4:01)
11. Ain't Nothin' To Do (2:14)
12. I'm Against It (2:44)

Exact Audio Copy V1.1 from 23. June 2015

EAC extraction logfile from 24. October 2015, 18:47

Overkill / Coverkill (Nuclear Blast NB 3473-0)

Used drive : PIONEER DVD-RW DVR-215 Adapter: 1 ID: 1

Read mode : Secure
Utilize accurate stream : Yes
Defeat audio cache : Yes
Make use of C2 pointers : No

Read offset correction : 48
Overread into Lead-In and Lead-Out : No
Fill up missing offset samples with silence : Yes
Delete leading and trailing silent blocks : No
Null samples used in CRC calculations : Yes
Used interface : Native Win32 interface for Win NT & 2000

Used output format : User Defined Encoder
Selected bitrate : 1024 kBit/s
Quality : High
Add ID3 tag : No
Command line compressor : C:\Program Files (x86)\Exact Audio Copy\Flac\flac.exe
Additional command line options : -V -8 -T "Date=%year%" -T "Genre=%genre%" %source%


TOC of the extracted CD

Track | Start | Length | Start sector | End sector
––––––––––––––––––––––––––––-
1 | 0:00.00 | 4:16.60 | 0 | 19259
2 | 4:16.60 | 2:36.60 | 19260 | 31019
3 | 6:53.45 | 2:59.05 | 31020 | 44449
4 | 9:52.50 | 4:57.55 | 44450 | 66779
5 | 14:50.30 | 3:59.52 | 66780 | 84756
6 | 18:50.07 | 3:05.25 | 84757 | 98656
7 | 21:55.32 | 3:25.38 | 98657 | 114069
8 | 25:20.70 | 4:23.72 | 114070 | 133866
9 | 29:44.67 | 4:46.73 | 133867 | 155389
10 | 34:31.65 | 4:00.55 | 155390 | 173444
11 | 38:32.45 | 2:13.47 | 173445 | 183466
12 | 40:46.17 | 2:44.24 | 183467 | 195790


Range status and errors

Selected range

Filename F:\metallihead\Overkill - Historikill (1996-2007)\Overkill - Coverkill (Nuclear Blast NB 3473-0).wav

Peak level 100.0 %
Extraction speed 6.6 X
Range quality 100.0 %
Test CRC FBB14EBF
Copy CRC FBB14EBF
Copy OK

No errors occurred


AccurateRip summary

Track 1 not present in database
Track 2 not present in database
Track 3 not present in database
Track 4 not present in database
Track 5 not present in database
Track 6 not present in database
Track 7 not present in database
Track 8 not present in database
Track 9 not present in database
Track 10 not present in database
Track 11 not present in database
Track 12 not present in database

None of the tracks are present in the AccurateRip database

End of status report

–– CUETools DB Plugin V2.1.6

[CTDB TOCID: hNzVkR3Hy_tMBiwn9WRie0SQgmI-] found
Submit result: hNzVkR3Hy_tMBiwn9WRie0SQgmI- has been confirmed
Track | CTDB Status
1 | (1/1) Accurately ripped
2 | (1/1) Accurately ripped
3 | (1/1) Accurately ripped
4 | (1/1) Accurately ripped
5 | (1/1) Accurately ripped
6 | (1/1) Accurately ripped
7 | (1/1) Accurately ripped
8 | (1/1) Accurately ripped
9 | (1/1) Accurately ripped
10 | (1/1) Accurately ripped
11 | (1/1) Accurately ripped
12 | (1/1) Accurately ripped


==== Log checksum EA00D2B4ABF2A81A3CEB0A06CD2676068E7DC4975AA2E59F9007C170D69B2353 ====

[CUETools log; Date: 27.10.2015 0:40:06; Version: 2.1.4]
[CTDB TOCID: hNzVkR3Hy_tMBiwn9WRie0SQgmI-] found.
Track | CTDB Status
1 | (2/2) Accurately ripped
2 | (2/2) Accurately ripped
3 | (2/2) Accurately ripped
4 | (2/2) Accurately ripped
5 | (2/2) Accurately ripped
6 | (2/2) Accurately ripped
7 | (2/2) Accurately ripped
8 | (2/2) Accurately ripped
9 | (2/2) Accurately ripped
10 | (2/2) Accurately ripped
11 | (2/2) Accurately ripped
12 | (2/2) Accurately ripped
[AccurateRip ID: 0013d9da-00b9ad13-9b0a320c] disk not present in database.

Track Peak [ CRC32 ] [W/O NULL] [ LOG ]
– 100,0 [FBB14EBF] [67E965CD] CRC32
01 97,6 [C699E317] [22AE9B55]
02 99,9 [3BF40849] [3BE764D8]
03 98,8 [7B62E32E] [DC9FEE3F]
04 100,0 [E1849C32] [7879855E]
05 99,9 [CB51E3C7] [3A081C5F]
06 100,0 [55F0F329] [5C0C0C11]
07 100,0 [ADC6DB1B] [2305D420]
08 100,0 [A85F3F4E] [99B33AA4]
09 92,8 [B8BE6CB2] [C18F061C]
10 98,2 [5139FE49] [7FF978C3]
11 99,2 [02E039F4] [4B464B59]
12 98,8 [96B45D69] [4FABC037]

* * * * *

Overkill - Historikill 1995-2007 (2015) [14CD Box Set]

CD07: Overkill - Bloodletting (2000)
EAC | Flac(Image) + Cue + Log & MP3 CBR 320Kbps
Nuclear Blast, NB 3474-0 | ~ 397 or 121 Mb | Scans(300dpi, jpg) -> 24 Mb
Thrash Metal

This disc is a great fairly mainstream metal disc that should please any fans of the genre. The material has a lot of dynamic range, and there are really no weak cuts.

by Gary Hill, AMG
Tracklist:

01. Thunderhead (5:40)
02. Bleed Me (4:31)
03. What I'm Missin' (4:37)
04. Death Comes Out To Play (5:03)
05. Let It Burn (5:19)
06. I, Hurricane (5:04)
07. Left Hand Man (6:10)
08. Blown Away (6:44)
09. My Name Is Pain (4:18)
10. Can't Kill A Dead Man (4:06)

Exact Audio Copy V1.1 from 23. June 2015

EAC extraction logfile from 25. October 2015, 19:29

Overkill / Bloodletting (Nuclear Blast NB 3474-0)

Used drive : PIONEER DVD-RW DVR-215 Adapter: 1 ID: 1

Read mode : Secure
Utilize accurate stream : Yes
Defeat audio cache : Yes
Make use of C2 pointers : No

Read offset correction : 48
Overread into Lead-In and Lead-Out : No
Fill up missing offset samples with silence : Yes
Delete leading and trailing silent blocks : No
Null samples used in CRC calculations : Yes
Used interface : Native Win32 interface for Win NT & 2000

Used output format : User Defined Encoder
Selected bitrate : 1024 kBit/s
Quality : High
Add ID3 tag : No
Command line compressor : C:\Program Files (x86)\Exact Audio Copy\Flac\flac.exe
Additional command line options : -V -8 -T "Date=%year%" -T "Genre=%genre%" %source%


TOC of the extracted CD

Track | Start | Length | Start sector | End sector
––––––––––––––––––––––––––––-
1 | 0:00.00 | 5:39.45 | 0 | 25469
2 | 5:39.45 | 4:30.47 | 25470 | 45766
3 | 10:10.17 | 4:36.63 | 45767 | 66529
4 | 14:47.05 | 5:02.65 | 66530 | 89244
5 | 19:49.70 | 5:18.72 | 89245 | 113166
6 | 25:08.67 | 5:04.28 | 113167 | 135994
7 | 30:13.20 | 6:10.05 | 135995 | 163749
8 | 36:23.25 | 6:43.72 | 163750 | 194046
9 | 43:07.22 | 4:17.45 | 194047 | 213366
10 | 47:24.67 | 4:05.50 | 213367 | 231791


Range status and errors

Selected range

Filename F:\metallihead\Overkill - Historikill (1996-2007)\Overkill - Bloodletting (Nuclear Blast NB 3474-0).wav

Peak level 99.8 %
Extraction speed 6.8 X
Range quality 99.9 %
Test CRC F0088243
Copy CRC F0088243
Copy OK

No errors occurred


AccurateRip summary

Track 1 cannot be verified as accurate (confidence 19) [F0CE6BEF], AccurateRip returned [9190151C] (AR v2)
Track 2 cannot be verified as accurate (confidence 19) [3A16AACF], AccurateRip returned [D3DA6C31] (AR v2)
Track 3 cannot be verified as accurate (confidence 19) [E88AF9AD], AccurateRip returned [98132C04] (AR v2)
Track 4 cannot be verified as accurate (confidence 19) [77702E0C], AccurateRip returned [15F19308] (AR v2)
Track 5 cannot be verified as accurate (confidence 19) [6CC4C8B2], AccurateRip returned [DACDE36D] (AR v2)
Track 6 cannot be verified as accurate (confidence 19) [C5E0D64B], AccurateRip returned [50012DED] (AR v2)
Track 7 cannot be verified as accurate (confidence 19) [880F9D50], AccurateRip returned [7B38F323] (AR v2)
Track 8 cannot be verified as accurate (confidence 19) [DA2C20A9], AccurateRip returned [70BCA042] (AR v2)
Track 9 cannot be verified as accurate (confidence 19) [C70D4EDB], AccurateRip returned [3E387846] (AR v2)
Track 10 cannot be verified as accurate (confidence 19) [0FC08E21], AccurateRip returned [112E0415] (AR v2)

No tracks could be verified as accurate
You may have a different pressing from the one(s) in the database

End of status report

–– CUETools DB Plugin V2.1.6

[CTDB TOCID: eMq0i1vuGT7rfyIqRUiyQs.Kg0g-] found
Submit result: eMq0i1vuGT7rfyIqRUiyQs.Kg0g- has been confirmed
Track | CTDB Status
1 | ( 1/37) Accurately ripped, or (36/37) differs in 121 samples @00:00:11-00:00:14,00:00:22-00:00:24,00:05:12
2 | (37/37) Accurately ripped
3 | (37/37) Accurately ripped
4 | (37/37) Accurately ripped
5 | (37/37) Accurately ripped
6 | (37/37) Accurately ripped
7 | (37/37) Accurately ripped
8 | (37/37) Accurately ripped
9 | (37/37) Accurately ripped
10 | (37/37) Accurately ripped
If you are sure that your rip contains errors, you can use CUETools to repair it.


==== Log checksum 745D93DBC8C1916AB40942F9677CEBDEA689FB5755F02E9FABFFC398759E044A ====

[CUETools log; Date: 27.10.2015 0:44:54; Version: 2.1.4]
[CTDB TOCID: eMq0i1vuGT7rfyIqRUiyQs.Kg0g-] found.
Track | CTDB Status
1 | ( 2/38) Accurately ripped, or (36/38) differs in 121 samples @00:00:11-00:00:14,00:00:22-00:00:24,00:05:12
2 | (38/38) Accurately ripped
3 | (38/38) Accurately ripped
4 | (38/38) Accurately ripped
5 | (38/38) Accurately ripped
6 | (38/38) Accurately ripped
7 | (38/38) Accurately ripped
8 | (38/38) Accurately ripped
9 | (38/38) Accurately ripped
10 | (38/38) Accurately ripped
[AccurateRip ID: 0013849a-009cba7f-8a0c120a] found.
Track [ CRC | V2 ] Status
01 [51900dd8|f0ce6bef] (00+00/66) No match
02 [9211344f|3a16aacf] (00+00/66) No match
03 [27fef08b|e88af9ad] (00+00/65) No match
04 [102925ac|77702e0c] (00+00/66) No match
05 [7fa329fc|6cc4c8b2] (00+00/66) No match
06 [64190d79|c5e0d64b] (00+00/66) No match
07 [2d49f78b|880f9d50] (00+00/66) No match
08 [dbb43d12|da2c20a9] (00+00/66) No match
09 [734c8a0e|c70d4edb] (00+00/66) No match
10 [ea0c6112|0fc08e21] (00+00/66) No match
Offsetted by -23:
01 [5cf56686] (00/66) No match (V2 was not tested)
02 [c84afc06] (03/66) Accurately ripped
03 [15c73d2f] (03/65) Accurately ripped
04 [71635e43] (03/66) Accurately ripped
05 [c1bb9389] (03/66) Accurately ripped
06 [6c94c9f7] (03/66) Accurately ripped
07 [443abbc6] (03/66) Accurately ripped
08 [da409111] (03/66) Accurately ripped
09 [869a6491] (03/66) Accurately ripped
10 [5c514919] (03/66) Accurately ripped
Offsetted by -16:
01 [a639b08b] (00/66) No match (V2 was not tested)
02 [b6701be5] (02/66) Accurately ripped
03 [a4a067f4] (02/65) Accurately ripped
04 [e0a48f50] (02/66) Accurately ripped
05 [029de1ef] (02/66) Accurately ripped
06 [25eb90ce] (02/66) Accurately ripped
07 [813eb8f1] (02/66) Accurately ripped
08 [0e0642e1] (02/66) Accurately ripped
09 [ed00a7f3] (02/66) Accurately ripped
10 [66899ef7] (02/66) Accurately ripped
Offsetted by -9:
01 [6a4e747b] (00/66) No match (V2 was not tested)
02 [dd5c731f] (02/66) Accurately ripped
03 [bf09ef53] (02/65) Accurately ripped
04 [1a29c2cd] (02/66) Accurately ripped
05 [88d67408] (02/66) Accurately ripped
06 [b1e8f9c0] (02/66) Accurately ripped
07 [b784b05a] (02/66) Accurately ripped
08 [97e445b0] (02/66) Accurately ripped
09 [52949465] (02/66) Accurately ripped
10 [2cf63946] (02/66) Accurately ripped
Offsetted by 653:
01 [8ddb7979] (00/66) No match (V2 was not tested)
02 [d3da6c31] (19/66) Accurately ripped
03 [98132c04] (19/65) Accurately ripped
04 [15f19308] (19/66) Accurately ripped
05 [dacde36d] (19/66) Accurately ripped
06 [50012ded] (19/66) Accurately ripped
07 [7b38f323] (19/66) Accurately ripped
08 [70bca042] (19/66) Accurately ripped
09 [3e387846] (19/66) Accurately ripped
10 [112e0415] (19/66) Accurately ripped
Offsetted by 655:
01 [1f77436e] (00/66) No match (V2 was not tested)
02 [7d40d616] (11/66) Accurately ripped
03 [1368b78d] (10/65) Accurately ripped
04 [f06b0a55] (11/66) Accurately ripped
05 [ee27a91b] (11/66) Accurately ripped
06 [1ac54bf4] (11/66) Accurately ripped
07 [ae1b3d16] (11/66) Accurately ripped
08 [ec287b5f] (11/66) Accurately ripped
09 [f9952825] (11/66) Accurately ripped
10 [c409d612] (11/66) Accurately ripped

Track Peak [ CRC32 ] [W/O NULL] [ LOG ]
– 99,8 [F0088243] [24D81E4E] CRC32
01 99,8 [98B8463C] [A6AD82D7]
02 99,8 [311BBCC6] [6170437C]
03 99,8 [2E167C74] [86F8675B]
04 99,8 [662A7B52] [E96C5056]
05 99,8 [849737F0] [6A361293]
06 99,8 [F3C2FBB5] [59CD2546]
07 99,8 [9F804FC8] [A70446D6]
08 99,8 [3A389A9F] [669D4406]
09 99,8 [22FBA267] [9CE0DD16]
10 99,8 [B2688280] [F464C462]

* * * * *

Overkill - Historikill 1995-2007 (2015) [14CD Box Set]

CD08-09: Overkill - Hello From The Gutter (2002)
EAC | Flac(Image) + Cue + Log & MP3 CBR 320Kbps
Nuclear Blast, NB 3531-0 | ~ 784 or 263 Mb | Scans Included
Thrash Metal

Despite releasing albums steadily since 1985, Overkill has never been the subject of a true best-of collection, in which all of their best known studio tracks are neatly compiled. And while the 2002 import double-disc set Hello from the Gutter shows great promise, it ultimately falls short, since quite a few of Overkill's best tracks are included here as live versions. It's not to say that they're not worth hearing, just that when you plunk down the ducats for a compilation, you're expecting the best known renditions to be included. Still, as of the time of this album's release, it is the closest thing to an Overkill compilation out there, as such thrash metal favorites as the title track, "Elimination," "Overkill," and "Fuck You" are all included. Hello from the Gutter will have to do until the chaps at all of Overkill's labels past and present put on their thinking caps and compile a true career spanning set.

by Greg Prato, AMG
Tracklist CD1:

01. Hello From The Gutter (Live) (2:38)
02. Necroshine (6:04)
03. God-Like (4:14)
04. Powersurge (Live) (4:10)
05. Never Say Die (3:27)
06. Coma (Live) (4:00)
07. The Rip N'Tear (4:20)
08. Battle (4:34)
09. Electro Violence (Live) (3:26)
10. Thunderhead (5:42)
11. Overkill (3:30)
12. Fuck You (2:18)

Exact Audio Copy V1.1 from 23. June 2015

EAC extraction logfile from 25. October 2015, 16:20

Overkill / Hello From The Gutter (Disc 1)

Used drive : PIONEER DVD-RW DVR-215 Adapter: 1 ID: 1

Read mode : Secure
Utilize accurate stream : Yes
Defeat audio cache : Yes
Make use of C2 pointers : No

Read offset correction : 48
Overread into Lead-In and Lead-Out : No
Fill up missing offset samples with silence : Yes
Delete leading and trailing silent blocks : No
Null samples used in CRC calculations : Yes
Used interface : Native Win32 interface for Win NT & 2000

Used output format : User Defined Encoder
Selected bitrate : 1024 kBit/s
Quality : High
Add ID3 tag : No
Command line compressor : C:\Program Files (x86)\Exact Audio Copy\Flac\flac.exe
Additional command line options : -V -8 -T "Date=%year%" -T "Genre=%genre%" %source%


TOC of the extracted CD

Track | Start | Length | Start sector | End sector
––––––––––––––––––––––––––––-
1 | 0:00.00 | 2:37.57 | 0 | 11831
2 | 2:37.57 | 6:04.05 | 11832 | 39136
3 | 8:41.62 | 4:14.20 | 39137 | 58206
4 | 12:56.07 | 4:09.43 | 58207 | 76924
5 | 17:05.50 | 3:27.17 | 76925 | 92466
6 | 20:32.67 | 3:59.45 | 92467 | 110436
7 | 24:32.37 | 4:20.08 | 110437 | 129944
8 | 28:52.45 | 4:33.52 | 129945 | 150471
9 | 33:26.22 | 3:25.43 | 150472 | 165889
10 | 36:51.65 | 5:41.55 | 165890 | 191519
11 | 42:33.45 | 3:30.25 | 191520 | 207294
12 | 46:03.70 | 2:17.50 | 207295 | 217619


Range status and errors

Selected range

Filename F:\metallihead\Overkill - Historikill (1996-2007)\Overkill - Hello From The Gutter (Disc 1).wav

Peak level 99.9 %
Extraction speed 6.8 X
Range quality 100.0 %
Test CRC AEED2625
Copy CRC AEED2625
Copy OK

No errors occurred


AccurateRip summary

Track 1 cannot be verified as accurate (confidence 5) [80EDE626], AccurateRip returned [B1B6CE28] (AR v2)
Track 2 cannot be verified as accurate (confidence 5) [5EF5B356], AccurateRip returned [0D6D2EF6] (AR v2)
Track 3 cannot be verified as accurate (confidence 5) [0A4B7CBC], AccurateRip returned [4D5E089B] (AR v2)
Track 4 cannot be verified as accurate (confidence 5) [DB5CE61C], AccurateRip returned [FC2ED0BC] (AR v2)
Track 5 cannot be verified as accurate (confidence 5) [E1A14D72], AccurateRip returned [5DB6E50A] (AR v2)
Track 6 cannot be verified as accurate (confidence 5) [8BBBA12F], AccurateRip returned [CC9FF866] (AR v2)
Track 7 cannot be verified as accurate (confidence 5) [93F14C7E], AccurateRip returned [AEB4B492] (AR v2)
Track 8 cannot be verified as accurate (confidence 5) [222F4F52], AccurateRip returned [D93EFB7C] (AR v2)
Track 9 cannot be verified as accurate (confidence 5) [2FDF87E5], AccurateRip returned [C54404D3] (AR v2)
Track 10 cannot be verified as accurate (confidence 5) [67D218DA], AccurateRip returned [BFF9A340] (AR v2)
Track 11 cannot be verified as accurate (confidence 5) [A8DEE36A], AccurateRip returned [7BF9AD51] (AR v2)
Track 12 cannot be verified as accurate (confidence 5) [A6614DCF], AccurateRip returned [1E5D75B2] (AR v2)

No tracks could be verified as accurate
You may have a different pressing from the one(s) in the database

End of status report

–– CUETools DB Plugin V2.1.6

[CTDB TOCID: aPgry4JGTTtCJIryrcdenC3hNr0-] found
Submit result: already submitted
Track | CTDB Status
1 | (2/6) Accurately ripped, or (4/6) differs in 3 samples @00:00:63
2 | (6/6) Accurately ripped
3 | (6/6) Accurately ripped
4 | (6/6) Accurately ripped
5 | (6/6) Accurately ripped
6 | (6/6) Accurately ripped
7 | (6/6) Accurately ripped
8 | (6/6) Accurately ripped
9 | (6/6) Accurately ripped
10 | (6/6) Accurately ripped
11 | (6/6) Accurately ripped
12 | (6/6) Accurately ripped
If you are sure that your rip contains errors, you can use CUETools to repair it.


==== Log checksum F708DAF4D4CA3E19548577D3B4B15BF027D3019AB5CE0C37C8DE316BF7C4B270 ====

[CUETools log; Date: 27.10.2015 0:47:16; Version: 2.1.4]
[CTDB TOCID: aPgry4JGTTtCJIryrcdenC3hNr0-] found.
Track | CTDB Status
1 | (2/6) Accurately ripped, or (4/6) differs in 3 samples @00:00:63
2 | (6/6) Accurately ripped
3 | (6/6) Accurately ripped
4 | (6/6) Accurately ripped
5 | (6/6) Accurately ripped
6 | (6/6) Accurately ripped
7 | (6/6) Accurately ripped
8 | (6/6) Accurately ripped
9 | (6/6) Accurately ripped
10 | (6/6) Accurately ripped
11 | (6/6) Accurately ripped
12 | (6/6) Accurately ripped
[AccurateRip ID: 001626e3-00cef232-9b0b550c] found.
Track [ CRC | V2 ] Status
01 [4bbc2eea|80ede626] (0+0/9) No match
02 [18f915b2|5ef5b356] (0+0/9) No match
03 [85c87e80|0a4b7cbc] (0+0/9) No match
04 [23d5c09c|db5ce61c] (0+0/9) No match
05 [438c547f|e1a14d72] (0+0/9) No match
06 [800a1af6|8bbba12f] (0+0/9) No match
07 [04efc49c|93f14c7e] (0+0/9) No match
08 [7a255d27|222f4f52] (0+0/9) No match
09 [c2785196|2fdf87e5] (0+0/9) No match
10 [f3d2ef4f|67d218da] (0+0/9) No match
11 [ab75ad41|a8dee36a] (0+0/9) No match
12 [5d8fadf5|a6614dcf] (0+0/9) No match
Offsetted by 655:
01 [d2a20e26] (0/9) No match (V2 was not tested)
02 [fd3c5dfd] (4/9) Accurately ripped
03 [a04dce2e] (4/9) Accurately ripped
04 [1a7ac307] (4/9) Accurately ripped
05 [70eeeff3] (4/9) Accurately ripped
06 [8e6ececc] (4/9) Accurately ripped
07 [ff0b28d1] (4/9) Accurately ripped
08 [1833008b] (4/9) Accurately ripped
09 [0612be5c] (4/9) Accurately ripped
10 [7144c995] (4/9) Accurately ripped
11 [3625d335] (4/9) Accurately ripped
12 [4c154962] (4/9) Accurately ripped

Track Peak [ CRC32 ] [W/O NULL] [ LOG ]
– 99,9 [AEED2625] [8F491EC8] CRC32
01 69,9 [71FD4EF8] [F3566D42]
02 69,1 [B0DFECFF] [4D5FC97C]
03 71,6 [1360731E] [B188C079]
04 70,7 [65807C89] [35BC71D7]
05 74,1 [EC27250F] [CE3198E7]
06 69,1 [8D1914E9] [D75D7E24]
07 61,6 [5108392F] [52FDCE5C]
08 55,5 [7ACDA2FC] [E827A3D4]
09 99,9 [CF411AF2] [7C30E969]
10 51,2 [41E5522B] [AE0C2333]
11 97,7 [A0381A9E] [01A422AD]
12 94,4 [B9995DCC] [64B0AC61]

Tracklist CD2:

01. Rotten To The Core (5:02)
02. Bleed Me (4:33)
03. Long Time Dyin' (4:56)
04. Fatal If Swallowed (6:22)
05. Elimination (Live) (4:41)
06. Black Line (4:46)
07. Overkill (4:17)
08. World Of Hurt (Live) (4:56)
09. Hammerhead (4:04)
10. Skullcrusher (Live) (6:25)
11. Kill At Command (4:51)
12. Bastard Nation (Live) (5:32)

Exact Audio Copy V1.1 from 23. June 2015

EAC extraction logfile from 25. October 2015, 16:56

Overkill / Hello From The Gutter (Disc 2)

Used drive : PIONEER DVD-RW DVR-215 Adapter: 1 ID: 1

Read mode : Secure
Utilize accurate stream : Yes
Defeat audio cache : Yes
Make use of C2 pointers : No

Read offset correction : 48
Overread into Lead-In and Lead-Out : No
Fill up missing offset samples with silence : Yes
Delete leading and trailing silent blocks : No
Null samples used in CRC calculations : Yes
Used interface : Native Win32 interface for Win NT & 2000

Used output format : User Defined Encoder
Selected bitrate : 1024 kBit/s
Quality : High
Add ID3 tag : No
Command line compressor : C:\Program Files (x86)\Exact Audio Copy\Flac\flac.exe
Additional command line options : -V -8 -T "Date=%year%" -T "Genre=%genre%" %source%


TOC of the extracted CD

Track | Start | Length | Start sector | End sector
––––––––––––––––––––––––––––-
1 | 0:00.00 | 5:02.10 | 0 | 22659
2 | 5:02.10 | 4:32.55 | 22660 | 43114
3 | 9:34.65 | 4:56.37 | 43115 | 65351
4 | 14:31.27 | 6:21.70 | 65352 | 93996
5 | 20:53.22 | 4:40.50 | 93997 | 115046
6 | 25:33.72 | 4:46.15 | 115047 | 136511
7 | 30:20.12 | 4:17.00 | 136512 | 155786
8 | 34:37.12 | 4:56.33 | 155787 | 178019
9 | 39:33.45 | 4:04.02 | 178020 | 196321
10 | 43:37.47 | 6:25.15 | 196322 | 225211
11 | 50:02.62 | 4:50.60 | 225212 | 247021
12 | 54:53.47 | 5:31.63 | 247022 | 271909


Range status and errors

Selected range

Filename F:\metallihead\Overkill - Historikill (1996-2007)\Overkill - Hello From The Gutter (Disc 2).wav

Peak level 99.9 %
Extraction speed 7.1 X
Range quality 99.9 %
Test CRC 32EC238A
Copy CRC 32EC238A
Copy OK

No errors occurred


AccurateRip summary

Track 1 cannot be verified as accurate (confidence 5) [6BF85250], AccurateRip returned [2E345C9D] (AR v2)
Track 2 cannot be verified as accurate (confidence 5) [08122719], AccurateRip returned [85A4883F] (AR v2)
Track 3 cannot be verified as accurate (confidence 5) [97B4E37E], AccurateRip returned [2721D0DB] (AR v2)
Track 4 cannot be verified as accurate (confidence 5) [23FA9152], AccurateRip returned [D70F7AFF] (AR v2)
Track 5 cannot be verified as accurate (confidence 5) [41CF2599], AccurateRip returned [8C4C705D] (AR v2)
Track 6 cannot be verified as accurate (confidence 5) [7EAD15FA], AccurateRip returned [8E5BC011] (AR v2)
Track 7 cannot be verified as accurate (confidence 5) [52CE45B2], AccurateRip returned [823862E3] (AR v2)
Track 8 cannot be verified as accurate (confidence 5) [BA8D3969], AccurateRip returned [22AAF1FB] (AR v2)
Track 9 cannot be verified as accurate (confidence 5) [FCBD0108], AccurateRip returned [DBE72E24] (AR v2)
Track 10 cannot be verified as accurate (confidence 5) [A1028428], AccurateRip returned [C28B3471] (AR v2)
Track 11 cannot be verified as accurate (confidence 5) [9CB72433], AccurateRip returned [7A2B841E] (AR v2)
Track 12 cannot be verified as accurate (confidence 5) [EAF225CB], AccurateRip returned [78167504] (AR v2)

No tracks could be verified as accurate
You may have a different pressing from the one(s) in the database

End of status report

–– CUETools DB Plugin V2.1.6

[CTDB TOCID: VYfYjO6WpgB0gdRVhPUg1rVoT3Y-] found
Submit result: already submitted
Track | CTDB Status
1 | (2/6) Accurately ripped, or (4/6) differs in 11 samples @00:14:15,00:54:06,01:01:45
2 | (6/6) Accurately ripped
3 | (6/6) Accurately ripped
4 | (6/6) Accurately ripped
5 | (6/6) Accurately ripped
6 | (6/6) Accurately ripped
7 | (6/6) Accurately ripped
8 | (2/6) Accurately ripped, or (4/6) differs in 3 samples @04:54:12
9 | (2/6) Accurately ripped, or (4/6) differs in 158 samples @00:01:50-00:01:51,00:02:28,00:04:69-00:04:70,00:07:36-00:07:37,00:08:48-00:08:49,00:23:06
10 | (6/6) Accurately ripped
11 | (6/6) Accurately ripped
12 | (6/6) Accurately ripped
If you are sure that your rip contains errors, you can use CUETools to repair it.


==== Log checksum C7CE6C71B9613E3508D11129D4325D7DBECA0296851BC5D1F174FEF38FC4A2B4 ====

[CUETools log; Date: 27.10.2015 0:49:33; Version: 2.1.4]
[CTDB TOCID: VYfYjO6WpgB0gdRVhPUg1rVoT3Y-] found.
Track | CTDB Status
1 | (2/6) Accurately ripped, or (4/6) differs in 11 samples @00:14:15,00:54:06,01:01:45
2 | (6/6) Accurately ripped
3 | (6/6) Accurately ripped
4 | (6/6) Accurately ripped
5 | (6/6) Accurately ripped
6 | (6/6) Accurately ripped
7 | (6/6) Accurately ripped
8 | (2/6) Accurately ripped, or (4/6) differs in 3 samples @04:54:12
9 | (2/6) Accurately ripped, or (4/6) differs in 158 samples @00:01:50-00:01:51,00:02:28,00:04:69-00:04:70,00:07:36-00:07:37,00:08:48-00:08:49,00:23:06
10 | (6/6) Accurately ripped
11 | (6/6) Accurately ripped
12 | (6/6) Accurately ripped
[AccurateRip ID: 001ab7ac-00f9544f-a40e290c] found.
Track [ CRC | V2 ] Status
01 [0d8dbaf6|6bf85250] (0+0/9) No match
02 [4397ed4e|08122719] (0+0/9) No match
03 [6f8cbf00|97b4e37e] (0+0/9) No match
04 [cc3d0989|23fa9152] (0+0/9) No match
05 [6d1a30ed|41cf2599] (0+0/9) No match
06 [030a85c4|7ead15fa] (0+0/9) No match
07 [f7745043|52ce45b2] (0+0/9) No match
08 [2c230312|ba8d3969] (0+0/9) No match
09 [f0cfaaf3|fcbd0108] (0+0/9) No match
10 [acd356de|a1028428] (0+0/9) No match
11 [8423ba56|9cb72433] (0+0/9) No match
12 [7e25604b|eaf225cb] (0+0/9) No match
Offsetted by 655:
01 [9cde9ff8] (0/9) No match (V2 was not tested)
02 [aa54c516] (4/9) Accurately ripped
03 [fda303e6] (4/9) Accurately ripped
04 [c9b321b8] (4/9) Accurately ripped
05 [a8e8be4b] (4/9) Accurately ripped
06 [06bf4d8f] (4/9) Accurately ripped
07 [00aadc1b] (4/9) Accurately ripped
08 [a0633c75] (0/9) No match (V2 was not tested)
09 [97d5c075] (0/9) No match (V2 was not tested)
10 [19e202c0] (4/9) Accurately ripped
11 [5d6c605f] (4/9) Accurately ripped
12 [2a31dd85] (4/9) Accurately ripped

Track Peak [ CRC32 ] [W/O NULL] [ LOG ]
– 99,9 [32EC238A] [466E4745] CRC32
01 99,9 [F265FF7A] [557D0FFE]
02 56,2 [9B8F5170] [A54528EC]
03 79,4 [DA6CDA75] [6AAF5B82]
04 98,8 [30754287] [1BE078E0]
05 74,9 [B46ADCF3] [A2C65A5F]
06 74,9 [8054B316] [65093F7B]
07 74,2 [E202338B] [B52326EA]
08 77,6 [44328451] [E04EE10E]
09 98,8 [31FC9F89] [F869E952]
10 83,1 [0916F2F7] [D6C88D61]
11 93,2 [0DD44DB5] [87640B04]
12 75,8 [7E0C96BD] [173EAF69]

* * * * *

Overkill - Historikill 1995-2007 (2015) [14CD Box Set]

CD10: Overkill - Wrecking Everything - Live (2002)
EAC | Flac(Image) + Cue + Log & MP3 CBR 320Kbps
Nuclear Blast, NB 3535-0 | ~ 526 or 167 Mb | Scans(300dpi, jpg) -> 33 Mb
Thrash Metal

Lineups change, trends come and go, lead singer Bobby "Blitz" Ellsworth has surgery for skin cancer, and, in an unrelated incident, falls flat on-stage in Germany (a minor stroke; full recovery expected), and Overkill still marches on. So when a long-standing, working-class band has – count 'em – 11 studio records, a classic EP, a covers album, and a double-live opus under their studded belt, metal aficionados have to at least give Wrecking Everything – Live a couple of listens and nod their heads in respect to such a wily, stubborn outfit. Longtime fans will no doubt appreciate the fact that none of the songs utilized for 1995's Wrecking Your Neck are repeated here, Overkill having arguably their most prolific period (four rock-solid studio cinderblocks) since then. But Wrecking Everything – Live still harkens back to 1985 with "Overkill" and includes choice nuggets from eight albums in the catalog, standouts being muscular riff monster "Long Time Dyin'," speed demon "Shred," and nefarious tempo-shifter "Evil Never Dies"; only the long-winded pseudo-ballad "The Years of Decay" sounds extraneous and dated. Otherwise, it's balls-out thrash from start to finish, recorded in the band's New Jersey stomping grounds and enhanced by a gutsy, clean, and powerful mix that makes Wrecking Your Neck sound thin and tinny in comparison. And one can't ignore Ellsworth's ever-strong vocal contributions – gotta love that brutal, three-packs-a-day rasp – and undeniable energy; fans who have witnessed Overkill live can attest to the wiry singer's sweaty, non-stop, Iggy Pop-like stage presence, something impossible to catch strictly on audio, but here at least in spirit. Shrugging off Wrecking Everything – Live as inessential (what? Yet another Overkill disc?) is tempting, but this punchy and aggressive live document makes the ever-tenacious outfit sound as if they have something to prove – which few outfits with 18 years in the biz so convincingly possess.

by John Serba, AMG
Tracklist:

01. Necroshine (5:56)
02. Thunderhead (6:22)
03. Evil Never Dies (4:42)
04. Deny The Cross (5:11)
05. I Hate (3:54)
06. Shred (3:56)
07. Bleed Me (4:29)
08. Long Time Dyin' (7:24)
09. It Lives (4:26)
10. Battle (5:29)
11. The Years Of Decay (9:52)
12. In Union We Stand (5:10)
13. Overkill (4:02)

Exact Audio Copy V1.1 from 23. June 2015

EAC extraction logfile from 25. October 2015, 18:01

Overkill / Wrecking Everything - Live (Nuclear Blast NB 3535-0)

Used drive : PIONEER DVD-RW DVR-215 Adapter: 1 ID: 1

Read mode : Secure
Utilize accurate stream : Yes
Defeat audio cache : Yes
Make use of C2 pointers : No

Read offset correction : 48
Overread into Lead-In and Lead-Out : No
Fill up missing offset samples with silence : Yes
Delete leading and trailing silent blocks : No
Null samples used in CRC calculations : Yes
Used interface : Native Win32 interface for Win NT & 2000

Used output format : User Defined Encoder
Selected bitrate : 1024 kBit/s
Quality : High
Add ID3 tag : No
Command line compressor : C:\Program Files (x86)\Exact Audio Copy\Flac\flac.exe
Additional command line options : -V -8 -T "Date=%year%" -T "Genre=%genre%" %source%


TOC of the extracted CD

Track | Start | Length | Start sector | End sector
––––––––––––––––––––––––––––-
1 | 0:00.00 | 5:56.07 | 0 | 26706
2 | 5:56.07 | 6:22.02 | 26707 | 55358
3 | 12:18.09 | 4:42.22 | 55359 | 76530
4 | 17:00.31 | 5:11.33 | 76531 | 99888
5 | 22:11.64 | 3:54.22 | 99889 | 117460
6 | 26:06.11 | 3:55.60 | 117461 | 135145
7 | 30:01.71 | 4:28.63 | 135146 | 155308
8 | 34:30.59 | 7:23.65 | 155309 | 188598
9 | 41:54.49 | 4:26.02 | 188599 | 208550
10 | 46:20.51 | 5:28.40 | 208551 | 233190
11 | 51:49.16 | 9:51.65 | 233191 | 277580
12 | 61:41.06 | 5:09.53 | 277581 | 300808
13 | 66:50.59 | 4:02.02 | 300809 | 318960


Range status and errors

Selected range

Filename F:\metallihead\Overkill - Historikill (1996-2007)\Overkill - Wrecking Everything - Live (Nuclear Blast NB 3535-0).wav

Peak level 100.0 %
Extraction speed 7.8 X
Range quality 100.0 %
Test CRC 8F525EA1
Copy CRC 8F525EA1
Copy OK

No errors occurred


AccurateRip summary

Track 1 not present in database
Track 2 not present in database
Track 3 not present in database
Track 4 not present in database
Track 5 not present in database
Track 6 not present in database
Track 7 not present in database
Track 8 not present in database
Track 9 not present in database
Track 10 not present in database
Track 11 not present in database
Track 12 not present in database
Track 13 not present in database

None of the tracks are present in the AccurateRip database

End of status report

–– CUETools DB Plugin V2.1.6

[CTDB TOCID: mY53AAaTRrQdkLMotL6QH_KWz88-] found
Submit result: mY53AAaTRrQdkLMotL6QH_KWz88- has been confirmed
Track | CTDB Status
1 | (1/1) Accurately ripped
2 | (1/1) Accurately ripped
3 | (1/1) Accurately ripped
4 | (1/1) Accurately ripped
5 | (1/1) Accurately ripped
6 | (1/1) Accurately ripped
7 | (1/1) Accurately ripped
8 | (1/1) Accurately ripped
9 | (1/1) Accurately ripped
10 | (1/1) Accurately ripped
11 | (1/1) Accurately ripped
12 | (1/1) Accurately ripped
13 | (1/1) Accurately ripped


==== Log checksum 8E4D5F4096C28439D6F919C79D2F04CBB95862689A92A0D275F7AD6FDA20BD3A ====

[CUETools log; Date: 27.10.2015 0:52:07; Version: 2.1.4]
[CTDB TOCID: mY53AAaTRrQdkLMotL6QH_KWz88-] found.
Track | CTDB Status
1 | (2/2) Accurately ripped
2 | (2/2) Accurately ripped
3 | (2/2) Accurately ripped
4 | (2/2) Accurately ripped
5 | (2/2) Accurately ripped
6 | (2/2) Accurately ripped
7 | (2/2) Accurately ripped
8 | (2/2) Accurately ripped
9 | (2/2) Accurately ripped
10 | (2/2) Accurately ripped
11 | (2/2) Accurately ripped
12 | (2/2) Accurately ripped
13 | (2/2) Accurately ripped
[AccurateRip ID: 00217aae-014f4912-92109c0d] disk not present in database.

Track Peak [ CRC32 ] [W/O NULL] [ LOG ]
– 99,9 [8F525EA1] [1EB56639] CRC32
01 99,9 [3B27D2D4] [633E5E64]
02 99,9 [02EB0F11] [BDB9F192]
03 99,9 [86584C22] [C2C127D5]
04 99,9 [5F06A4CF] [34DE8B0B]
05 99,9 [78BBB901] [CDF0F954]
06 99,9 [60A4EA73] [E31A62EF]
07 99,9 [18EF15E8] [AB71633C]
08 99,9 [74C46DBD] [18B15D78]
09 99,9 [CC9EDB3C] [0893ADE3]
10 99,9 [0FDDE0F8] [646F0084]
11 99,9 [B809CC97] [072AB947]
12 99,9 [9CE15AA2] [1429428A]
13 99,9 [348DF603] [CECD918C]

* * * * *

Overkill - Historikill 1995-2007 (2015) [14CD Box Set]

CD11: Overkill - Killbox 13 (2003)
EAC | Flac(Image) + Cue + Log & MP3 CBR 320Kbps
Nuclear Blast, NB 3533-0 | ~ 385 or 119 Mb | Scans(300dpi, jpg) -> 33 Mb
Thrash Metal

The New York/New Jersey wrecking crew known as Overkill continues to squeeze one tasty sausage out of the machine after the other, no frills, no baloney, no screwing around, no denying it. Kill Box 13 finds Overkill still stubbornly refusing to shed its thrash roots – and refusing to write a throwaway tune, for that matter. The combination of the band's stellar riffs and rock-solid arrangements with Colin Richardson's thick, beefy production is a big, juicy steak waiting to be devoured by any self-respecting carnivore metalhead. Singer Bobby "Blitz" Ellsworth (That mild stroke he suffered on stage in 2002? Didn't stop him) bleats as if he's backed into a corner, spittle spraying as he screams and yowls through particularly bitter opening potboilers "Devil by the Tail" and "Damned," hair, bile, and blood flying as he wields a torch to stave off the rats plaguing his soul. More bleak melody is dished out on bruisers "No Lights" and "The One," both memorable cuts thanks to gangland-shout choruses and the stellar guitar work of Dave Linsk and Derek Tailer (anyone else notice founding members Ellsworth and bassist D.D. Verni's innate ability to consistently recruit top-notch six-stringers?). As usual, the band's balance of in-the-pocket groove-consciousness ("Crystal Clear") and technical musicianship – the tempo changes and guitar solos are present, but not indulgent – give Overkill the undeniable blue-collar street cred that's smart and steely, and deflects any criticism with yet another backcracking riff off the top ropes. Granted, the second half of Kill Box 13 isn't as immediate or effective as the first five cuts (except maybe for closing ripper "I Rise"), but using the adjective "inconsistent" when describing anything the band has ever put its stamp on is wildly off-base, and anyone disagreeing with them is subject to a few kidney shots. Overkill's overall message here? Get the hell out of the way or get squished, no elaboration necessary.

by John Serba, AMG
Tracklist:

01. Devil By The Tail (5:25)
02. Damned (4:14)
03. No Lights (5:53)
04. The One (4:59)
05. Crystal Clear (5:04)
06. The Sound Of Dying (4:57)
07. Until I Die (5:20)
08. Struck Down (4:42)
09. Unholy (4:40)
10. I Rise (5:09)

Exact Audio Copy V1.1 from 23. June 2015

EAC extraction logfile from 25. October 2015, 12:21

Overkill / Killbox 13 (Nuclear Blast NB 3533-0)

Used drive : PIONEER DVD-RW DVR-215 Adapter: 1 ID: 1

Read mode : Secure
Utilize accurate stream : Yes
Defeat audio cache : Yes
Make use of C2 pointers : No

Read offset correction : 48
Overread into Lead-In and Lead-Out : No
Fill up missing offset samples with silence : Yes
Delete leading and trailing silent blocks : No
Null samples used in CRC calculations : Yes
Used interface : Native Win32 interface for Win NT & 2000

Used output format : User Defined Encoder
Selected bitrate : 1024 kBit/s
Quality : High
Add ID3 tag : No
Command line compressor : C:\Program Files (x86)\Exact Audio Copy\Flac\flac.exe
Additional command line options : -V -8 -T "Date=%year%" -T "Genre=%genre%" %source%


TOC of the extracted CD

Track | Start | Length | Start sector | End sector
––––––––––––––––––––––––––––-
1 | 0:00.00 | 5:24.70 | 0 | 24369
2 | 5:24.70 | 4:13.50 | 24370 | 43394
3 | 9:38.45 | 5:52.65 | 43395 | 69859
4 | 15:31.35 | 4:58.52 | 69860 | 92261
5 | 20:30.12 | 5:03.53 | 92262 | 115039
6 | 25:33.65 | 4:56.65 | 115040 | 137304
7 | 30:30.55 | 5:20.15 | 137305 | 161319
8 | 35:50.70 | 4:42.20 | 161320 | 182489
9 | 40:33.15 | 4:40.15 | 182490 | 203504
10 | 45:13.30 | 5:08.70 | 203505 | 226674


Range status and errors

Selected range

Filename F:\metallihead\Overkill - Historikill (1996-2007)\Overkill - Killbox 13 (Nuclear Blast NB 3533-0).wav

Peak level 100.0 %
Extraction speed 6.8 X
Range quality 100.0 %
Test CRC 3C5586EE
Copy CRC 3C5586EE
Copy OK

No errors occurred


AccurateRip summary

Track 1 cannot be verified as accurate (confidence 28) [73C9389A], AccurateRip returned [148C849C] (AR v2)
Track 2 cannot be verified as accurate (confidence 28) [C50567DA], AccurateRip returned [3C912306] (AR v2)
Track 3 cannot be verified as accurate (confidence 28) [885C7A63], AccurateRip returned [FD409C98] (AR v2)
Track 4 cannot be verified as accurate (confidence 28) [36A9D19D], AccurateRip returned [A76343FA] (AR v2)
Track 5 cannot be verified as accurate (confidence 28) [E54DF29A], AccurateRip returned [A12CAE46] (AR v2)
Track 6 cannot be verified as accurate (confidence 28) [C062E070], AccurateRip returned [5C648921] (AR v2)
Track 7 cannot be verified as accurate (confidence 28) [78AE36AC], AccurateRip returned [10C8E883] (AR v2)
Track 8 cannot be verified as accurate (confidence 28) [B122CE22], AccurateRip returned [D9C303CD] (AR v2)
Track 9 cannot be verified as accurate (confidence 28) [37C1813E], AccurateRip returned [3E542314] (AR v2)
Track 10 cannot be verified as accurate (confidence 28) [ED75D7BA], AccurateRip returned [A94CC13F] (AR v2)

No tracks could be verified as accurate
You may have a different pressing from the one(s) in the database

End of status report

–– CUETools DB Plugin V2.1.6

[CTDB TOCID: zkb3RcLNcWMH1Qrfkni4O9yz0DE-] found
Submit result: zkb3RcLNcWMH1Qrfkni4O9yz0DE- has been confirmed
Track | CTDB Status
1 | ( 1/27) Accurately ripped, or (26/27) differs in 19 samples @00:00:32,00:01:00,00:15:14,01:04:14,02:32:65
2 | (27/27) Accurately ripped
3 | (27/27) Accurately ripped
4 | (27/27) Accurately ripped
5 | (27/27) Accurately ripped
6 | (27/27) Accurately ripped
7 | (27/27) Accurately ripped
8 | (27/27) Accurately ripped
9 | (27/27) Accurately ripped
10 | (27/27) Accurately ripped
If you are sure that your rip contains errors, you can use CUETools to repair it.


==== Log checksum 13490FA440453B2AA394B60D9791AF700EEC4BF1C9B958FC162B60D93909146F ====

[CUETools log; Date: 27.10.2015 0:55:09; Version: 2.1.4]
[CTDB TOCID: zkb3RcLNcWMH1Qrfkni4O9yz0DE-] found.
Track | CTDB Status
1 | ( 2/28) Accurately ripped, or (26/28) differs in 19 samples @00:00:32,00:01:00,00:15:14,01:04:14,02:32:65
2 | (28/28) Accurately ripped
3 | (28/28) Accurately ripped
4 | (28/28) Accurately ripped
5 | (28/28) Accurately ripped
6 | (28/28) Accurately ripped
7 | (28/28) Accurately ripped
8 | (28/28) Accurately ripped
9 | (28/28) Accurately ripped
10 | (28/28) Accurately ripped
[AccurateRip ID: 00132b1e-00991570-740bce0a] found.
Track [ CRC | V2 ] Status
01 [0c100703|73c9389a] (00+00/50) No match
02 [a32cffb3|c50567da] (00+00/50) No match
03 [60e119c4|885c7a63] (00+00/50) No match
04 [1dfdea00|36a9d19d] (00+00/50) No match
05 [016ae7eb|e54df29a] (00+00/50) No match
06 [677d727d|c062e070] (00+00/50) No match
07 [022bf34e|78ae36ac] (00+00/50) No match
08 [54002e63|b122ce22] (00+00/50) No match
09 [e2dcc706|37c1813e] (00+00/50) No match
10 [67fa8d66|ed75d7ba] (00+00/50) No match
Offsetted by -673:
01 [be3fa86e] (00/50) No match (V2 was not tested)
02 [8fe1dc88] (00/50) No match (V2 was not tested)
03 [25a4e86c] (00/50) No match (V2 was not tested)
04 [fcb122da] (00/50) No match (V2 was not tested)
05 [dae44bb0] (00/50) No match (V2 was not tested)
06 [ddf147ef] (00/50) No match (V2 was not tested)
07 [837f6273] (00/50) No match (V2 was not tested)
08 [bdbec4e6] (00/50) No match (V2 was not tested)
09 [047b72b3] (00/50) No match (V2 was not tested)
10 [3ec2f9ef] (00/50) No match (V2 was not tested)
Offsetted by 655:
01 [0a1e74b4] (00/50) No match (V2 was not tested)
02 [3c912306] (28/50) Accurately ripped
03 [fd409c98] (28/50) Accurately ripped
04 [a76343fa] (28/50) Accurately ripped
05 [a12cae46] (28/50) Accurately ripped
06 [5c648921] (28/50) Accurately ripped
07 [10c8e883] (28/50) Accurately ripped
08 [d9c303cd] (28/50) Accurately ripped
09 [3e542314] (28/50) Accurately ripped
10 [a94cc13f] (28/50) Accurately ripped

Track Peak [ CRC32 ] [W/O NULL] [ LOG ]
– 100,0 [3C5586EE] [94C1BD21] CRC32
01 100,0 [6F6F977A] [DCED510E]
02 100,0 [4474EDFC] [F883ACF1]
03 100,0 [DFA24B41] [8617B429]
04 100,0 [CA98D645] [9BD39434]
05 100,0 [CE92A14A] [50A01B24]
06 100,0 [E59B4F7E] [B81B6485]
07 100,0 [0C9D72DA] [61990032]
08 100,0 [D49B069F] [115DDCA3]
09 100,0 [E33E3762] [817BCCDB]
10 100,0 [E9E658B2] [B734B982]

* * * * *

Overkill - Historikill 1995-2007 (2015) [14CD Box Set]

CD12: Overkill - RelixIV (2005)
EAC | Flac(Image) + Cue + Log & MP3 CBR 320Kbps
Nuclear Blast, NB 3534-0 | ~ 377 or 119 Mb | Scans(300dpi, jpg) -> 30 Mb
Thrash Metal

The phrase 'You either love 'em or you hate 'em' could be used to describe several rock bands, but it seems custom-made for thrash veterans Overkill. Few bands throughout the history of heavy metal have thrashed as intensely or possessed a singer like Bobby "Blitz" Ellsworth (whose vocals give 'piercing' a whole new meaning). But the band (or more succinctly, mainstays Ellsworth and bassist D.D. Verni) admirably stuck to their guns through it all. Whereas many metal veterans could be spotted donning flannel shirts in the early '90s or trying out their rap skills around the turn of the century, Overkill has turned a blind eye to trends. And while they never infiltrated the mainstream like Anthrax or Megadeth, their perseverance has paid off, as they retain a strong following to this day, and continue to crank out albums, such as 2005's Relixiv. That said, each new Overkill release is not unlike each new AC/DC release – you know exactly what you're going to get. Variety may be at a minimum here, but by now, it's clear that that's how Overkill and their fans like it, as evidenced by such dense n' intense tracks as "Within Your Eyes," the Spinal Tap-like titled "Bats in the Belfry," and the rapid-fire riffs of "A Pound of Flesh." Expectedly, Relixiv won't win over any nu-metallists, but it will definitely please the long-ago converted.

by Greg Prato, AMG
Tracklist:

01. Within Your Eyes (6:06)
02. Love (5:40)
03. Loaded Rack (4:44)
04. Bats In The Belfry (4:48)
05. A Pound Of Flesh (3:38)
06. Keeper (5:13)
07. Wheelz (5:11)
08. The Mark (5:54)
09. Play The Ace (5:35)
10. Old School (3:52)

Exact Audio Copy V1.1 from 23. June 2015

EAC extraction logfile from 24. October 2015, 18:27

Overkill / RelixIV (Nuclear Blast NB 3534-0)

Used drive : PIONEER DVD-RW DVR-215 Adapter: 1 ID: 1

Read mode : Secure
Utilize accurate stream : Yes
Defeat audio cache : Yes
Make use of C2 pointers : No

Read offset correction : 48
Overread into Lead-In and Lead-Out : No
Fill up missing offset samples with silence : Yes
Delete leading and trailing silent blocks : No
Null samples used in CRC calculations : Yes
Used interface : Native Win32 interface for Win NT & 2000

Used output format : User Defined Encoder
Selected bitrate : 1024 kBit/s
Quality : High
Add ID3 tag : No
Command line compressor : C:\Program Files (x86)\Exact Audio Copy\Flac\flac.exe
Additional command line options : -V -8 -T "Date=%year%" -T "Genre=%genre%" %source%


TOC of the extracted CD

Track | Start | Length | Start sector | End sector
––––––––––––––––––––––––––––-
1 | 0:00.00 | 6:06.10 | 0 | 27459
2 | 6:06.10 | 5:40.22 | 27460 | 52981
3 | 11:46.32 | 4:43.60 | 52982 | 74266
4 | 16:30.17 | 4:47.55 | 74267 | 95846
5 | 21:17.72 | 3:37.53 | 95847 | 112174
6 | 24:55.50 | 5:12.47 | 112175 | 135621
7 | 30:08.22 | 5:10.65 | 135622 | 158936
8 | 35:19.12 | 5:54.05 | 158937 | 185491
9 | 41:13.17 | 5:34.73 | 185492 | 210614
10 | 46:48.15 | 3:51.40 | 210615 | 227979


Range status and errors

Selected range

Filename F:\metallihead\Overkill - Historikill (1996-2007)\Overkill - RelixIV (Nuclear Blast NB 3534-0).wav

Peak level 100.0 %
Extraction speed 6.9 X
Range quality 100.0 %
Test CRC 65BC1020
Copy CRC 65BC1020
Copy OK

No errors occurred


AccurateRip summary

Track 1 cannot be verified as accurate (confidence 18) [04615A80], AccurateRip returned [B590CA16] (AR v2)
Track 2 cannot be verified as accurate (confidence 18) [6948B2AF], AccurateRip returned [5E88438B] (AR v2)
Track 3 cannot be verified as accurate (confidence 18) [033F6858], AccurateRip returned [9CBEE274] (AR v2)
Track 4 cannot be verified as accurate (confidence 18) [79773955], AccurateRip returned [2687788E] (AR v2)
Track 5 cannot be verified as accurate (confidence 18) [AE1336A5], AccurateRip returned [62924EDA] (AR v2)
Track 6 cannot be verified as accurate (confidence 18) [CCD1E46C], AccurateRip returned [92B690F3] (AR v2)
Track 7 cannot be verified as accurate (confidence 18) [22B4B0DA], AccurateRip returned [92E1244B] (AR v2)
Track 8 cannot be verified as accurate (confidence 18) [01D57644], AccurateRip returned [0496057A] (AR v2)
Track 9 cannot be verified as accurate (confidence 18) [260C8F64], AccurateRip returned [01686557] (AR v2)
Track 10 cannot be verified as accurate (confidence 18) [57C1802E], AccurateRip returned [212F0952] (AR v2)

No tracks could be verified as accurate
You may have a different pressing from the one(s) in the database

End of status report

–– CUETools DB Plugin V2.1.6

[CTDB TOCID: NJ5awpxrVdtxD9.N8ytK6i2n_pg-] found
Submit result: NJ5awpxrVdtxD9.N8ytK6i2n_pg- has been confirmed
Track | CTDB Status
1 | (19/19) Accurately ripped
2 | (19/19) Accurately ripped
3 | (19/19) Accurately ripped
4 | (19/19) Accurately ripped
5 | (19/19) Accurately ripped
6 | (19/19) Accurately ripped
7 | (19/19) Accurately ripped
8 | (19/19) Accurately ripped
9 | (19/19) Accurately ripped
10 | (19/19) Accurately ripped


==== Log checksum 80ECC7DCFC22F2C460C7E4A78B6C5C3E5D0433A2A346BBE6DD042D239AF4B44B ====

[CUETools log; Date: 27.10.2015 0:57:21; Version: 2.1.4]
[CTDB TOCID: NJ5awpxrVdtxD9.N8ytK6i2n_pg-] found.
Track | CTDB Status
1 | (20/20) Accurately ripped
2 | (20/20) Accurately ripped
3 | (20/20) Accurately ripped
4 | (20/20) Accurately ripped
5 | (20/20) Accurately ripped
6 | (20/20) Accurately ripped
7 | (20/20) Accurately ripped
8 | (20/20) Accurately ripped
9 | (20/20) Accurately ripped
10 | (20/20) Accurately ripped
[AccurateRip ID: 00138d61-009b2484-8b0bdf0a] found.
Track [ CRC | V2 ] Status
01 [8656c847|04615a80] (00+00/56) No match
02 [3597be96|6948b2af] (00+00/56) No match
03 [e20626f7|033f6858] (00+00/56) No match
04 [36289dea|79773955] (00+00/55) No match
05 [35fb821b|ae1336a5] (00+00/55) No match
06 [4546f2ee|ccd1e46c] (00+00/56) No match
07 [14185e3b|22b4b0da] (00+00/56) No match
08 [706f2c56|01d57644] (00+00/56) No match
09 [c55b0051|260c8f64] (00+00/56) No match
10 [5d993eed|57c1802e] (00+00/56) No match
Offsetted by -481:
01 [b590ca16] (18/56) Accurately ripped
02 [5e88438b] (18/56) Accurately ripped
03 [9cbee274] (18/56) Accurately ripped
04 [2687788e] (18/55) Accurately ripped
05 [62924eda] (18/55) Accurately ripped
06 [92b690f3] (18/56) Accurately ripped
07 [92e1244b] (18/56) Accurately ripped
08 [0496057a] (18/56) Accurately ripped
09 [01686557] (18/56) Accurately ripped
10 [212f0952] (18/56) Accurately ripped
Offsetted by 655:
01 [6252ef63] (14/56) Accurately ripped
02 [0a84f429] (14/56) Accurately ripped
03 [b332e25d] (14/56) Accurately ripped
04 [a0c055d7] (13/55) Accurately ripped
05 [9f65959a] (13/55) Accurately ripped
06 [f2ddc3bd] (14/56) Accurately ripped
07 [0147efb5] (14/56) Accurately ripped
08 [3b8069ad] (14/56) Accurately ripped
09 [4711695b] (14/56) Accurately ripped
10 [d6b88322] (14/56) Accurately ripped

Track Peak [ CRC32 ] [W/O NULL] [ LOG ]
– 99,9 [65BC1020] [F59BBFA9] CRC32
01 99,9 [8820131F] [994AE452]
02 99,9 [7F422564] [2423C499]
03 99,9 [F0B3E103] [F70660DB]
04 99,9 [D1CA2A02] [29B491CC]
05 99,9 [3DC48403] [FC6EB5A4]
06 99,9 [36896C0E] [46E3DE51]
07 99,9 [FDB15111] [4A6CC36A]
08 99,9 [9C98A8A5] [F5EABE4F]
09 99,9 [6341CD2B] [0A0D821B]
10 99,9 [B451DA7D] [656B07A0]

* * * * *

Overkill - Historikill 1995-2007 (2015) [14CD Box Set]

CD13: Overkill - Immortalis (2007)
EAC | Flac(Image) + Cue + Log & MP3 CBR 320Kbps
Nuclear Blast, NB 3532-0 | ~ 361 or 116 Mb | Scans(300dpi, jpg) -> 31 Mb
Thrash Metal

Unlike other veteran metal acts whose dedication to the genre peters out as the years rack up, Overkill remain dedicated to continuing on in their original direction, as evidenced by their 15th album overall, 2007's Immortalis. Trends may come and go, but you know that Overkill are always good for supplying some good old-fashioned crunchy thrash metal, and that's something you've got to respect. And all these years later, singer Bobby "Blitz" Ellsworth can still screech with the best of them. For old-school thrash metal, Immortalis is a true exhibition, as evidenced by such hard-hitters as the album-opening "Devils in the Mist" as well as "Shadow of a Doubt" and "Skull and Bones," the latter of which features Lamb of God's Randy Blythe guesting on vocals (who does his best drill instructor impersonation). All these years later, you still know what's in store each time you pick up a new release by Overkill. And that's just the way their fans like it – Immortalis is no different.

by Greg Prato, AMG
Tracklist:

01. Devils In The Mist (4:35)
02. What It Takes (4:29)
03. Skull And Bones (5:55)
04. Shadow Of A Doubt (4:52)
05. Hellish Pride (5:17)
06. Walk Through Fire (4:08)
07. Head On (5:21)
08. Chalie Get Your Gun (4:28)
09. Hell Is (4:41)
10. Overkill V…The Brand (5:37)

Exact Audio Copy V1.1 from 23. June 2015

EAC extraction logfile from 25. October 2015, 18:48

Overkill / Immortalis (Nuclear Blast NB 3532-0)

Used drive : PIONEER DVD-RW DVR-215 Adapter: 1 ID: 1

Read mode : Secure
Utilize accurate stream : Yes
Defeat audio cache : Yes
Make use of C2 pointers : No

Read offset correction : 48
Overread into Lead-In and Lead-Out : No
Fill up missing offset samples with silence : Yes
Delete leading and trailing silent blocks : No
Null samples used in CRC calculations : Yes
Used interface : Native Win32 interface for Win NT & 2000

Used output format : User Defined Encoder
Selected bitrate : 1024 kBit/s
Quality : High
Add ID3 tag : No
Command line compressor : C:\Program Files (x86)\Exact Audio Copy\Flac\flac.exe
Additional command line options : -V -8 -T "Date=%year%" -T "Genre=%genre%" %source%


TOC of the extracted CD

Track | Start | Length | Start sector | End sector
––––––––––––––––––––––––––––-
1 | 0:00.00 | 4:34.66 | 0 | 20615
2 | 4:34.66 | 4:28.63 | 20616 | 40778
3 | 9:03.54 | 5:54.56 | 40779 | 67384
4 | 14:58.35 | 4:51.41 | 67385 | 89250
5 | 19:50.01 | 5:16.48 | 89251 | 112998
6 | 25:06.49 | 4:08.12 | 112999 | 131610
7 | 29:14.61 | 5:21.25 | 131611 | 155710
8 | 34:36.11 | 4:28.15 | 155711 | 175825
9 | 39:04.26 | 4:40.44 | 175826 | 196869
10 | 43:44.70 | 5:36.63 | 196870 | 222132


Range status and errors

Selected range

Filename F:\metallihead\Overkill - Historikill (1996-2007)\Overkill - Immortalis (Nuclear Blast NB 3532-0).wav

Peak level 99.9 %
Extraction speed 6.7 X
Range quality 99.9 %
Test CRC 981B93E2
Copy CRC 981B93E2
Copy OK

No errors occurred


AccurateRip summary

Track 1 cannot be verified as accurate (confidence 14) [E87ACAB9], AccurateRip returned [E4E2FC97] (AR v2)
Track 2 cannot be verified as accurate (confidence 14) [97B3A93D], AccurateRip returned [C850F111] (AR v2)
Track 3 cannot be verified as accurate (confidence 14) [27B35DC6], AccurateRip returned [45EECC1F] (AR v2)
Track 4 cannot be verified as accurate (confidence 14) [4925633A], AccurateRip returned [6F59844C] (AR v2)
Track 5 cannot be verified as accurate (confidence 14) [6B3DCC38], AccurateRip returned [D62E7BA2] (AR v2)
Track 6 cannot be verified as accurate (confidence 14) [7153F4BA], AccurateRip returned [08F09260] (AR v2)
Track 7 cannot be verified as accurate (confidence 14) [FBC4EB03], AccurateRip returned [F27051A0] (AR v2)
Track 8 cannot be verified as accurate (confidence 14) [48A1B739], AccurateRip returned [DDEF4736] (AR v2)
Track 9 cannot be verified as accurate (confidence 14) [670E170E], AccurateRip returned [51A8C8A9] (AR v2)
Track 10 cannot be verified as accurate (confidence 14) [03B153BC], AccurateRip returned [4303EF10] (AR v2)

No tracks could be verified as accurate
You may have a different pressing from the one(s) in the database

End of status report

–– CUETools DB Plugin V2.1.6

[CTDB TOCID: 1M1k84jWpmrqhhd7BwitC0XKzXM-] found
Submit result: 1M1k84jWpmrqhhd7BwitC0XKzXM- has been confirmed
Track | CTDB Status
1 | ( 1/22) Accurately ripped, or (20/22) differs in 360 samples @00:00:18-00:00:20,00:00:28,00:00:33-00:00:36,00:00:41-00:00:45,00:00:60,00:00:69-00:00:73,00:01:08,00:01:21-00:01:23,00:01:48,00:01:55-00:01:57,00:01:64-00:01:69,00:02:04,00:02:18-00:02:23,00:02:31,00:02:45,00:03:06,00:03:23,00:07:34,00:08:48,00:19:15,00:44:37,00:54:53,01:03:13,01:05:02,01:16:48,01:28:03,01:35:47,02:34:06,03:51:42
2 | ( 1/22) Accurately ripped, or (20/22) differs in 2 samples @01:06:01
3 | (22/22) Accurately ripped
4 | (22/22) Accurately ripped
5 | (22/22) Accurately ripped
6 | (22/22) Accurately ripped
7 | (22/22) Accurately ripped
8 | (22/22) Accurately ripped
9 | (22/22) Accurately ripped
10 | (22/22) Accurately ripped
If you are sure that your rip contains errors, you can use CUETools to repair it.


==== Log checksum 6F090BEDE07888D8E67573BC22B7BC56C65D91D8059FE6DF40F4E4D0DCE53459 ====

[CUETools log; Date: 27.10.2015 0:59:36; Version: 2.1.4]
[CTDB TOCID: 1M1k84jWpmrqhhd7BwitC0XKzXM-] found.
Track | CTDB Status
1 | ( 2/23) Accurately ripped, or (20/23) differs in 360 samples @00:00:18-00:00:20,00:00:28,00:00:33-00:00:36,00:00:41-00:00:45,00:00:60,00:00:69-00:00:73,00:01:08,00:01:21-00:01:23,00:01:48,00:01:55-00:01:57,00:01:64-00:01:69,00:02:04,00:02:18-00:02:23,00:02:31,00:02:45,00:03:06,00:03:23,00:07:34,00:08:48,00:19:15,00:44:37,00:54:53,01:03:13,01:05:02,01:16:48,01:28:03,01:35:47,02:34:06,03:51:42
2 | ( 2/23) Accurately ripped, or (20/23) differs in 2 samples @01:06:01
3 | (23/23) Accurately ripped
4 | (23/23) Accurately ripped
5 | (23/23) Accurately ripped
6 | (23/23) Accurately ripped
7 | (23/23) Accurately ripped
8 | (23/23) Accurately ripped
9 | (23/23) Accurately ripped
10 | (23/23) Accurately ripped
[AccurateRip ID: 001282fd-00944c89-860b910a] found.
Track [ CRC | V2 ] Status
01 [51887058|e87acab9] (00+00/51) No match
02 [55ef7721|97b3a93d] (00+00/50) No match
03 [3d4476f6|27b35dc6] (00+00/50) No match
04 [09047a70|4925633a] (00+00/49) No match
05 [81476819|6b3dcc38] (00+00/50) No match
06 [933b33be|7153f4ba] (00+00/51) No match
07 [cc3a8028|fbc4eb03] (00+00/49) No match
08 [abfd3770|48a1b739] (00+00/50) No match
09 [9cbb571d|670e170e] (00+00/50) No match
10 [5c4cf95a|03b153bc] (00+00/50) No match
Offsetted by -9:
01 [da313601] (00/51) No match (V2 was not tested)
02 [e6cada59] (00/50) No match (V2 was not tested)
03 [0db3ed1a] (02/50) Accurately ripped
04 [faebf961] (02/49) Accurately ripped
05 [e8cb9b80] (02/50) Accurately ripped
06 [90777954] (02/51) Accurately ripped
07 [cb311efc] (02/49) Accurately ripped
08 [47daefee] (02/50) Accurately ripped
09 [8c18a4d2] (02/50) Accurately ripped
10 [ba019c41] (02/50) Accurately ripped
Offsetted by 655:
01 [2fbc8f5d] (00/51) No match (V2 was not tested)
02 [76207da7] (00/50) No match (V2 was not tested)
03 [8a0652ba] (10/50) Accurately ripped
04 [27512b09] (09/49) Accurately ripped
05 [f723e798] (10/50) Accurately ripped
06 [0718c0c4] (10/51) Accurately ripped
07 [cea89441] (09/49) Accurately ripped
08 [257c9af9] (10/50) Accurately ripped
09 [73df951a] (10/50) Accurately ripped
10 [b89d5459] (10/50) Accurately ripped
Offsetted by 661:
01 [c7a1bcd7] (00/51) No match (V2 was not tested)
02 [f0ea7ca9] (00/50) No match (V2 was not tested)
03 [5466aea2] (13/50) Accurately ripped
04 [db618113] (13/49) Accurately ripped
05 [07766ffe] (13/50) Accurately ripped
06 [08f09260] (14/51) Accurately ripped
07 [5feb39d8] (13/49) Accurately ripped
08 [f38ab776] (13/50) Accurately ripped
09 [29a1614c] (13/50) Accurately ripped
10 [7a24e7bf] (13/50) Accurately ripped

Track Peak [ CRC32 ] [W/O NULL] [ LOG ]
– 99,9 [981B93E2] [DA207FEF] CRC32
01 99,9 [C63643EC] [7FA78A77]
02 99,9 [FCBBF2ED] [2B307807]
03 99,9 [A61DD50A] [40E7ED62]
04 99,9 [2C78807E] [92DA5D06]
05 99,9 [42A29E24] [06B7D48A]
06 99,9 [8790CD1D] [5B5B6E0E]
07 99,9 [BEF43E7D] [029681F9]
08 99,9 [781C4737] [CBF99B5F]
09 99,9 [F795DBB5] [E22E67D0]
10 99,9 [4DFEB52E] [56D3F712]

* * * * *

Overkill - Historikill 1995-2007 (2015) [14CD Box Set]

CD14: Overkill - Bonus CD (2015)
EAC | Flac(Image) + Cue + Log & MP3 CBR 320Kbps
Nuclear Blast, NB 3465-0 | ~ 273 or 91 Mb | Scans Included
Thrash Metal

Tracklist:

01. Blood Money (Demo) (4:31)
02. Horrorscore (Demo) (6:19)
03. Soulitude (Demo) (5:29)
04. Killogy (Demo) (3:27)
05. Old School (Remix) (3:49)
06. Skull And Bones (Remix) (5:57)
07. Under One (Tracking Mix) (4:28)
08. Man In Black (Johnny Cash Cover) (2:59)

Exact Audio Copy V1.1 from 23. June 2015

EAC extraction logfile from 25. October 2015, 11:53

Overkill / Historikill (Bonus CD)

Used drive : PIONEER DVD-RW DVR-215 Adapter: 1 ID: 1

Read mode : Secure
Utilize accurate stream : Yes
Defeat audio cache : Yes
Make use of C2 pointers : No

Read offset correction : 48
Overread into Lead-In and Lead-Out : No
Fill up missing offset samples with silence : Yes
Delete leading and trailing silent blocks : No
Null samples used in CRC calculations : Yes
Used interface : Native Win32 interface for Win NT & 2000

Used output format : User Defined Encoder
Selected bitrate : 1024 kBit/s
Quality : High
Add ID3 tag : No
Command line compressor : C:\Program Files (x86)\Exact Audio Copy\Flac\flac.exe
Additional command line options : -V -8 -T "Date=%year%" -T "Genre=%genre%" %source%


TOC of the extracted CD

Track | Start | Length | Start sector | End sector
––––––––––––––––––––––––––––-
1 | 0:00.00 | 4:31.22 | 0 | 20346
2 | 4:31.22 | 6:19.22 | 20347 | 48793
3 | 10:50.44 | 5:29.08 | 48794 | 73476
4 | 16:19.52 | 3:26.44 | 73477 | 88970
5 | 19:46.21 | 3:49.28 | 88971 | 106173
6 | 23:35.49 | 5:56.39 | 106174 | 132912
7 | 29:32.13 | 4:27.60 | 132913 | 152997
8 | 33:59.73 | 2:59.05 | 152998 | 166427


Range status and errors

Selected range

Filename F:\metallihead\Overkill - Historikill (1996-2007)\Overkill - Historikill (Bonus CD).wav

Peak level 100.0 %
Extraction speed 6.4 X
Range quality 100.0 %
Test CRC 1873D448
Copy CRC 1873D448
Copy OK

No errors occurred


AccurateRip summary

Track 1 not present in database
Track 2 not present in database
Track 3 not present in database
Track 4 not present in database
Track 5 not present in database
Track 6 not present in database
Track 7 not present in database
Track 8 not present in database

None of the tracks are present in the AccurateRip database

End of status report

–– CUETools DB Plugin V2.1.6

[CTDB TOCID: 1xTn_lZ51T1MptCB3Nwx0Zrwg0M-] found
Submit result: 1xTn_lZ51T1MptCB3Nwx0Zrwg0M- has been confirmed
Track | CTDB Status
1 | (1/1) Accurately ripped
2 | (1/1) Accurately ripped
3 | (1/1) Accurately ripped
4 | (1/1) Accurately ripped
5 | (1/1) Accurately ripped
6 | (1/1) Accurately ripped
7 | (1/1) Accurately ripped
8 | (1/1) Accurately ripped


==== Log checksum 9D3AE60C96368A420CDE4CA80774187556DF1398E5E39FAADD4DF1CBFE08D9E4 ====

[CUETools log; Date: 27.10.2015 1:01:39; Version: 2.1.4]
[CTDB TOCID: 1xTn_lZ51T1MptCB3Nwx0Zrwg0M-] found.
Track | CTDB Status
1 | (2/2) Accurately ripped
2 | (2/2) Accurately ripped
3 | (2/2) Accurately ripped
4 | (2/2) Accurately ripped
5 | (2/2) Accurately ripped
6 | (2/2) Accurately ripped
7 | (2/2) Accurately ripped
8 | (2/2) Accurately ripped
[AccurateRip ID: 000c0e56-004f9387-6608ab08] disk not present in database.

Track Peak [ CRC32 ] [W/O NULL] [ LOG ]
– 100,0 [1873D448] [63767366] CRC32
01 96,2 [B54DA525] [CDE1EE9F]
02 97,4 [2A65533E] [2EE02537]
03 96,3 [349C698E] [791A6C4B]
04 96,2 [883FD00C] [FE828BE0]
05 100,0 [098AB799] [0A4926B7]
06 100,0 [B8F8CF8E] [96970613]
07 100,0 [EF178941] [495AA0EA]
08 100,0 [AED423DA] [561CD645]

Overkill - Historikill 1995-2007 (2015) [14CD Box Set]

All thanks go to bki71 & metallihead

Download Overkill - Historikill 1995-2007 (2015):