Subcategories

Phoresis - Letters To Canberra (2010)

Posted By: TestTickles
Phoresis - Letters To Canberra (2010)

Phoresis - Letters To Canberra (2010)
EAC Rip | FLAC with CUE and log | scans | 410 mb
MP3 CBR 320kbps | RAR | 153 mb
Genre: indie rock, psychedelic rock, progressive rock

Letters To Canberra is the 2010 album by Phoresis. This was released by Red Shift/Blue Shift Records.
The music on this album is incredibly fantastic. It shows great craftsmanship and care. When I first put on the CD it was amazing, very late 60's psychedelic, space music, with a very modern sound, very cutting edge. It is now my personal favorite. They are very good at "one upping" yourselves at every turn. I cant wait to spin the vinyl on my turntable with my classic 1970's Sony power amp. "SWING!!"

Phoresis - Letters To Canberra (2010)

01. Our New Home
Inception: Todd Osborn
Todd Osborn - lyrics, keyboards, vocals, mix
Nick Johnson - keyboards, mix
Lauren Smith - vocals

02. Earthlight
Inception: Bob Crain
Todd Bernhardt - drums
Bob Crain - keyboards, guitar, mix
Nick Johnson - keyboards, lyrics, mix
Lauren Smith - Vocals
Josh French - guitar
Chris Garrett - bass
Todd Osborn - mix

03. To The Sun
Inception: Nick Johnson
Todd Osborn - drums, guitar, mix
Bob Crain - guitar, mix
Mike Saslaw - guitar
Nick Johnson - keyboards, lyrics, mix
Chris Garrett - bass
Danny Green - trumpet
Lauren Smith - Vocals
Mark Little - lyrics
Aki Zenji - mix

04. Further
Inception: Nick Johnson
Nick Johnson - guitars, keyboards, lyrics, mix
Damion Driggins - Drums
Todd Osborn - bass, mix
Lauren Smith - Vocals
Aki Zenji - mix
Bob Crain - mix

05. Delva
Inception: Bob Crain, Nick Johnson
Bob Crain - guitar, bass, mix
Shahrokh Molavi - guitar
Nick Johnson - keyboard, mix
Todd Osborn - mix

06. Star Walker
Inception: Karl Kriemelmeyer
Karl Kriemelmeyer - Keyboards, drums
Bob Crain - vocal, mix
Nick Johnson - keyboard, digeridoo, mix
Ted Morgan - guitar
Aki Zenji - mix
Todd Osborn - mix

07. Somnium
Inception: Mark Little
Mark Little - guitar
Nick Johnson - bass, keyboard, beats, mix
Shahrokh Molavi - guitar
Bob Crain - mix
Todd Osborn - mix

08. Harpy
Inception: Nick Johnson
Lauren Smith - Vocal
Shahrokh Molavi - guitar
Nick Johnson - guitar, bass, keyboard, mix, lyrics
Bob Crain - mix
Karl Kriemelmeyer - drums
Todd Osborn - vocal, mix

09. Origins
Inception: Nick Johnson, Bob Crain
Bob Crain - guitar, mix
Nick Johnson - keyboard, lyrics, mix
Mark Little - lyrics
Jerami Mennella - bass
Todd Osborn - guitar, mix
Lauren Smith - vocals, lyrics
Karl Kriemelmeyer - drums

10. Consciousness Until Encounter
Inception: Nick Johnson
Nick Johnson - keyboards, guitar, mix
Todd Osborn - bass, mix
Bob Crain - keyboards, mix
Josh French - lap steel

I have to say this album took me by surprise. This is not to say I was expecting something in particular, but as soon as I popped it in and began listening to the first song, I had this "Woah…." sensation, marked by that tingling sensation at the base of your skull and a distinct sensation that you are indeed staring into the void, but this void is far more beautiful, complex, and infinitely nuanced than you could ever imagine. True, you can find it under the psychedelic genre, and that would be fitting place for it, but as I was listening I thought it was a marriage of Sonic Youth and Stereolab, but somehow different, more a meditation on sound and texture and layers. I love this album!!!!!!!!!!!!

Phoresis - Letters To Canberra (2010)


Exact Audio Copy V0.99 prebeta 4 from 23. January 2008

EAC extraction logfile from 3. March 2010, 19:12

Phoresis / Letters To Canberra

Used drive : TSSTcorpDVD+-RW TS-H653B Adapter: 2 ID: 0

Read mode : Secure
Utilize accurate stream : Yes
Defeat audio cache : Yes
Make use of C2 pointers : No

Read offset correction : 6
Overread into Lead-In and Lead-Out : No
Fill up missing offset samples with silence : Yes
Delete leading and trailing silent blocks : No
Null samples used in CRC calculations : Yes
Used interface : Native Win32 interface for Win NT & 2000
Gap handling : Appended to previous track

Used output format : Internal WAV Routines
Sample format : 44.100 Hz; 16 Bit; Stereo


TOC of the extracted CD

Track | Start | Length | Start sector | End sector
––––––––––––––––––––––––––––-
1 | 0:00.00 | 3:31.07 | 0 | 15831
2 | 3:31.07 | 4:22.57 | 15832 | 35538
3 | 7:53.64 | 4:37.21 | 35539 | 56334
4 | 12:31.10 | 4:24.11 | 56335 | 76145
5 | 16:55.21 | 3:44.71 | 76146 | 93016
6 | 20:40.17 | 10:31.06 | 93017 | 140347
7 | 31:11.23 | 8:21.19 | 140348 | 177941
8 | 39:32.42 | 9:27.00 | 177942 | 220466
9 | 48:59.42 | 8:17.57 | 220467 | 257798
10 | 57:17.24 | 5:54.19 | 257799 | 284367


Track 1

Filename C:\FLAC\Phoresis - Letters To Canberra (2010) [FLAC]\01 - Our New Home.wav

Pre-gap length 0:00:02.00

Peak level 96.7 %
Track quality 100.0 %
Test CRC 76ACF5BC
Copy CRC 76ACF5BC
Track not present in AccurateRip database
Copy OK

Track 2

Filename C:\FLAC\Phoresis - Letters To Canberra (2010) [FLAC]\02 - Earthlight.wav

Pre-gap length 0:00:01.85

Peak level 97.2 %
Track quality 100.0 %
Test CRC 530D03DB
Copy CRC 530D03DB
Track not present in AccurateRip database
Copy OK

Track 3

Filename C:\FLAC\Phoresis - Letters To Canberra (2010) [FLAC]\03 - To The Sun.wav

Pre-gap length 0:00:01.82

Peak level 97.4 %
Track quality 99.9 %
Test CRC 7478B95E
Copy CRC 7478B95E
Track not present in AccurateRip database
Copy OK

Track 4

Filename C:\FLAC\Phoresis - Letters To Canberra (2010) [FLAC]\04 - Further.wav

Pre-gap length 0:00:01.78

Peak level 97.1 %
Track quality 100.0 %
Test CRC 26E73EA4
Copy CRC 26E73EA4
Track not present in AccurateRip database
Copy OK

Track 5

Filename C:\FLAC\Phoresis - Letters To Canberra (2010) [FLAC]\05 - Delva.wav

Pre-gap length 0:00:02.44

Peak level 97.3 %
Track quality 100.0 %
Test CRC D11DAE89
Copy CRC D11DAE89
Track not present in AccurateRip database
Copy OK

Track 6

Filename C:\FLAC\Phoresis - Letters To Canberra (2010) [FLAC]\06 - Star Walker.wav

Pre-gap length 0:00:01.76

Peak level 97.7 %
Track quality 100.0 %
Test CRC C55BD7EC
Copy CRC C55BD7EC
Track not present in AccurateRip database
Copy OK

Track 7

Filename C:\FLAC\Phoresis - Letters To Canberra (2010) [FLAC]\07 - Somnium.wav

Pre-gap length 0:00:02.32

Peak level 96.7 %
Track quality 100.0 %
Test CRC 4D4A43DA
Copy CRC 4D4A43DA
Track not present in AccurateRip database
Copy OK

Track 8

Filename C:\FLAC\Phoresis - Letters To Canberra (2010) [FLAC]\08 - Harpy.wav

Pre-gap length 0:00:02.20

Peak level 96.8 %
Track quality 100.0 %
Test CRC 62160027
Copy CRC 62160027
Track not present in AccurateRip database
Copy OK

Track 9

Filename C:\FLAC\Phoresis - Letters To Canberra (2010) [FLAC]\09 - Origins.wav

Pre-gap length 0:00:02.53

Peak level 97.5 %
Track quality 99.9 %
Test CRC 018305E2
Copy CRC 018305E2
Track not present in AccurateRip database
Copy OK

Track 10

Filename C:\FLAC\Phoresis - Letters To Canberra (2010) [FLAC]\10 - Consciousness Until Encounter.wav

Pre-gap length 0:00:01.82

Peak level 96.6 %
Track quality 100.0 %
Test CRC E669235C
Copy CRC E669235C
Track not present in AccurateRip database
Copy OK


None of the tracks are present in the AccurateRip database

No errors occurred

End of status report


Phoresis - Letters To Canberra (2010)