Subcategories

VA - Platinum Soul Legends 1960-1975 (3CD) (2002) {Warner Strategic Marketing}

Posted By: TestTickles
VA - Platinum Soul Legends 1960-1975 (3CD) (2002) {Warner Strategic Marketing}

VA - Platinum Soul Legends 1960-1975 (3CD) (2002) {Warner Strategic Marketing}
EAC Rip | FLAC with CUE and log | scans | 1.24 gb
MP3 CBR 320kbps | RAR | 497 mb
Genre: soul, R&B

Platinum Soul Legends 1960-1975 is a 3CD box set compilation released in 2002. Put out by Warner Strategic Marketing in the UK, it primarily consists of material from the Warner Music catalog but also features songs from Motown and Sony.

VA - Platinum Soul Legends 1960-1975 (3CD) (2002) {Warner Strategic Marketing}

DISC 1
1. Aretha Franklin - Respect
2. Wilson Pickett - In The Midnight Hour
3. Arthur Conley - Sweet Soul Music
4. Booker T. & The M.G's - Green Onions
5. Carla Thomas - B-A-B-Y
6. Ben E. King - Spanish Harlem
7. Judy Clay & William Bell - Private Number
8. Percy Sledge - When A Man Loves A Woman
9. Eddie Holman - Hey There Lonely Girl
10. Maxine Brown - Oh No Not My Baby
11. The Drifters - Under The Boardwalk
12. Eddie Floyd - Knock On Wood
13. Solomon Burke - Everybody Needs Somebody To Love
14. The Bar-Kays - Soul Finger
15. Don Covay - See Saw
16. Rufus Thomas - Walkin' The Dog
17. Sam & Dave - Soul Man
18. Erma Franklin - Piece Of My Heart
19. Ben E. King - Stand By Me
20. Etta James - I'd Rather Go Blind
21. Otis Redding - (Sittin' On) The Dock Of The Bay

DISC 2
1. Marvin Gaye - Let's Get It On
2. Al Green - How Can You Mend A Broken Heart?
3. Harold Melvin & The Blue Notes - If You Don't Know Me By Now
4. The Chi-Lites - Have You Seen Her?
5. Betty Wright - Clean Up Woman
6. Chairmen Of The Board - Give Me Just A Little More Time
7. Otis Redding & Carla Thomas - Tramp
8. The Spinners - I'll Be Around
9. Charles Wright & The Watts 103rd. Street Rhythm Band - Express Yourself
10. Freda Payne - Band Of Gold
11. Sly & The Family Stone - Family Affair
12. Edwin Starr - War
13. Aretha Franklin - Think
14. Isaac Hayes - Theme From Shaft
15. New York City - I'm Doing Fine Now
16. The Stylistics - Betcha By Golly Wow
17. Bill Withers - Lean On Me
18. The Persuaders - Thin Line Between Love And Hate
19. Ann Peebles - I'm Gonna Tear Your Playhouse Down
20. Brook Benton - Rainy Night In Georgia
21. Lorraine Ellison - Stay With Me

DISC 3
1. Barry White - You're The First, My Last, My Everything
2. The Isley Brothers - That Lady (Part 1 & 2)
3. The O' Jays - Love Train
4. The Temptations - Papa Was A Rollin' Stone
5. The Spinners - Could It Be I'm Falling In Love
6. Jean Knight - Mr Big Stuff
7. Millie Jackson - (If Loving You Is Wrong) I Do't Want To Be Right
8. Major Harris - Love Won't Let Me Wait
9. Al Green - Let's Stay Together
10. Gladys Knight & The Pips - Help Me Make It Through The Night
11. The Chi-Lites - Oh Girl
12. Billy Paul - Me & Mrs. Jones
13. Bill Withers - Use Me
14. Blue Magic - Sideshow
15. Shirley Brown - Woman To Woman
16. Bloodstone - Natural High
17. Kool & The Gang - Hollywood Swinging
18. James Brown - The Payback
19. Johnny Bristol - Hang On In There Baby
20. William De Vaughn - Be Thankful For What You Got

Mastered by Shawn & Giovanni

Exact Audio Copy V1.0 beta 6 from 9. April 2015

EAC extraction logfile from 18. November 2017, 16:57

Various Artists / Platinum Soul Legends 1960-1975 (Disc 1)

Used drive : TSSTcorpDVD+-RW TS-L633C Adapter: 1 ID: 0

Read mode : Burst

Read offset correction : 6
Overread into Lead-In and Lead-Out : No
Fill up missing offset samples with silence : Yes
Delete leading and trailing silent blocks : No
Null samples used in CRC calculations : Yes
Used interface : Native Win32 interface for Win NT & 2000
Gap handling : Appended to previous track

Used output format : Internal WAV Routines
Sample format : 44.100 Hz; 16 Bit; Stereo


TOC of the extracted CD

Track | Start | Length | Start sector | End sector
––––––––––––––––––––––––––––-
1 | 0:00.00 | 2:24.54 | 0 | 10853
2 | 2:24.54 | 2:36.48 | 10854 | 22601
3 | 5:01.27 | 2:21.01 | 22602 | 33177
4 | 7:22.28 | 2:51.49 | 33178 | 46051
5 | 10:14.02 | 2:54.26 | 46052 | 59127
6 | 13:08.28 | 2:53.47 | 59128 | 72149
7 | 16:02.00 | 2:36.41 | 72150 | 83890
8 | 18:38.41 | 2:50.60 | 83891 | 96700
9 | 21:29.26 | 3:19.01 | 96701 | 111626
10 | 24:48.27 | 2:34.70 | 111627 | 123246
11 | 27:23.22 | 2:41.11 | 123247 | 135332
12 | 30:04.33 | 3:03.57 | 135333 | 149114
13 | 33:08.15 | 2:44.19 | 149115 | 161433
14 | 35:52.34 | 2:19.34 | 161434 | 171892
15 | 38:11.68 | 3:00.08 | 171893 | 185400
16 | 41:12.01 | 2:33.01 | 185401 | 196876
17 | 43:45.02 | 2:37.27 | 196877 | 208678
18 | 46:22.29 | 2:32.66 | 208679 | 220144
19 | 48:55.20 | 2:59.30 | 220145 | 233599
20 | 51:54.50 | 2:33.41 | 233600 | 245115
21 | 54:28.16 | 2:42.19 | 245116 | 257284


Track 1

Filename C:\My Documents\My FLAC\VA - Platinum Soul Legends 1960-1975 (3CD) (2002) [FLAC] {Warner Strategic Marketing}\Disc 1\01 - Aretha Franklin - Respect.wav

Pre-gap length 0:00:02.00

Timing problem 0:00:24
Timing problem 0:00:26
Timing problem 0:00:37
Timing problem 0:00:54
Timing problem 0:00:57
Timing problem 0:01:01
Timing problem 0:01:07 - 0:01:08
Timing problem 0:01:16
Timing problem 0:01:20
Timing problem 0:02:02
Timing problem 0:02:05
Timing problem 0:02:10
Timing problem 0:02:14

Peak level 66.7 %
Extraction speed 4.2 X
Test CRC 01AEEA13
Copy CRC 01AEEA13
Accurately ripped (confidence 9) [C4822B4F] (AR v2)
Copy finished

Track 2

Filename C:\My Documents\My FLAC\VA - Platinum Soul Legends 1960-1975 (3CD) (2002) [FLAC] {Warner Strategic Marketing}\Disc 1\02 - Wilson Pickett - In The Midnight Hour.wav

Pre-gap length 0:00:00.11

Timing problem 0:00:08
Timing problem 0:00:13
Timing problem 0:00:49
Timing problem 0:01:52

Peak level 92.3 %
Extraction speed 4.5 X
Test CRC 2821BB08
Copy CRC 2821BB08
Accurately ripped (confidence 10) [E778F7BA] (AR v2)
Copy finished

Track 3

Filename C:\My Documents\My FLAC\VA - Platinum Soul Legends 1960-1975 (3CD) (2002) [FLAC] {Warner Strategic Marketing}\Disc 1\03 - Arthur Conley - Sweet Soul Music.wav

Timing problem 0:00:15

Peak level 88.3 %
Extraction speed 4.8 X
Test CRC B67E6475
Copy CRC B67E6475
Accurately ripped (confidence 10) [4A9108EF] (AR v2)
Copy finished

Track 4

Filename C:\My Documents\My FLAC\VA - Platinum Soul Legends 1960-1975 (3CD) (2002) [FLAC] {Warner Strategic Marketing}\Disc 1\04 - Booker T. & The MG's - Green Onions.wav

Timing problem 0:00:07
Timing problem 0:00:25
Timing problem 0:01:11
Timing problem 0:01:38
Timing problem 0:02:32

Peak level 86.1 %
Extraction speed 5.1 X
Test CRC 7A3FB8ED
Copy CRC 7A3FB8ED
Accurately ripped (confidence 10) [66F36C4F] (AR v2)
Copy finished

Track 5

Filename C:\My Documents\My FLAC\VA - Platinum Soul Legends 1960-1975 (3CD) (2002) [FLAC] {Warner Strategic Marketing}\Disc 1\05 - Carla Thomas - B-A-B-Y.wav

Pre-gap length 0:00:00.02

Timing problem 0:00:18
Timing problem 0:00:21
Timing problem 0:00:32
Timing problem 0:01:00
Timing problem 0:01:06
Timing problem 0:01:30
Timing problem 0:01:58

Peak level 99.8 %
Extraction speed 5.2 X
Test CRC D74355F8
Copy CRC D74355F8
Accurately ripped (confidence 10) [A99E08F5] (AR v2)
Copy finished

Track 6

Filename C:\My Documents\My FLAC\VA - Platinum Soul Legends 1960-1975 (3CD) (2002) [FLAC] {Warner Strategic Marketing}\Disc 1\06 - Ben E. King - Spanish Harlem.wav

Pre-gap length 0:00:00.11

Timing problem 0:02:19
Timing problem 0:02:36

Peak level 75.9 %
Extraction speed 5.7 X
Test CRC 97BD77C8
Copy CRC 97BD77C8
Accurately ripped (confidence 10) [2BDDF077] (AR v2)
Copy finished

Track 7

Filename C:\My Documents\My FLAC\VA - Platinum Soul Legends 1960-1975 (3CD) (2002) [FLAC] {Warner Strategic Marketing}\Disc 1\07 - Judy Clay & William Bell - Private Number.wav

Timing problem 0:00:07
Timing problem 0:00:21
Timing problem 0:00:23
Timing problem 0:00:29
Timing problem 0:02:26

Peak level 77.3 %
Extraction speed 5.9 X
Test CRC C8F68E1F
Copy CRC C8F68E1F
Accurately ripped (confidence 9) [3A72866B] (AR v2)
Copy finished

Track 8

Filename C:\My Documents\My FLAC\VA - Platinum Soul Legends 1960-1975 (3CD) (2002) [FLAC] {Warner Strategic Marketing}\Disc 1\08 - Percy Sledge - When A Man Loves A Woman.wav

Timing problem 0:00:40
Timing problem 0:00:42 - 0:00:44
Timing problem 0:01:37
Timing problem 0:01:45
Timing problem 0:01:58
Timing problem 0:02:00

Peak level 99.8 %
Extraction speed 5.7 X
Test CRC FA28BDFC
Copy CRC FA28BDFC
Accurately ripped (confidence 9) [DF6AD289] (AR v2)
Copy finished

Track 9

Filename C:\My Documents\My FLAC\VA - Platinum Soul Legends 1960-1975 (3CD) (2002) [FLAC] {Warner Strategic Marketing}\Disc 1\09 - Eddie Holman - Hey There Lonely Girl.wav

Pre-gap length 0:00:00.17

Timing problem 0:00:02
Timing problem 0:01:21
Timing problem 0:02:53

Peak level 75.2 %
Extraction speed 6.4 X
Test CRC 6985EAA6
Copy CRC 6985EAA6
Accurately ripped (confidence 10) [387727DB] (AR v2)
Copy finished

Track 10

Filename C:\My Documents\My FLAC\VA - Platinum Soul Legends 1960-1975 (3CD) (2002) [FLAC] {Warner Strategic Marketing}\Disc 1\10 - Maxine Brown - Oh No Not My Baby.wav

Pre-gap length 0:00:00.36

Timing problem 0:00:33
Timing problem 0:01:02
Timing problem 0:01:52

Peak level 81.8 %
Extraction speed 6.3 X
Test CRC 5245B510
Copy CRC 5245B510
Accurately ripped (confidence 9) [B5749761] (AR v2)
Copy finished

Track 11

Filename C:\My Documents\My FLAC\VA - Platinum Soul Legends 1960-1975 (3CD) (2002) [FLAC] {Warner Strategic Marketing}\Disc 1\11 - The Driffers - Under The Boardway.wav

Pre-gap length 0:00:00.12

Timing problem 0:00:09
Timing problem 0:00:19
Timing problem 0:00:27
Timing problem 0:01:48

Peak level 86.7 %
Extraction speed 6.8 X
Test CRC 11BE7D32
Copy CRC 11BE7D32
Accurately ripped (confidence 9) [2FB00188] (AR v2)
Copy finished

Track 12

Filename C:\My Documents\My FLAC\VA - Platinum Soul Legends 1960-1975 (3CD) (2002) [FLAC] {Warner Strategic Marketing}\Disc 1\12 - Eddie Floyd - Knock On Wood.wav

Pre-gap length 0:00:00.60

Peak level 90.9 %
Extraction speed 7.1 X
Test CRC D6F211C4
Copy CRC D6F211C4
Accurately ripped (confidence 10) [61C5966B] (AR v2)
Copy OK

Track 13

Filename C:\My Documents\My FLAC\VA - Platinum Soul Legends 1960-1975 (3CD) (2002) [FLAC] {Warner Strategic Marketing}\Disc 1\13 - Solomon Burke - Everybody Needs Somebody To Love.wav

Pre-gap length 0:00:00.42

Peak level 96.6 %
Extraction speed 7.3 X
Test CRC C5C3501F
Copy CRC C5C3501F
Accurately ripped (confidence 9) [1B1FEF39] (AR v2)
Copy OK

Track 14

Filename C:\My Documents\My FLAC\VA - Platinum Soul Legends 1960-1975 (3CD) (2002) [FLAC] {Warner Strategic Marketing}\Disc 1\14 - The Bar-Kays - Soul Finger.wav

Peak level 97.5 %
Extraction speed 7.5 X
Test CRC 523ABA09
Copy CRC 523ABA09
Accurately ripped (confidence 10) [547C169F] (AR v2)
Copy OK

Track 15

Filename C:\My Documents\My FLAC\VA - Platinum Soul Legends 1960-1975 (3CD) (2002) [FLAC] {Warner Strategic Marketing}\Disc 1\15 - Don Covay - See Saw.wav

Timing problem 0:00:32

Peak level 99.8 %
Extraction speed 7.7 X
Test CRC A35E0AA8
Copy CRC A35E0AA8
Accurately ripped (confidence 10) [80A32AA3] (AR v2)
Copy finished

Track 16

Filename C:\My Documents\My FLAC\VA - Platinum Soul Legends 1960-1975 (3CD) (2002) [FLAC] {Warner Strategic Marketing}\Disc 1\16 - Rufus Thomas - Walkin' The Dog.wav

Pre-gap length 0:00:00.06

Peak level 85.5 %
Extraction speed 7.9 X
Test CRC 61D96B32
Copy CRC 61D96B32
Accurately ripped (confidence 10) [C751CB03] (AR v2)
Copy OK

Track 17

Filename C:\My Documents\My FLAC\VA - Platinum Soul Legends 1960-1975 (3CD) (2002) [FLAC] {Warner Strategic Marketing}\Disc 1\17 - Sam & Dave - Soul Man.wav

Peak level 87.5 %
Extraction speed 8.1 X
Test CRC 4BC9F92C
Copy CRC 4BC9F92C
Accurately ripped (confidence 10) [B1819D63] (AR v2)
Copy OK

Track 18

Filename C:\My Documents\My FLAC\VA - Platinum Soul Legends 1960-1975 (3CD) (2002) [FLAC] {Warner Strategic Marketing}\Disc 1\18 - Erma Franklin - Piece Of My Heart.wav

Peak level 81.0 %
Extraction speed 8.2 X
Test CRC DB6C8348
Copy CRC DB6C8348
Accurately ripped (confidence 9) [0542EFB3] (AR v2)
Copy OK

Track 19

Filename C:\My Documents\My FLAC\VA - Platinum Soul Legends 1960-1975 (3CD) (2002) [FLAC] {Warner Strategic Marketing}\Disc 1\19 - Ben E. King - Stand By Me.wav

Pre-gap length 0:00:00.29

Timing problem 0:01:17

Peak level 82.9 %
Extraction speed 8.4 X
Test CRC 04750BAE
Copy CRC 04750BAE
Accurately ripped (confidence 9) [E1B848A0] (AR v2)
Copy finished

Track 20

Filename C:\My Documents\My FLAC\VA - Platinum Soul Legends 1960-1975 (3CD) (2002) [FLAC] {Warner Strategic Marketing}\Disc 1\20 - Etta James - I'd Rather Go Blind.wav

Timing problem 0:01:53

Peak level 75.6 %
Extraction speed 7.9 X
Test CRC 72A1E554
Copy CRC 9C7D3D35
Cannot be verified as accurate (confidence 13) [E32FAA83], AccurateRip returned [B2EEEE2E] (AR v2)
Copy finished

Track 21

Filename C:\My Documents\My FLAC\VA - Platinum Soul Legends 1960-1975 (3CD) (2002) [FLAC] {Warner Strategic Marketing}\Disc 1\21 - Otis Redding - (Sittin' On) The Dock Of The Bay.wav

Pre-gap length 0:00:00.48

Peak level 88.3 %
Extraction speed 8.8 X
Test CRC 5E3A9639
Copy CRC 5E3A9639
Accurately ripped (confidence 9) [06F13673] (AR v2)
Copy OK


20 track(s) accurately ripped
1 track(s) could not be verified as accurate

Some tracks could not be verified as accurate

No errors occurred

End of status report

–– CUETools DB Plugin V2.1.6

[CTDB TOCID: eJzXeID4f61ClR0.QNSv1WII7UM-] found
Submit result: insufficient quality
Track | CTDB Status
1 | (21/21) Accurately ripped
2 | (21/21) Accurately ripped
3 | (21/21) Accurately ripped
4 | (21/21) Accurately ripped
5 | (21/21) Accurately ripped
6 | (21/21) Accurately ripped
7 | (21/21) Accurately ripped
8 | (21/21) Accurately ripped
9 | (21/21) Accurately ripped
10 | (21/21) Accurately ripped
11 | (21/21) Accurately ripped
12 | (20/21) Accurately ripped
13 | (21/21) Accurately ripped
14 | (21/21) Accurately ripped
15 | (21/21) Accurately ripped
16 | (21/21) Accurately ripped
17 | (21/21) Accurately ripped
18 | (21/21) Accurately ripped
19 | (21/21) Accurately ripped
20 | (20/21) Differs in 2606 samples @00:35:65,00:36:08-00:36:09,00:36:27-00:36:28,00:36:45-00:36:46,00:36:64-00:36:65,00:37:08-00:37:09,00:37:26-00:37:27,00:37:45-00:37:46,00:37:63-00:37:64,00:38:07-00:38:08,00:38:26-00:38:27,00:38:44-00:38:45,00:38:63-00:38:64,00:39:07,00:39:25-00:39:26,00:39:44-00:39:45,00:39:62-00:39:63,00:40:25-00:40:26,00:40:62-00:40:63
21 | (21/21) Accurately ripped
If you are sure that your rip contains errors, you can use CUETools to repair it.


==== Log checksum D05AD59841973FABB4849CEE8F70A20EACD37DB5832F174953533A76149C8828 ====







Exact Audio Copy V1.0 beta 6 from 9. April 2015

EAC extraction logfile from 18. November 2017, 17:36

Various Artists / Platinum Soul Legends 1960-1975 (Disc 2)

Used drive : TSSTcorpDVD+-RW TS-L633C Adapter: 1 ID: 0

Read mode : Burst

Read offset correction : 6
Overread into Lead-In and Lead-Out : No
Fill up missing offset samples with silence : Yes
Delete leading and trailing silent blocks : No
Null samples used in CRC calculations : Yes
Used interface : Native Win32 interface for Win NT & 2000
Gap handling : Appended to previous track

Used output format : Internal WAV Routines
Sample format : 44.100 Hz; 16 Bit; Stereo


TOC of the extracted CD

Track | Start | Length | Start sector | End sector
––––––––––––––––––––––––––––-
1 | 0:00.00 | 3:50.62 | 0 | 17311
2 | 3:50.62 | 6:19.66 | 17312 | 45802
3 | 10:10.53 | 3:18.74 | 45803 | 60726
4 | 13:29.52 | 5:07.56 | 60727 | 83807
5 | 18:37.33 | 2:45.06 | 83808 | 96188
6 | 21:22.39 | 2:40.30 | 96189 | 108218
7 | 24:02.69 | 3:00.19 | 108219 | 121737
8 | 27:03.13 | 3:10.24 | 121738 | 136011
9 | 30:13.37 | 3:50.62 | 136012 | 153323
10 | 34:04.24 | 2:54.25 | 153324 | 166398
11 | 36:58.49 | 3:01.50 | 166399 | 180023
12 | 40:00.24 | 3:26.53 | 180024 | 195526
13 | 43:27.02 | 2:17.37 | 195527 | 205838
14 | 45:44.39 | 3:16.61 | 205839 | 220599
15 | 49:01.25 | 2:43.23 | 220600 | 232847
16 | 51:44.48 | 3:16.05 | 232848 | 247552
17 | 55:00.53 | 4:17.00 | 247553 | 266827
18 | 59:17.53 | 3:24.40 | 266828 | 282167
19 | 62:42.18 | 2:41.21 | 282168 | 294263
20 | 65:23.39 | 3:38.05 | 294264 | 310618
21 | 69:01.44 | 3:30.02 | 310619 | 326370


Track 1

Filename C:\My Documents\My FLAC\VA - Platinum Soul Legends 1960-1975 (3CD) (2002) [FLAC] {Warner Strategic Marketing}\Disc 2\01 - Marvin Gaye - Let's Get It On.wav

Pre-gap length 0:00:02.00

Peak level 77.1 %
Extraction speed 10.8 X
Test CRC 93AEA23E
Copy CRC 93AEA23E
Accurately ripped (confidence 9) [6ED00A70] (AR v2)
Copy OK

Track 2

Filename C:\My Documents\My FLAC\VA - Platinum Soul Legends 1960-1975 (3CD) (2002) [FLAC] {Warner Strategic Marketing}\Disc 2\02 - Al Green - How Can You Mend A Broken Heart.wav

Pre-gap length 0:00:00.23

Peak level 86.1 %
Extraction speed 12.2 X
Test CRC 80BE846F
Copy CRC 80BE846F
Accurately ripped (confidence 9) [9A14C868] (AR v2)
Copy OK

Track 3

Filename C:\My Documents\My FLAC\VA - Platinum Soul Legends 1960-1975 (3CD) (2002) [FLAC] {Warner Strategic Marketing}\Disc 2\03 - Harold Melvin & The Blue Notes - If You Don't Know Me By Now.wav

Peak level 99.8 %
Extraction speed 13.3 X
Test CRC 2A5B3EC4
Copy CRC 2A5B3EC4
Accurately ripped (confidence 9) [260E1FAB] (AR v2)
Copy OK

Track 4

Filename C:\My Documents\My FLAC\VA - Platinum Soul Legends 1960-1975 (3CD) (2002) [FLAC] {Warner Strategic Marketing}\Disc 2\04 - The Chi-Lites - Have You Seen Her.wav

Peak level 82.6 %
Extraction speed 14.3 X
Test CRC 7FB03AEE
Copy CRC 7FB03AEE
Accurately ripped (confidence 9) [75B42A8C] (AR v2)
Copy OK

Track 5

Filename C:\My Documents\My FLAC\VA - Platinum Soul Legends 1960-1975 (3CD) (2002) [FLAC] {Warner Strategic Marketing}\Disc 2\05 - Betty Wright - Clean Up Woman.wav

Peak level 76.9 %
Extraction speed 15.0 X
Test CRC 5D5240D3
Copy CRC 5D5240D3
Accurately ripped (confidence 9) [9E49C867] (AR v2)
Copy OK

Track 6

Filename C:\My Documents\My FLAC\VA - Platinum Soul Legends 1960-1975 (3CD) (2002) [FLAC] {Warner Strategic Marketing}\Disc 2\06 - Chairman Of The Board - Give Me Just A Little More Time.wav

Peak level 97.6 %
Extraction speed 15.6 X
Test CRC 1DC0FEB1
Copy CRC 1DC0FEB1
Accurately ripped (confidence 9) [9B885C2C] (AR v2)
Copy OK

Track 7

Filename C:\My Documents\My FLAC\VA - Platinum Soul Legends 1960-1975 (3CD) (2002) [FLAC] {Warner Strategic Marketing}\Disc 2\07 - Otis Redding & Carla Thomas - Tramp.wav

Pre-gap length 0:00:00.53

Peak level 99.8 %
Extraction speed 16.1 X
Test CRC DE0660CD
Copy CRC DE0660CD
Accurately ripped (confidence 10) [96AA11D2] (AR v2)
Copy OK

Track 8

Filename C:\My Documents\My FLAC\VA - Platinum Soul Legends 1960-1975 (3CD) (2002) [FLAC] {Warner Strategic Marketing}\Disc 2\08 - The Spinners - I'll Be Around.wav

Pre-gap length 0:00:00.12

Peak level 86.2 %
Extraction speed 16.7 X
Test CRC 392DD783
Copy CRC 392DD783
Accurately ripped (confidence 10) [AC74CE9D] (AR v2)
Copy OK

Track 9

Filename C:\My Documents\My FLAC\VA - Platinum Soul Legends 1960-1975 (3CD) (2002) [FLAC] {Warner Strategic Marketing}\Disc 2\09 - Charles Wright & The Watts 103rd Street Rhythm Band - Express Yourself.wav

Timing problem 0:03:47

Peak level 97.4 %
Extraction speed 15.5 X
Test CRC 53C2184E
Copy CRC 53C2184E
Accurately ripped (confidence 10) [0196022A] (AR v2)
Copy finished

Track 10

Filename C:\My Documents\My FLAC\VA - Platinum Soul Legends 1960-1975 (3CD) (2002) [FLAC] {Warner Strategic Marketing}\Disc 2\10 - Freda Payne - Band Of Gold.wav

Pre-gap length 0:00:00.29

Peak level 78.9 %
Extraction speed 17.4 X
Test CRC 585F256B
Copy CRC 585F256B
Accurately ripped (confidence 9) [8BDCAC3D] (AR v2)
Copy OK

Track 11

Filename C:\My Documents\My FLAC\VA - Platinum Soul Legends 1960-1975 (3CD) (2002) [FLAC] {Warner Strategic Marketing}\Disc 2\11 - Sly & The Family Stone - Family Affair.wav

Pre-gap length 0:00:00.17

Timing problem 0:02:29
Timing problem 0:02:52

Peak level 97.8 %
Extraction speed 17.7 X
Test CRC 150A480D
Copy CRC 150A480D
Accurately ripped (confidence 9) [3983370B] (AR v2)
Copy finished

Track 12

Filename C:\My Documents\My FLAC\VA - Platinum Soul Legends 1960-1975 (3CD) (2002) [FLAC] {Warner Strategic Marketing}\Disc 2\12 - Edwin Starr - War.wav

Peak level 84.4 %
Extraction speed 18.9 X
Test CRC 3FCE0C7F
Copy CRC 3FCE0C7F
Accurately ripped (confidence 9) [A6CCE8D1] (AR v2)
Copy OK

Track 13

Filename C:\My Documents\My FLAC\VA - Platinum Soul Legends 1960-1975 (3CD) (2002) [FLAC] {Warner Strategic Marketing}\Disc 2\13 - Aretha Franklin - Think.wav

Peak level 86.8 %
Extraction speed 19.3 X
Test CRC A559F746
Copy CRC A559F746
Accurately ripped (confidence 10) [DDDD14EF] (AR v2)
Copy OK

Track 14

Filename C:\My Documents\My FLAC\VA - Platinum Soul Legends 1960-1975 (3CD) (2002) [FLAC] {Warner Strategic Marketing}\Disc 2\14 - Isaac Hayes - Theme From Shaft.wav

Pre-gap length 0:00:00.68

Peak level 92.7 %
Extraction speed 19.6 X
Test CRC 8D9F6F56
Copy CRC 8D9F6F56
Accurately ripped (confidence 10) [1D43CFA7] (AR v2)
Copy OK

Track 15

Filename C:\My Documents\My FLAC\VA - Platinum Soul Legends 1960-1975 (3CD) (2002) [FLAC] {Warner Strategic Marketing}\Disc 2\15 - New York City - I'm Doing Fine Now.wav

Peak level 86.1 %
Extraction speed 20.2 X
Test CRC 2F47E619
Copy CRC 2F47E619
Accurately ripped (confidence 9) [A3847569] (AR v2)
Copy OK

Track 16

Filename C:\My Documents\My FLAC\VA - Platinum Soul Legends 1960-1975 (3CD) (2002) [FLAC] {Warner Strategic Marketing}\Disc 2\16 - The Stylistics - Betcha By Golly Wow.wav

Peak level 97.3 %
Extraction speed 20.7 X
Test CRC D56A0704
Copy CRC D56A0704
Accurately ripped (confidence 9) [B3EAE4BB] (AR v2)
Copy OK

Track 17

Filename C:\My Documents\My FLAC\VA - Platinum Soul Legends 1960-1975 (3CD) (2002) [FLAC] {Warner Strategic Marketing}\Disc 2\17 - Bill Withers - Lean On Me.wav

Timing problem 0:02:48

Peak level 99.8 %
Extraction speed 21.2 X
Test CRC EBE24839
Copy CRC EBE24839
Accurately ripped (confidence 8) [B2DF0ABD] (AR v2)
Copy finished

Track 18

Filename C:\My Documents\My FLAC\VA - Platinum Soul Legends 1960-1975 (3CD) (2002) [FLAC] {Warner Strategic Marketing}\Disc 2\18 - The Persuaders - Thin Line Between Love And Hate.wav

Pre-gap length 0:00:00.36

Peak level 86.1 %
Extraction speed 21.8 X
Test CRC 99155C73
Copy CRC 99155C73
Accurately ripped (confidence 10) [E99C8B30] (AR v2)
Copy OK

Track 19

Filename C:\My Documents\My FLAC\VA - Platinum Soul Legends 1960-1975 (3CD) (2002) [FLAC] {Warner Strategic Marketing}\Disc 2\19 - Ann Peebles - I'm Gonna Tear Your Playhouse Down.wav

Pre-gap length 0:00:00.29

Peak level 81.3 %
Extraction speed 22.1 X
Test CRC F83BDE42
Copy CRC F83BDE42
Accurately ripped (confidence 9) [07BDA7D7] (AR v2)
Copy OK

Track 20

Filename C:\My Documents\My FLAC\VA - Platinum Soul Legends 1960-1975 (3CD) (2002) [FLAC] {Warner Strategic Marketing}\Disc 2\20 - Brook Benton - Rainy Night In Georgia.wav

Timing problem 0:01:04

Peak level 83.1 %
Extraction speed 22.6 X
Test CRC CBE70DC3
Copy CRC CBE70DC3
Accurately ripped (confidence 10) [CD18F034] (AR v2)
Copy finished

Track 21

Filename C:\My Documents\My FLAC\VA - Platinum Soul Legends 1960-1975 (3CD) (2002) [FLAC] {Warner Strategic Marketing}\Disc 2\21 - Lorraine Ellison - Stay With Me.wav

Peak level 99.8 %
Extraction speed 23.0 X
Test CRC 6529C68C
Copy CRC 6529C68C
Accurately ripped (confidence 9) [6A50FCCB] (AR v2)
Copy OK


All tracks accurately ripped

No errors occurred

End of status report

–– CUETools DB Plugin V2.1.6

[CTDB TOCID: kvO3QlOJ1W61sGJgXRYIU0gcJ_Q-] found
Submit result: kvO3QlOJ1W61sGJgXRYIU0gcJ_Q- has been confirmed
Track | CTDB Status
1 | (22/22) Accurately ripped
2 | (22/22) Accurately ripped
3 | (22/22) Accurately ripped
4 | (22/22) Accurately ripped
5 | (22/22) Accurately ripped
6 | (22/22) Accurately ripped
7 | (21/22) Accurately ripped
8 | (22/22) Accurately ripped
9 | (22/22) Accurately ripped
10 | (22/22) Accurately ripped
11 | (22/22) Accurately ripped
12 | (22/22) Accurately ripped
13 | (22/22) Accurately ripped
14 | (22/22) Accurately ripped
15 | (22/22) Accurately ripped
16 | (22/22) Accurately ripped
17 | (22/22) Accurately ripped
18 | (22/22) Accurately ripped
19 | (22/22) Accurately ripped
20 | (22/22) Accurately ripped
21 | (21/22) Accurately ripped


==== Log checksum 8C25729F30FA175656ED466582132A6ED4BA7E37337208E6F8077B57BDF55B05 ====







Exact Audio Copy V1.0 beta 6 from 9. April 2015

EAC extraction logfile from 18. November 2017, 17:55

Various Artists / Platinum Soul Legends 1960-1975 (Disc 3)

Used drive : TSSTcorpDVD+-RW TS-L633C Adapter: 1 ID: 0

Read mode : Burst

Read offset correction : 6
Overread into Lead-In and Lead-Out : No
Fill up missing offset samples with silence : Yes
Delete leading and trailing silent blocks : No
Null samples used in CRC calculations : Yes
Used interface : Native Win32 interface for Win NT & 2000
Gap handling : Appended to previous track

Used output format : Internal WAV Routines
Sample format : 44.100 Hz; 16 Bit; Stereo


TOC of the extracted CD

Track | Start | Length | Start sector | End sector
––––––––––––––––––––––––––––-
1 | 0:00.00 | 3:23.48 | 0 | 15272
2 | 3:23.48 | 4:17.48 | 15273 | 34595
3 | 7:41.21 | 2:58.41 | 34596 | 47986
4 | 10:39.62 | 6:54.24 | 47987 | 79060
5 | 17:34.11 | 4:12.26 | 79061 | 97986
6 | 21:46.37 | 2:45.29 | 97987 | 110390
7 | 24:31.66 | 3:25.48 | 110391 | 125813
8 | 27:57.39 | 5:28.20 | 125814 | 150433
9 | 33:25.59 | 3:16.04 | 150434 | 165137
10 | 36:41.63 | 4:20.48 | 165138 | 184685
11 | 41:02.36 | 3:12.06 | 184686 | 199091
12 | 44:14.42 | 3:33.33 | 199092 | 215099
13 | 47:48.00 | 3:44.63 | 215100 | 231962
14 | 51:32.63 | 4:10.08 | 231963 | 250720
15 | 55:42.71 | 3:54.02 | 250721 | 268272
16 | 59:36.73 | 4:00.55 | 268273 | 286327
17 | 63:37.53 | 4:35.47 | 286328 | 306999
18 | 68:13.25 | 3:11.27 | 307000 | 321351
19 | 71:24.52 | 3:14.65 | 321352 | 335966
20 | 74:39.42 | 3:30.40 | 335967 | 351756


Track 1

Filename C:\My Documents\My FLAC\VA - Platinum Soul Legends 1960-1975 (3CD) (2002) [FLAC] {Warner Strategic Marketing}\Disc 3\01 - Barry White - You're The First, The Last, My Everything.wav

Pre-gap length 0:00:02.00

Peak level 78.4 %
Extraction speed 10.9 X
Test CRC FF3036E2
Copy CRC FF3036E2
Accurately ripped (confidence 6) [768E79A3] (AR v2)
Copy OK

Track 2

Filename C:\My Documents\My FLAC\VA - Platinum Soul Legends 1960-1975 (3CD) (2002) [FLAC] {Warner Strategic Marketing}\Disc 3\02 - The Isley Brothers - That Lady (Part 1 & 2).wav

Peak level 85.6 %
Extraction speed 11.9 X
Test CRC 387E5734
Copy CRC 387E5734
Accurately ripped (confidence 6) [28983C9C] (AR v2)
Copy OK

Track 3

Filename C:\My Documents\My FLAC\VA - Platinum Soul Legends 1960-1975 (3CD) (2002) [FLAC] {Warner Strategic Marketing}\Disc 3\03 - The O'Jays - Love Train.wav

Peak level 86.0 %
Extraction speed 12.8 X
Test CRC 354F075D
Copy CRC 354F075D
Accurately ripped (confidence 6) [4C26E47B] (AR v2)
Copy OK

Track 4

Filename C:\My Documents\My FLAC\VA - Platinum Soul Legends 1960-1975 (3CD) (2002) [FLAC] {Warner Strategic Marketing}\Disc 3\04 - The Temptations - Papa Was A Rollin' Stone.wav

Peak level 84.5 %
Extraction speed 14.0 X
Test CRC 6EA0CC31
Copy CRC 6EA0CC31
Accurately ripped (confidence 6) [544BAA21] (AR v2)
Copy OK

Track 5

Filename C:\My Documents\My FLAC\VA - Platinum Soul Legends 1960-1975 (3CD) (2002) [FLAC] {Warner Strategic Marketing}\Disc 3\05 - The Spinners - Could It Be I'm Falling In Love.wav

Peak level 91.0 %
Extraction speed 15.1 X
Test CRC 8DBC0CFD
Copy CRC 8DBC0CFD
Accurately ripped (confidence 6) [D7D38E5D] (AR v2)
Copy OK

Track 6

Filename C:\My Documents\My FLAC\VA - Platinum Soul Legends 1960-1975 (3CD) (2002) [FLAC] {Warner Strategic Marketing}\Disc 3\06 - Jean Knight - Mr. Big Stuff.wav

Peak level 84.6 %
Extraction speed 15.8 X
Test CRC 5D170A15
Copy CRC 5D170A15
Accurately ripped (confidence 7) [9C77D959] (AR v2)
Copy OK

Track 7

Filename C:\My Documents\My FLAC\VA - Platinum Soul Legends 1960-1975 (3CD) (2002) [FLAC] {Warner Strategic Marketing}\Disc 3\07 - Millie Jackson - (If Loving You Is Wrong) I Don't Want To Be Right.wav

Pre-gap length 0:00:00.05

Peak level 84.0 %
Extraction speed 16.4 X
Test CRC 13A79B5F
Copy CRC 13A79B5F
Accurately ripped (confidence 6) [D404EA3D] (AR v2)
Copy OK

Track 8

Filename C:\My Documents\My FLAC\VA - Platinum Soul Legends 1960-1975 (3CD) (2002) [FLAC] {Warner Strategic Marketing}\Disc 3\08 - Major Harris - Love Won't Let Me Wait.wav

Peak level 85.4 %
Extraction speed 17.2 X
Test CRC F37BB38C
Copy CRC F37BB38C
Accurately ripped (confidence 7) [7E6ED16D] (AR v2)
Copy OK

Track 9

Filename C:\My Documents\My FLAC\VA - Platinum Soul Legends 1960-1975 (3CD) (2002) [FLAC] {Warner Strategic Marketing}\Disc 3\09 - Al Green - Let's Stay Together.wav

Peak level 87.2 %
Extraction speed 17.9 X
Test CRC 324B3649
Copy CRC 324B3649
Accurately ripped (confidence 6) [69D032CA] (AR v2)
Copy OK

Track 10

Filename C:\My Documents\My FLAC\VA - Platinum Soul Legends 1960-1975 (3CD) (2002) [FLAC] {Warner Strategic Marketing}\Disc 3\10 - Gladys Knight & The Pips - Help Me Make It Through The Night.wav

Pre-gap length 0:00:00.30

Peak level 86.5 %
Extraction speed 18.6 X
Test CRC B238BF70
Copy CRC B238BF70
Accurately ripped (confidence 6) [E4E914E1] (AR v2)
Copy OK

Track 11

Filename C:\My Documents\My FLAC\VA - Platinum Soul Legends 1960-1975 (3CD) (2002) [FLAC] {Warner Strategic Marketing}\Disc 3\11 - The Chi-Lites - Oh Girl.wav

Pre-gap length 0:00:00.47

Peak level 86.3 %
Extraction speed 18.5 X
Test CRC B5E327A7
Copy CRC B5E327A7
Accurately ripped (confidence 6) [8A49D2C0] (AR v2)
Copy OK

Track 12

Filename C:\My Documents\My FLAC\VA - Platinum Soul Legends 1960-1975 (3CD) (2002) [FLAC] {Warner Strategic Marketing}\Disc 3\12 - Billy Paul - Me & Mrs. Jones.wav

Peak level 99.8 %
Extraction speed 19.4 X
Test CRC FAB4FFA0
Copy CRC FAB4FFA0
Accurately ripped (confidence 6) [02019EE4] (AR v2)
Copy OK

Track 13

Filename C:\My Documents\My FLAC\VA - Platinum Soul Legends 1960-1975 (3CD) (2002) [FLAC] {Warner Strategic Marketing}\Disc 3\13 - Bill Withers - Use Me.wav

Peak level 97.7 %
Extraction speed 20.3 X
Test CRC 047E1DB2
Copy CRC 047E1DB2
Accurately ripped (confidence 7) [26FB1653] (AR v2)
Copy OK

Track 14

Filename C:\My Documents\My FLAC\VA - Platinum Soul Legends 1960-1975 (3CD) (2002) [FLAC] {Warner Strategic Marketing}\Disc 3\14 - Blue Magic - Sideshow.wav

Peak level 85.9 %
Extraction speed 20.9 X
Test CRC 8BAD69B5
Copy CRC 8BAD69B5
Accurately ripped (confidence 7) [4903F649] (AR v2)
Copy OK

Track 15

Filename C:\My Documents\My FLAC\VA - Platinum Soul Legends 1960-1975 (3CD) (2002) [FLAC] {Warner Strategic Marketing}\Disc 3\15 - Shirley Brown - Woman To Woman.wav

Peak level 99.8 %
Extraction speed 21.4 X
Test CRC 57CC669F
Copy CRC 57CC669F
Accurately ripped (confidence 7) [C585F37E] (AR v2)
Copy OK

Track 16

Filename C:\My Documents\My FLAC\VA - Platinum Soul Legends 1960-1975 (3CD) (2002) [FLAC] {Warner Strategic Marketing}\Disc 3\16 - Bloodstone - Natural High.wav

Peak level 85.9 %
Extraction speed 22.0 X
Test CRC 38D7BCFD
Copy CRC 38D7BCFD
Accurately ripped (confidence 7) [3A266400] (AR v2)
Copy OK

Track 17

Filename C:\My Documents\My FLAC\VA - Platinum Soul Legends 1960-1975 (3CD) (2002) [FLAC] {Warner Strategic Marketing}\Disc 3\17 - Kool & The Gang - Hollywood Swinging.wav

Pre-gap length 0:00:00.23

Peak level 99.8 %
Extraction speed 22.6 X
Test CRC B4B7AABE
Copy CRC B4B7AABE
Accurately ripped (confidence 7) [C8C707FB] (AR v2)
Copy OK

Track 18

Filename C:\My Documents\My FLAC\VA - Platinum Soul Legends 1960-1975 (3CD) (2002) [FLAC] {Warner Strategic Marketing}\Disc 3\18 - James Brown - The Payback.wav

Peak level 86.8 %
Extraction speed 23.0 X
Test CRC F4D40923
Copy CRC F4D40923
Accurately ripped (confidence 7) [5B8214CB] (AR v2)
Copy OK

Track 19

Filename C:\My Documents\My FLAC\VA - Platinum Soul Legends 1960-1975 (3CD) (2002) [FLAC] {Warner Strategic Marketing}\Disc 3\19 - Johnny Bristol - Hang On In There Baby.wav

Timing problem 0:01:26

Peak level 95.5 %
Extraction speed 22.1 X
Test CRC E5371EFE
Copy CRC E5371EFE
Accurately ripped (confidence 6) [877B9BB2] (AR v2)
Copy finished

Track 20

Filename C:\My Documents\My FLAC\VA - Platinum Soul Legends 1960-1975 (3CD) (2002) [FLAC] {Warner Strategic Marketing}\Disc 3\20 - William DeVaughn - Be Thankful For What You Got.wav

Pre-gap length 0:00:00.48

Peak level 68.4 %
Extraction speed 23.4 X
Test CRC 98428CF1
Copy CRC 98428CF1
Accurately ripped (confidence 6) [53D7E5EB] (AR v2)
Copy OK


All tracks accurately ripped

No errors occurred

End of status report

–– CUETools DB Plugin V2.1.6

[CTDB TOCID: LcJXS4daL5SCvTsaiDlT2uz6wjQ-] found
Submit result: LcJXS4daL5SCvTsaiDlT2uz6wjQ- has been confirmed
Track | CTDB Status
1 | (18/18) Accurately ripped
2 | (18/18) Accurately ripped
3 | (18/18) Accurately ripped
4 | (18/18) Accurately ripped
5 | (18/18) Accurately ripped
6 | (18/18) Accurately ripped
7 | (18/18) Accurately ripped
8 | (17/18) Accurately ripped
9 | (18/18) Accurately ripped
10 | (18/18) Accurately ripped
11 | (18/18) Accurately ripped
12 | (18/18) Accurately ripped
13 | (18/18) Accurately ripped
14 | (18/18) Accurately ripped
15 | (18/18) Accurately ripped
16 | (18/18) Accurately ripped
17 | (17/18) Accurately ripped
18 | (18/18) Accurately ripped
19 | (18/18) Accurately ripped
20 | (18/18) Accurately ripped


==== Log checksum 67EEB9199154922AC7D99E91FC76FEC9934FE55F1302C6E6E35E4FC69E2B56DC ====


VA - Platinum Soul Legends 1960-1975 (3CD) (2002) {Warner Strategic Marketing}