Subcategories
Tags
Language
Tags

Plaid - Not For Threes (1997) {1998 Nothing}

Posted By: TestTickles
Plaid - Not For Threes (1997) {1998 Nothing}

Plaid - Not For Threes (1997) {1998 Nothing}
EAC Rip | FLAC with CUE and LOG | scans | 410 mb
MP3 CBR 320 kbps | RAR | 162 mb
Genre: electronic, leftfield, techno, IDM, ambient

Not For Threes is the 1997 album by London duo Ed Handley and Andy Turner known as Plaid. This was released on Trent Reznor's nothing label in 1998, distributed by Warp.

Plaid - Not For Threes (1997) {1998 Nothing}

01. Abla Eedio (7:56)
02. Kortisin (5:23)
03. Headspin (5:34)
04. Myopia (4:32)
05. Lat (0:46)
06. Extork (4:11)
07. Prague Radio (4:46)
08. Fer (4:35)
09. Ladyburst (4:19)
10. Rakimou (6:02)
11. Seph (1:36)
12. Lilith (4:38)
13. Forever (1:16)
14. Getting (2:55)
15. Milh (5:24)
16. Undoneson (4:16)
17. Spudink (4:44)

Exact Audio Copy V0.99 prebeta 4 from 23. January 2008

EAC extraction logfile from 9. July 2010, 12:18

Plaid / Not For Threes

Used drive : TSSTcorpCD/DVDW SH-W162Z Adapter: 5 ID: 0

Read mode : Secure
Utilize accurate stream : Yes
Defeat audio cache : Yes
Make use of C2 pointers : No

Read offset correction : 6
Overread into Lead-In and Lead-Out : No
Fill up missing offset samples with silence : Yes
Delete leading and trailing silent blocks : No
Null samples used in CRC calculations : Yes
Used interface : Native Win32 interface for Win NT & 2000
Gap handling : Appended to previous track

Used output format : User Defined Encoder
Selected bitrate : 224 kBit/s
Quality : High
Add ID3 tag : No
Command line compressor : C:\Program Files\Exact Audio Copy\Flac\flac.exe
Additional command line options : -V -8 -T "artist=%a" -T "title=%t" -T "album=%g" -T "date=%y" -T "tracknumber=%n" -T "genre=%m" %s


TOC of the extracted CD

Track | Start | Length | Start sector | End sector
––––––––––––––––––––––––––––-
1 | 0:00.00 | 7:56.30 | 0 | 35729
2 | 7:56.30 | 5:23.57 | 35730 | 60011
3 | 13:20.12 | 5:34.63 | 60012 | 85124
4 | 18:55.00 | 4:32.37 | 85125 | 105561
5 | 23:27.37 | 0:46.40 | 105562 | 109051
6 | 24:14.02 | 4:11.25 | 109052 | 127901
7 | 28:25.27 | 4:45.73 | 127902 | 149349
8 | 33:11.25 | 4:35.45 | 149350 | 170019
9 | 37:46.70 | 4:19.47 | 170020 | 189491
10 | 42:06.42 | 6:02.55 | 189492 | 216696
11 | 48:09.22 | 1:36.65 | 216697 | 223961
12 | 49:46.12 | 4:38.65 | 223962 | 244876
13 | 54:25.02 | 1:16.43 | 244877 | 250619
14 | 55:41.45 | 2:55.47 | 250620 | 263791
15 | 58:37.17 | 5:25.05 | 263792 | 288171
16 | 64:02.22 | 4:16.28 | 288172 | 307399
17 | 68:18.50 | 4:44.15 | 307400 | 328714


Track 1

Filename C:\cuntfist\FLAC\Plaid - Not For Threes (1997) [FLAC] {1998 Nothing, Warp}\01 - Abla Eedio.wav

Pre-gap length 0:00:02.00

Peak level 91.8 %
Track quality 100.0 %
Test CRC 1CB0EF67
Copy CRC 1CB0EF67
Accurately ripped (confidence 11) [019A8B47]
Copy OK

Track 2

Filename C:\cuntfist\FLAC\Plaid - Not For Threes (1997) [FLAC] {1998 Nothing, Warp}\02 - Kortisin.wav

Peak level 91.8 %
Track quality 99.9 %
Test CRC 37271B9F
Copy CRC 37271B9F
Accurately ripped (confidence 11) [3AA535A8]
Copy OK

Track 3

Filename C:\cuntfist\FLAC\Plaid - Not For Threes (1997) [FLAC] {1998 Nothing, Warp}\03 - Headspin.wav

Peak level 91.8 %
Track quality 100.0 %
Test CRC 3C58E990
Copy CRC 3C58E990
Accurately ripped (confidence 11) [C1F9C5AC]
Copy OK

Track 4

Filename C:\cuntfist\FLAC\Plaid - Not For Threes (1997) [FLAC] {1998 Nothing, Warp}\04 - Myopia.wav

Peak level 91.8 %
Track quality 100.0 %
Test CRC 6D423385
Copy CRC 6D423385
Accurately ripped (confidence 11) [AB9FDC37]
Copy OK

Track 5

Filename C:\cuntfist\FLAC\Plaid - Not For Threes (1997) [FLAC] {1998 Nothing, Warp}\05 - Lat.wav

Peak level 91.8 %
Track quality 100.0 %
Test CRC 4A4C5127
Copy CRC 4A4C5127
Accurately ripped (confidence 11) [A5194C6A]
Copy OK

Track 6

Filename C:\cuntfist\FLAC\Plaid - Not For Threes (1997) [FLAC] {1998 Nothing, Warp}\06 - Extork.wav

Peak level 91.8 %
Track quality 100.0 %
Test CRC 511C158F
Copy CRC 511C158F
Accurately ripped (confidence 10) [5558B3D2]
Copy OK

Track 7

Filename C:\cuntfist\FLAC\Plaid - Not For Threes (1997) [FLAC] {1998 Nothing, Warp}\07 - Prague Radio.wav

Peak level 91.8 %
Track quality 100.0 %
Test CRC 659D215A
Copy CRC 659D215A
Accurately ripped (confidence 11) [751C8635]
Copy OK

Track 8

Filename C:\cuntfist\FLAC\Plaid - Not For Threes (1997) [FLAC] {1998 Nothing, Warp}\08 - Fer.wav

Peak level 91.8 %
Track quality 99.9 %
Test CRC 9E2D7B00
Copy CRC 9E2D7B00
Accurately ripped (confidence 11) [62C60FF1]
Copy OK

Track 9

Filename C:\cuntfist\FLAC\Plaid - Not For Threes (1997) [FLAC] {1998 Nothing, Warp}\09 - Ladyburst.wav

Peak level 91.8 %
Track quality 100.0 %
Test CRC 5ADC2249
Copy CRC 5ADC2249
Accurately ripped (confidence 10) [9089B801]
Copy OK

Track 10

Filename C:\cuntfist\FLAC\Plaid - Not For Threes (1997) [FLAC] {1998 Nothing, Warp}\10 - Rakimou.wav

Peak level 91.8 %
Track quality 100.0 %
Test CRC 1DF5CC79
Copy CRC 1DF5CC79
Accurately ripped (confidence 11) [35024F44]
Copy OK

Track 11

Filename C:\cuntfist\FLAC\Plaid - Not For Threes (1997) [FLAC] {1998 Nothing, Warp}\11 - Seph.wav

Peak level 91.8 %
Track quality 100.0 %
Test CRC 83A5B320
Copy CRC 83A5B320
Accurately ripped (confidence 11) [179C875D]
Copy OK

Track 12

Filename C:\cuntfist\FLAC\Plaid - Not For Threes (1997) [FLAC] {1998 Nothing, Warp}\12 - Lilith.wav

Peak level 91.8 %
Track quality 100.0 %
Test CRC 4E9C7525
Copy CRC 4E9C7525
Accurately ripped (confidence 11) [879A9EA6]
Copy OK

Track 13

Filename C:\cuntfist\FLAC\Plaid - Not For Threes (1997) [FLAC] {1998 Nothing, Warp}\13 - Forever.wav

Peak level 91.8 %
Track quality 100.0 %
Test CRC 33CC79CF
Copy CRC 33CC79CF
Accurately ripped (confidence 11) [E8882573]
Copy OK

Track 14

Filename C:\cuntfist\FLAC\Plaid - Not For Threes (1997) [FLAC] {1998 Nothing, Warp}\14 - Getting.wav

Pre-gap length 0:00:01.38

Peak level 91.8 %
Track quality 99.9 %
Test CRC 8E05AB36
Copy CRC 8E05AB36
Accurately ripped (confidence 11) [EB467681]
Copy OK

Track 15

Filename C:\cuntfist\FLAC\Plaid - Not For Threes (1997) [FLAC] {1998 Nothing, Warp}\15 - Milh.wav

Pre-gap length 0:00:01.25

Peak level 91.8 %
Track quality 99.9 %
Test CRC BE39994D
Copy CRC BE39994D
Accurately ripped (confidence 10) [772D1A46]
Copy OK

Track 16

Filename C:\cuntfist\FLAC\Plaid - Not For Threes (1997) [FLAC] {1998 Nothing, Warp}\16 - Undoneson.wav

Pre-gap length 0:00:01.15

Peak level 91.8 %
Track quality 99.9 %
Test CRC 1913BB45
Copy CRC 1913BB45
Accurately ripped (confidence 11) [515D3F54]
Copy OK

Track 17

Filename C:\cuntfist\FLAC\Plaid - Not For Threes (1997) [FLAC] {1998 Nothing, Warp}\17 - Spudink.wav

Peak level 91.8 %
Track quality 100.0 %
Test CRC 4DABF9D7
Copy CRC 4DABF9D7
Accurately ripped (confidence 10) [AF97C5F8]
Copy OK


All tracks accurately ripped

No errors occurred

End of status report


Plaid - Not For Threes (1997) {1998 Nothing}


Thank you to the original uploader.