Subcategories

Paidarion - Behind The Curtains (2011)

Posted By: popsakov
Paidarion - Behind The Curtains (2011)

Paidarion - Behind The Curtains (2011)
EAC Rip | FLAC (Img) + Cue + Log ~ 399 Mb | MP3 CBR320 ~ 145 Mb
Full Scans (JPG, 300 dpi) ~ 68 Mb | RAR 5% Recovery
Progressive Rock, Crossover Prog | Seacrest Oy #SCR-1005

Hailing from Finland is Paidarion, one of the more unique acts on the modern progressive rock scene. Their sound consists of various styles of prog rock, as well as a liberal dosing of jazz, funk, pop, and a host of other genres. Behind the Curtains is their second full-length album, and in spite of its diversity and complex nature, it manages to remain surprisingly accessible and user-friendly. Paidarion have crafted a pretty enjoyable record this time around, and anyone who enjoys the more eclectic side of modern art rock should be sure to give this a listen.
~ J-MAN, Prog Archives

***************

Paidarion - Behind The Curtains (2011)

Paidarion - Behind The Curtains (2011)

Track List:

01. Behind The Curtains [5:17]
02. A Small Wish [7:11]
03. Trapeze [4:35]
04. A Springtime Meadow [3:30]
05. A Vertical Rope [10:02]
06. A Leap into the Unknown [7:01]
07. A Rose in the Sun [4:10]
08. Paidarion [6:28]
09. The Magician's Departure [3:17]
10. The Final Show [8:49]

Personnel:
Jaan Jaanson - guitar
Jan-Olof Strandberg - bass
Kimmo Pörsti - drums
Elina Hautakoski - vocals
Kimmo Tapananinen - keyboards
Risto Salmi - saxophones
Michael Manring - bass (guest)
Steve Unruh - violin (guest)
Bob Price - vocals (guest)
Olli Jaakkola - flute (guest)

Exact Audio Copy V1.3 from 2. September 2016

EAC extraction logfile from 17. June 2017, 19:10

Paidarion / Behind The Curtains

Used drive : ASUS DRW-24B1LT Adapter: 1 ID: 2

Read mode : Secure
Utilize accurate stream : Yes
Defeat audio cache : Yes
Make use of C2 pointers : No

Read offset correction : 6
Overread into Lead-In and Lead-Out : No
Fill up missing offset samples with silence : Yes
Delete leading and trailing silent blocks : No
Null samples used in CRC calculations : Yes
Used interface : Native Win32 interface for Win NT & 2000

Used output format : User Defined Encoder
Selected bitrate : 1024 kBit/s
Quality : High
Add ID3 tag : Yes
Command line compressor : C:\Program Files (x86)\FLAC_1.3.2\win64\flac.exe
Additional command line options : -6 -V -T "ARTIST=%artist%" -T "TITLE=%title%" -T "ALBUM=%albumtitle%" -T "DATE=%year%" -T "TRACKNUMBER=%tracknr%" -T "GENRE=%genre%" -T "COMMENT=ripped by wurensh for rutracker.org" %source% -o %dest%


TOC of the extracted CD

Track | Start | Length | Start sector | End sector
––––––––––––––––––––––––––––-
1 | 0:00.00 | 5:17.07 | 0 | 23781
2 | 5:17.07 | 7:10.48 | 23782 | 56079
3 | 12:27.55 | 4:34.60 | 56080 | 76689
4 | 17:02.40 | 3:30.24 | 76690 | 92463
5 | 20:32.64 | 10:02.04 | 92464 | 137617
6 | 30:34.68 | 7:01.02 | 137618 | 169194
7 | 37:35.70 | 4:09.44 | 169195 | 187913
8 | 41:45.39 | 6:27.74 | 187914 | 217012
9 | 48:13.38 | 3:17.35 | 217013 | 231822
10 | 51:30.73 | 8:48.41 | 231823 | 271463


Range status and errors

Selected range

Filename Y:\EAC\wurensh\Paidarion\Paidarion - Behind The Curtains.wav

Peak level 94.4 %
Extraction speed 8.9 X
Range quality 100.0 %
Test CRC 67DAD0A4
Copy CRC 67DAD0A4
Copy OK

No errors occurred


AccurateRip summary

Track 1 accurately ripped (confidence 3) [CEE37730] (AR v2)
Track 2 accurately ripped (confidence 3) [FE35A2D8] (AR v2)
Track 3 accurately ripped (confidence 3) [B9893EE7] (AR v2)
Track 4 accurately ripped (confidence 3) [EDEE0B02] (AR v2)
Track 5 accurately ripped (confidence 3) [AA2274E3] (AR v2)
Track 6 accurately ripped (confidence 3) [B4C90A2A] (AR v2)
Track 7 accurately ripped (confidence 3) [3EA7D4B2] (AR v2)
Track 8 accurately ripped (confidence 2) [AD85E245] (AR v2)
Track 9 accurately ripped (confidence 3) [87607131] (AR v2)
Track 10 accurately ripped (confidence 3) [B0C13C6B] (AR v2)

All tracks accurately ripped

End of status report

–– CUETools DB Plugin V2.1.6

[CTDB TOCID: fvkbVtY_IkhvwQ47kjn5drMpJV4-] found
Submit result: fvkbVtY_IkhvwQ47kjn5drMpJV4- has been confirmed
Track | CTDB Status
1 | (3/3) Accurately ripped
2 | (3/3) Accurately ripped
3 | (3/3) Accurately ripped
4 | (3/3) Accurately ripped
5 | (3/3) Accurately ripped
6 | (3/3) Accurately ripped
7 | (3/3) Accurately ripped
8 | (3/3) Accurately ripped
9 | (3/3) Accurately ripped
10 | (3/3) Accurately ripped


==== Log checksum 22D713D9222E08F54ABDF19AACDA32D59A96DC3E8E8BDE4DE790C959647796FA ====

foobar2000 1.2.6 / Dynamic Range Meter 1.1.1
log date: 2017-08-10 00:00:49

––––––––––––––––––––––––––––––––––––––––
Analyzed: Paidarion / Behind The Curtains
––––––––––––––––––––––––––––––––––––––––

DR Peak RMS Duration Track
––––––––––––––––––––––––––––––––––––––––
DR10 -0.50 dB -13.05 dB 5:17 01-Behind The Curtains
DR10 -0.50 dB -12.09 dB 7:11 02-A Small Wish
DR9 -0.50 dB -11.21 dB 4:35 03-Trapeze
DR10 -2.56 dB -15.42 dB 3:30 04-A Springtime Meadow
DR8 -0.50 dB -10.76 dB 10:02 05-A Vertical Rope
DR7 -0.50 dB -9.84 dB 7:01 06-A Leap into the Unknown
DR10 -2.38 dB -14.74 dB 4:10 07-A Rose in the Sun
DR9 -0.50 dB -11.78 dB 6:28 08-Paidarion
DR9 -0.50 dB -11.80 dB 3:17 09-The Magician's Departure
DR9 -0.50 dB -11.81 dB 8:49 10-The Final Show
––––––––––––––––––––––––––––––––––––––––

Number of tracks: 10
Official DR value: DR9

Samplerate: 44100 Hz
Channels: 2
Bits per sample: 16
Bitrate: 879 kbps
Codec: FLAC
================================================================================

[CUETools log; Date: 10.08.2017 0:01:49; Version: 2.1.5]
[CTDB TOCID: fvkbVtY_IkhvwQ47kjn5drMpJV4-] found.
Track | CTDB Status
1 | (4/4) Accurately ripped
2 | (4/4) Accurately ripped
3 | (4/4) Accurately ripped
4 | (4/4) Accurately ripped
5 | (4/4) Accurately ripped
6 | (4/4) Accurately ripped
7 | (4/4) Accurately ripped
8 | (4/4) Accurately ripped
9 | (4/4) Accurately ripped
10 | (4/4) Accurately ripped
[AccurateRip ID: 001656eb-00b360c9-8a0e230a] found.
Track [ CRC | V2 ] Status
01 [4c7c2474|cee37730] (0+4/4) Accurately ripped
02 [8786572c|fe35a2d8] (0+4/4) Accurately ripped
03 [899c36f4|b9893ee7] (0+4/4) Accurately ripped
04 [f641b152|edee0b02] (0+4/4) Accurately ripped
05 [b6d628fc|aa2274e3] (0+4/4) Accurately ripped
06 [dc4da3e3|b4c90a2a] (0+4/4) Accurately ripped
07 [42dd4aef|3ea7d4b2] (0+4/4) Accurately ripped
08 [ffa6f781|ad85e245] (0+3/3) Accurately ripped
09 [d8c27744|87607131] (0+4/4) Accurately ripped
10 [52e84c65|b0c13c6b] (0+4/4) Accurately ripped

Track Peak [ CRC32 ] [W/O NULL] [ LOG ]
– 94,4 [67DAD0A4] [8A830F86] CRC32
01 94,4 [D11289B9] [E6E22242]
02 94,4 [962043B1] [C6C9823F]
03 94,4 [95339795] [1F708378]
04 74,4 [77FE0832] [F4F33345]
05 94,4 [612531AA] [901464E5]
06 94,4 [82B8919B] [5623CD0D]
07 76,0 [830AE075] [AC7A57E7]
08 94,4 [CB6EA448] [AFFEEC98]
09 94,4 [88874DEA] [9C782307]
10 94,4 [B261279E] [BFCF589D]

Paidarion - Behind The Curtains (2011)

See also:
Paidarion - Hauras Silta (2009)
Paidarion Finlandia Project - Two Worlds Encounter (2016)

All thanks go to wurensh

>>> My Blog <<<

Download from icerbox.com: