Subcategories

Panhandle - Panhandle (1972) Remastered Reissue 2016

Posted By: Designol
Panhandle - Panhandle (1972) Remastered Reissue 2016

Panhandle - Panhandle (1972) Remastered Reissue 2016
EAC | FLAC | Image (Cue&Log) ~ 255 Mb | Mp3 (CBR320) ~ 118 Mb | Scans included
Classic Rock, Blues-Rock | Label: Prog Temple | # PTCD8052 | Time: 00:35:22

Though producer Rodger Bain is principally known for his influential collaborations with Black Sabbath and other hard rock acts, in 1971 he oversaw this obscure one-off studio project. Featuring (among others) the legendary guitarist Chris Spedding, bassist Herbie Flowers, singer P.P. Arnold, and even Dudley Moore on keyboards, it s a superb set of tough-edged rock and pop standards, and makes its long-overdue CD debut here.

Panhandle - Panhandle (1972) Remastered Reissue 2016


Tracklist:

01. Amoreena (04:29)
02. Mama Told Me Not To Come (02:14)
03. Penthouse Pauper (04:17)
04. Dimples (02:25)
05. Bitch (03:26)
06. I Heard It Through The Grapevine (03:01)
07. Susie-Q (04:28)
08. From The Film Of The Same Name (02:54)
09. Up Around The Bend (02:37)
10. I Wanna Take You Higher (05:25)


Exact Audio Copy V1.1 from 23. June 2015

Отчёт EAC об извлечении, выполненном 10. сентября 2016, 17:05

Panhandle / Panhandle

Дисковод: ASUS DRW-24B3ST Adapter: 0 ID: 0

Режим чтения : Достоверность
Использование точного потока : Да
Отключение кэша аудио : Да
Использование указателей C2 : Нет

Коррекция смещения при чтении : 6
Способность читать области Lead-in и Lead-out : Нет
Заполнение пропущенных сэмплов тишиной : Да
Удаление блоков с тишиной в начале и конце : Нет
При вычислениях CRC использовались нулевые сэмплы : Да
Интерфейс : Установленный внешний ASPI-интерфейс

Выходной формат : Пользовательский кодировщик
Выбранный битрейт : 1024 kBit/s
Качество : Высокий
Добавление ID3-тега : Нет
Утилита сжатия : C:\Program Files (x86)\Exact Audio Copy\FLAC\FLAC.EXE
Дополнительные параметры : -6 -V -T "ARTIST=%artist%" -T "TITLE=%title%" -T "ALBUM=%albumtitle%" -T "DATE=%year%" -T "TRACKNUMBER=%tracknr%" -T "GENRE=%genre%" -T "COMMENT=%comment%" -T "BAND=%albuminterpret%" -T "ALBUMARTIST=%albuminterpret%" -T "COMPOSER=%composer%" %haslyrics%–tag-from-file=LYRICS="%lyricsfile%"%haslyrics% -T "DISCNUMBER=%cdnumber%" -T "TOTALDISCS=%totalcds%" -T "TOTALTRACKS=%numtracks%" %hascover%–picture="%coverfile%"%hascover% %source% -o %dest%


TOC извлечённого CD

Трек | Старт | Длительность | Начальный сектор | Конечный сектор
––––––––––––––––––––––––––––––––––-
1 | 0:00.00 | 4:29.29 | 0 | 20203
2 | 4:29.29 | 2:14.23 | 20204 | 30276
3 | 6:43.52 | 4:17.14 | 30277 | 49565
4 | 11:00.66 | 2:25.69 | 49566 | 60509
5 | 13:26.60 | 3:26.41 | 60510 | 76000
6 | 16:53.26 | 3:01.71 | 76001 | 89646
7 | 19:55.22 | 4:28.55 | 89647 | 109801
8 | 24:24.02 | 2:54.31 | 109802 | 122882
9 | 27:18.33 | 2:37.51 | 122883 | 134708
10 | 29:56.09 | 5:25.74 | 134709 | 159157


Характеристики диапазона извлечения и сообщения об ошибках

Выбранный диапазон

Имя файла C:\Torrents - my\Panhandle - 1972 - Panhandle\Panhandle - Panhandle.wav

Пиковый уровень 94.8 %
Скорость извлечения 7.7 X
Качество диапазона 100.0 %
CRC теста C85FE17F
CRC копии C85FE17F
Копирование… OK

Ошибок не произошло

Конец отчёта

==== Контрольная сумма отчёта 3C27B977F60AE4FF6CE93EEDAC36617159E84E4EE2B1F97243ECF5DCF77078CD ====

foobar2000 1.2 / Dynamic Range Meter 1.1.1
log date: 2016-09-11 15:36:13

––––––––––––––––––––––––––––––––––––––––
Analyzed: Panhandle / Panhandle
––––––––––––––––––––––––––––––––––––––––

DR Peak RMS Duration Track
––––––––––––––––––––––––––––––––––––––––
DR10 -0.49 dB -11.62 dB 4:29 01-Amoreena
DR9 -0.50 dB -10.88 dB 2:14 02-Mama Told Me Not To Come
DR9 -0.62 dB -11.35 dB 4:17 03-Penthouse Pauper
DR10 -0.71 dB -12.15 dB 2:26 04-Dimples
DR9 -0.50 dB -10.51 dB 3:27 05-Bitch
DR10 -0.60 dB -12.08 dB 3:02 06-I Heard It Through The Grapevine
DR10 -0.46 dB -12.05 dB 4:29 07-Susie-Q
DR11 -0.50 dB -16.51 dB 2:54 08-From The Film Of The Same Name
DR9 -0.51 dB -11.10 dB 2:38 09-Up Around The Bend
DR9 -0.62 dB -11.28 dB 5:26 10-I Wanna Take You Higher
––––––––––––––––––––––––––––––––––––––––

Number of tracks: 10
Official DR value: DR9

Samplerate: 44100 Hz
Channels: 2
Bits per sample: 16
Bitrate: 861 kbps
Codec: FLAC
================================================================================

Panhandle - Panhandle (1972) Remastered Reissue 2016

Panhandle - Panhandle (1972) Remastered Reissue 2016

All thanks to original releaser - Копысов

More interesting music in My Blog