Subcategories

Panic! At The Disco - Vices & Virtues (2011) Japanese Edition

Posted By: Designol
Panic! At The Disco - Vices & Virtues (2011) Japanese Edition

Panic! At The Disco - Vices & Virtues (2011) Japanese Edition
EAC | FLAC | Image (Cue&Log) ~ 418 Mb | Mp3 (CBR320) ~ 147 Mb | Scans included
Alternative Pop/Rock, Emo-Pop, Pop-Punk | Label: Warner | # WPCR-14090 | 00:53:51

Panic! At The Disco, the platinum-selling and Grammy-nominated group from Las Vegas, NV, is back and in better shape than ever with their hugely anticipated third studio album, Vices & Virtues. Two members lighter, the group is looking to stave off rumors of their disbanding by showing the world they are very much in the picture, and ready to take the world on once again. Based on the energy and response from their sold-out album preview show in New York, it seems Panic! is going to do just that. Japanese pressing includes five bonus tracks.

Reduced to a duo of Brendon Urie and Spencer Smith, neither of whom were primary songwriters during the band’s early years, Panic at the Disco pick up the thread they started with their skewed Beatlesque sophomore set, Pretty. Odd., and turn Vices & Virtues into a curious little nesting doll of an album. Elements of the band’s energetic emo are here, but it’s only one bit on a record that follows the kitchen sink aesthetic of Pretty. Odd., one where the production is too restless to sit still for more than a couple of bars. The keystone here isn’t so much the ‘60s as it is ‘80s new wave with synths and echoed guitars uncannily recalling the glory days of 1983, but Panic at the Disco’s approach is distinctly modern, letting the past intermingle with the present so it all creates a Day-Glo digital collage. Often, the individual pieces of this patchwork pop are more captivating than the overall image, yet there’s still an undeniable appeal to Urie and Smith’s crazed earnest energy; they may not know where they’re going but they know all the different routes to get there.

Review by Stephen Thomas Erlewine, Allmusic.com

Panic! At The Disco at Allmusic
Panic! At The Disco Website
Panic! At The Disco at Wiki

Tracklist:

01. The Ballad Of Mona Lisa (03:46)
02. Let's Kill Tonight (03:33)
03. Hurricane (04:25)
04. Memories (03:25)
05. Trade Mistakes (03:36)
06. Ready To Go (Get Me Out Of My Mind) (03:37)
07. Always (02:33)
08. The Calendar (04:43)
09. Sarah Smiles (03:33)
10. Nearly Witches (Ever Since We Met…) (04:16)
11. Kaleidoscope Eyes (Bonus Track) (03:20)
12. Stall Me (Bonus Track) (03:08)
13. Oh Glory (Demo) (Bonus Track) (03:01)
14. I Wanna Be Free (Bonus Track) (02:44)
15. Turn Off The Lights (Bonus Track) (03:59)


Exact Audio Copy V0.99 prebeta 5 from 4. May 2009

EAC extraction logfile from 15. August 2011, 16:07

Panic! At The Disco / Vices & Virtues (Japan CD)

Used drive : Optiarc DVD RW AD-5200A Adapter: 0 ID: 0

Read mode : Secure
Utilize accurate stream : Yes
Defeat audio cache : Yes
Make use of C2 pointers : No

Read offset correction : 48
Overread into Lead-In and Lead-Out : No
Fill up missing offset samples with silence : Yes
Delete leading and trailing silent blocks : No
Null samples used in CRC calculations : Yes
Used interface : Native Win32 interface for Win NT & 2000

Used output format : User Defined Encoder
Selected bitrate : 128 kBit/s
Quality : High
Add ID3 tag : No
Command line compressor : C:\Program Files\Exact Audio Copy\Flac\flac.exe
Additional command line options : -8 -V %s


TOC of the extracted CD

Track | Start | Length | Start sector | End sector
––––––––––––––––––––––––––––-
1 | 0:00.00 | 3:46.51 | 0 | 17000
2 | 3:46.51 | 3:33.39 | 17001 | 33014
3 | 7:20.15 | 4:25.25 | 33015 | 52914
4 | 11:45.40 | 3:25.40 | 52915 | 68329
5 | 15:11.05 | 3:36.07 | 68330 | 84536
6 | 18:47.12 | 3:37.02 | 84537 | 100813
7 | 22:24.14 | 2:33.49 | 100814 | 112337
8 | 24:57.63 | 4:43.06 | 112338 | 133568
9 | 29:40.69 | 3:33.24 | 133569 | 149567
10 | 33:14.18 | 4:19.04 | 149568 | 168996
11 | 37:33.22 | 3:20.39 | 168997 | 184035
12 | 40:53.61 | 3:09.41 | 184036 | 198251
13 | 44:03.27 | 3:02.64 | 198252 | 211965
14 | 47:06.16 | 2:44.71 | 211966 | 224336
15 | 49:51.12 | 3:59.66 | 224337 | 242327


Range status and errors

Selected range

Filename D:\FLAC [tracks+.cue]\Panic! At The Disco - Vices & Virtues (Japan CD) [WPCR-14090]\Panic! At The Disco - Vices & Virtues (Japan CD).wav

Peak level 100.0 %
Range quality 100.0 %
Test CRC 8406A4C4
Copy CRC 8406A4C4
Copy OK

No errors occurred


AccurateRip summary

Track 1 not present in database
Track 2 not present in database
Track 3 not present in database
Track 4 not present in database
Track 5 not present in database
Track 6 not present in database
Track 7 not present in database
Track 8 not present in database
Track 9 not present in database
Track 10 not present in database
Track 11 not present in database
Track 12 not present in database
Track 13 not present in database
Track 14 not present in database
Track 15 not present in database

None of the tracks are present in the AccurateRip database

End of status report

foobar2000 1.2 / Dynamic Range Meter 1.1.1
log date: 2013-10-11 21:25:31

––––––––––––––––––––––––––––––––––––––––
Analyzed: Panic! At The Disco / Vices & Virtues (Japan CD)
––––––––––––––––––––––––––––––––––––––––

DR Peak RMS Duration Track
––––––––––––––––––––––––––––––––––––––––
DR5 -0.20 dB -7.18 dB 3:47 01-The Ballad Of Mona Lisa
DR5 0.00 dB -7.19 dB 3:34 02-Let's Kill Tonight
DR5 0.00 dB -7.16 dB 4:25 03-Hurricane
DR5 0.00 dB -6.31 dB 3:26 04-Memories
DR5 0.00 dB -6.86 dB 3:36 05-Trade Mistakes
DR5 0.00 dB -7.37 dB 3:37 06-Ready To Go (Get Me Out Of My Mind)
DR8 -0.10 dB -9.41 dB 2:34 07-Always
DR5 0.00 dB -7.56 dB 4:43 08-The Calendar
DR5 0.00 dB -6.53 dB 3:33 09-Sarah Smiles
DR4 0.00 dB -7.38 dB 4:19 10-Nearly Witches (Ever Since We Met…)
DR5 -0.22 dB -6.59 dB 3:21 11-Kaleidoscope Eyes (Bonus Track)
DR6 0.00 dB -6.29 dB 3:10 12-Stall Me (Bonus Track)
DR5 -0.44 dB -6.77 dB 3:03 13-Oh Glory (Demo) (Bonus Track)
DR5 -0.47 dB -6.61 dB 2:45 14-I Wanna Be Free (Bonus Track)
DR5 -0.43 dB -6.72 dB 4:00 15-Turn Off The Lights (Bonus Track)
––––––––––––––––––––––––––––––––––––––––

Number of tracks: 15
Official DR value: DR5

Samplerate: 44100 Hz
Channels: 2
Bits per sample: 16
Bitrate: 1023 kbps
Codec: FLAC
================================================================================

Panic! At The Disco - Vices & Virtues (2011) Japanese Edition

Panic! At The Disco - Vices & Virtues (2011) Japanese Edition

All thanks to original releaser - anderson.90

More interesting music in My Blog