Subcategories

Paolo Fresu & Omar Sosa - Eros (2016) {Tūk Music}

Posted By: tiburon
Paolo Fresu & Omar Sosa - Eros (2016) {Tūk Music}

Paolo Fresu & Omar Sosa - Eros (2016) {Tūk Music}
EAC 1.0b3 | FLAC tracks level 8 | Cue+Log+M3u | Full Scans 600dpi | 506MB + 3% Recovery
Genre: Jazz, Fusion, Ethnic Fusion
Paolo Fresu & Omar Sosa - Eros (2016) {Tūk Music}

While the connection between Cuban pianist Omar Sosa and Italian trumpeter Paolo Fresu was established back in 2006, their partnership truly blossomed with Alma (Ota Music, 2012), a beauty of an album with a soft sell approach. That record—quite possibly the most moving item in either man's discography—prioritized heart over all else, and this follow-up date follows suit.
Track List
01. Teardrop / Ya Habibi
02. Sensuousness
03. Zeus' Desire
04. Brezza del Verano
05. My Soul, My Spirit
06. La Llamada
07. What Is Inside / Himeros
08. Who Wu
09. Eros mediterraneo
10. Fradelo
11. What Lies Ahead
12. Why

musicians
Paolo Fresu - trumpet, flugelhorn, multi-effects, percussion
Omar Sosa - acoustic piano, keys, percussion, vocals
with:
Natacha Atlas - voice
Jaques Morelenbaum - cello
Quartetto Alborada:
Anton Berovski - violin
Sonia Peana - violin
Nico Ciricugno - viola
Piero Salvatori - cello

Produced by Paolo Fresu & Omar Sosa


Exact Audio Copy V1.0 beta 3 from 29. August 2011

EAC extraction logfile from 24. October 2016, 16:54

Paolo Fresu, Omar Sosa, Natacha Atlas, Jaques Morelenbaum / Eros

Used drive : TSSTcorpCDDVDW SE-218CB Adapter: 1 ID: 0

Read mode : Secure
Utilize accurate stream : Yes
Defeat audio cache : Yes
Make use of C2 pointers : No

Read offset correction : 6
Overread into Lead-In and Lead-Out : No
Fill up missing offset samples with silence : Yes
Delete leading and trailing silent blocks : No
Null samples used in CRC calculations : Yes
Used interface : Native Win32 interface for Win NT & 2000
Gap handling : Appended to previous track

Used output format : User Defined Encoder
Selected bitrate : 1024 kBit/s
Quality : High
Add ID3 tag : No
Command line compressor : C:\Program Files (x86)\Exact Audio Copy\Flac\flac.exe
Additional command line options : -8 -V -T "ARTIST=%artist%" -T "TITLE=%title%" -T "ALBUM=%albumtitle%" -T "DATE=%year%" -T "TRACKNUMBER=%tracknr%" -T "GENRE=%genre%" -T "PERFORMER=%albuminterpret%" -T "COMPOSER=%composer%" %haslyrics%–tag-from-file=LYRICS="%lyricsfile%"%haslyrics% -T "ALBUMARTIST=%albumartist%" -T "DISCNUMBER=%cdnumber%" -T "TOTALDISCS=%totalcds%" -T "TOTALTRACKS=%numtracks%" -T "COMMENT=%comment%" %source% -o %dest%


TOC of the extracted CD

Track | Start | Length | Start sector | End sector
––––––––––––––––––––––––––––-
1 | 0:00.00 | 7:27.51 | 0 | 33575
2 | 7:27.51 | 4:02.06 | 33576 | 51731
3 | 11:29.57 | 3:45.67 | 51732 | 68673
4 | 15:15.49 | 5:31.68 | 68674 | 93566
5 | 20:47.42 | 2:37.21 | 93567 | 105362
6 | 23:24.63 | 5:45.51 | 105363 | 131288
7 | 29:10.39 | 5:39.74 | 131289 | 156787
8 | 34:50.38 | 3:43.58 | 156788 | 173570
9 | 38:34.21 | 7:28.49 | 173571 | 207219
10 | 46:02.70 | 3:24.33 | 207220 | 222552
11 | 49:27.28 | 3:07.37 | 222553 | 236614
12 | 52:34.65 | 17:13.15 | 236615 | 314104


Track 1

Filename C:\EAC\Paolo Fresu, Omar Sosa, Natacha Atlas, Jaques Morelenbaum - Eros - 2016 - FLAC - CD\01. Teardrop ° Ya Habibi.wav

Pre-gap length 0:00:02.00

Peak level 97.3 %
Extraction speed 2.9 X
Track quality 100.0 %
Test CRC 7E97C786
Copy CRC 7E97C786
Accurately ripped (confidence 3) [0D4AB757] (AR v2)
Copy OK

Track 2

Filename C:\EAC\Paolo Fresu, Omar Sosa, Natacha Atlas, Jaques Morelenbaum - Eros - 2016 - FLAC - CD\02. Sensuousness.wav

Pre-gap length 0:00:02.00

Peak level 96.8 %
Extraction speed 3.2 X
Track quality 100.0 %
Test CRC 5811B43A
Copy CRC 5811B43A
Accurately ripped (confidence 3) [F00C5E91] (AR v2)
Copy OK

Track 3

Filename C:\EAC\Paolo Fresu, Omar Sosa, Natacha Atlas, Jaques Morelenbaum - Eros - 2016 - FLAC - CD\03. Zeus' Desires.wav

Pre-gap length 0:00:02.00

Peak level 98.7 %
Extraction speed 3.4 X
Track quality 100.0 %
Test CRC 77D1D48E
Copy CRC 77D1D48E
Accurately ripped (confidence 3) [2E5F8588] (AR v2)
Copy OK

Track 4

Filename C:\EAC\Paolo Fresu, Omar Sosa, Natacha Atlas, Jaques Morelenbaum - Eros - 2016 - FLAC - CD\04. Brezza del Verano.wav

Pre-gap length 0:00:02.00

Peak level 97.5 %
Extraction speed 3.8 X
Track quality 100.0 %
Test CRC 74AD8B97
Copy CRC 74AD8B97
Accurately ripped (confidence 3) [1A251824] (AR v2)
Copy OK

Track 5

Filename C:\EAC\Paolo Fresu, Omar Sosa, Natacha Atlas, Jaques Morelenbaum - Eros - 2016 - FLAC - CD\05. My Soul, My Spirit.wav

Pre-gap length 0:00:02.00

Peak level 96.7 %
Extraction speed 3.5 X
Track quality 100.0 %
Test CRC DC19FA70
Copy CRC DC19FA70
Accurately ripped (confidence 3) [A69E127C] (AR v2)
Copy OK

Track 6

Filename C:\EAC\Paolo Fresu, Omar Sosa, Natacha Atlas, Jaques Morelenbaum - Eros - 2016 - FLAC - CD\06. La Llamada.wav

Pre-gap length 0:00:01.98

Peak level 96.9 %
Extraction speed 4.2 X
Track quality 100.0 %
Test CRC F433BF23
Copy CRC F433BF23
Accurately ripped (confidence 3) [0C8174BC] (AR v2)
Copy OK

Track 7

Filename C:\EAC\Paolo Fresu, Omar Sosa, Natacha Atlas, Jaques Morelenbaum - Eros - 2016 - FLAC - CD\07. What Is Inside ° Himeros.wav

Pre-gap length 0:00:02.00

Peak level 100.0 %
Extraction speed 4.4 X
Track quality 100.0 %
Test CRC EF73F314
Copy CRC EF73F314
Accurately ripped (confidence 3) [1256BD27] (AR v2)
Copy OK

Track 8

Filename C:\EAC\Paolo Fresu, Omar Sosa, Natacha Atlas, Jaques Morelenbaum - Eros - 2016 - FLAC - CD\08. Who Wu.wav

Pre-gap length 0:00:02.00

Peak level 96.6 %
Extraction speed 3.5 X
Track quality 99.9 %
Test CRC 7DD355A1
Copy CRC 7DD355A1
Accurately ripped (confidence 3) [8B512364] (AR v2)
Copy OK

Track 9

Filename C:\EAC\Paolo Fresu, Omar Sosa, Natacha Atlas, Jaques Morelenbaum - Eros - 2016 - FLAC - CD\09. Eros Mediterraneo.wav

Pre-gap length 0:00:02.00

Peak level 99.6 %
Extraction speed 4.8 X
Track quality 100.0 %
Test CRC 10313BBF
Copy CRC 10313BBF
Accurately ripped (confidence 3) [0FDC5F0E] (AR v2)
Copy OK

Track 10

Filename C:\EAC\Paolo Fresu, Omar Sosa, Natacha Atlas, Jaques Morelenbaum - Eros - 2016 - FLAC - CD\10. Fradelo.wav

Pre-gap length 0:00:02.00

Peak level 97.8 %
Extraction speed 4.5 X
Track quality 100.0 %
Test CRC A7FD2088
Copy CRC A7FD2088
Accurately ripped (confidence 3) [BFBBFE69] (AR v2)
Copy OK

Track 11

Filename C:\EAC\Paolo Fresu, Omar Sosa, Natacha Atlas, Jaques Morelenbaum - Eros - 2016 - FLAC - CD\11. What Lies Ahead.wav

Pre-gap length 0:00:02.00

Peak level 98.2 %
Extraction speed 4.5 X
Track quality 100.0 %
Test CRC 4F8DECCD
Copy CRC 4F8DECCD
Accurately ripped (confidence 3) [9957F250] (AR v2)
Copy OK

Track 12

Filename C:\EAC\Paolo Fresu, Omar Sosa, Natacha Atlas, Jaques Morelenbaum - Eros - 2016 - FLAC - CD\12. Why, Kypris [ghost track].wav

Pre-gap length 0:00:02.00

Peak level 99.3 %
Extraction speed 5.3 X
Track quality 99.9 %
Test CRC EC6778DF
Copy CRC EC6778DF
Accurately ripped (confidence 3) [6A32AE23] (AR v2)
Copy OK


All tracks accurately ripped

No errors occurred

End of status report

==== Log checksum C0E13F89EA37469D4AA112F4E174A7824B5AA1D8D5313FA6819A1677C1228A85 ====


––––––––––––––––––––––––––––––––––––––––
Analyzed: Paolo Fresu & Omar Sosa / Eros
––––––––––––––––––––––––––––––––––––––––

DR Peak RMS Duration Track
––––––––––––––––––––––––––––––––––––––––
DR10 -0.23 dB -12.90 dB 7:28 01-Teardrop + Ya Habibi
DR10 -0.27 dB -14.90 dB 4:02 02-Sensuousness
DR9 -0.11 dB -12.16 dB 3:46 03-Zeus' Desires
DR9 -0.22 dB -11.21 dB 5:32 04-Brezza del Verano
DR11 -0.29 dB -14.92 dB 2:37 05-My Soul, My Spirit
DR9 -0.27 dB -11.78 dB 5:46 06-La Llamada
DR9 0.00 dB -12.86 dB 5:40 07-What Is Inside + Himeros
DR11 -0.30 dB -14.39 dB 3:44 08-Who Wu
DR10 -0.03 dB -12.36 dB 7:29 09-Eros Mediterraneo
DR11 -0.19 dB -14.14 dB 3:24 10-Fradelo
DR10 -0.16 dB -13.70 dB 3:07 11-What Lies Ahead
DR10 -0.06 dB -12.77 dB 17:13 12-Why, with Kypris [ghost track]
––––––––––––––––––––––––––––––––––––––––

Number of tracks: 12
Official DR value: DR10

Samplerate: 44100 Hz
Channels: 2
Bits per sample: 16
Bitrate: 833 kbps
Codec: FLAC
================================================================================

Paolo Fresu & Omar Sosa - Eros (2016) {Tūk Music}
Paolo Fresu & Omar Sosa - Eros (2016) {Tūk Music}
Paolo Fresu & Omar Sosa - Eros (2016) {Tūk Music}


Thanks to the original ripper