Subcategories

Papa Doo Run Run - California Project (1985)

Posted By: popsakov
Papa Doo Run Run - California Project (1985)

Papa Doo Run Run - California Project (1985)
EAC Rip | FLAC (Img) + Cue + Log ~ 243 Mb | MP3 CBR320 ~ 123 Mb
Full Scans | 00:42:33 | RAR 5% Recovery
Pop Rock, Rock & Roll, Sunshine Pop | Telarc #CD-85501

Formed in 1965, the now legendary California band, Papa Doo Run Run, quickly discovered their forte - they sounded like the Beach Boys! That sound led them to surf music icons, Jan & Dean, and from 1976-80 Papa toured North America with the duo. In the 80s Papa graduated from J&D to the Beach Boys, and toured and recorded with members of that band throughout the next 2 decades. The group also had an unprecedented 15-year run as the "Celebrity House Band" at Disneyland from 1975-90! In the mid 80's Papa Doo became the darlings of corporate entertainment, performing at up to 150 corporate events a year! Their fun packed show is still a favorite of dozens of Fortune 500 companies. Their ground breaking CD “California Project” (1985) exploded onto the Billboard Hot 100 Chart at no. 17 and earned the band their second Gold Record and a Grammy Nomination.
Papa Doo Run Run - California Project (1985)


***************

Papa Doo Run Run - California Project (1985)

Papa Doo Run Run - California Project (1985)

Track List:

01. I Get Around [02:28]
02. Wouldn't It Be Nice [02:31]
03. Don't Worry Baby [03:26]
04. California Girls [02:56]
05. Help Me, Rhonda [03:01]
06. Surfer Girl [02:37]
07. Good Vibrations [03:47]
08. Fun, Fun, Fun [02:31]
09. Surfin' U.S.A. [02:31]
10. Warmth of the Sun [03:14]
11. Let Him Run Wild [02:35]
12. In My Room [02:26]
13. Sloop John B. [02:46]
14. God Only Knows [02:51]
15. Barbara Ann [02:58]

Exact Audio Copy V1.1 from 23. June 2015

EAC extraction logfile from 12. August 2016, 20:24

Papa Doo Run Run / California Project

Used drive : PIONEER BD-RW BDR-209D Adapter: 0 ID: 5

Read mode : Secure
Utilize accurate stream : Yes
Defeat audio cache : Yes
Make use of C2 pointers : No

Read offset correction : 667
Overread into Lead-In and Lead-Out : No
Fill up missing offset samples with silence : Yes
Delete leading and trailing silent blocks : No
Null samples used in CRC calculations : Yes
Used interface : Installed external ASPI interface

Used output format : User Defined Encoder
Selected bitrate : 768 kBit/s
Quality : High
Add ID3 tag : No
Command line compressor : C:\Program Files (x86)\Exact Audio Copy\FLAC\FLAC.EXE
Additional command line options : -6 -V -T "ARTIST=%artist%" -T "TITLE=%title%" -T "ALBUM=%albumtitle%" -T "DATE=%year%" -T "TRACKNUMBER=%tracknr%" -T "GENRE=%genre%" -T "COMMENT=%comment%" -T "BAND=%albuminterpret%" -T "ALBUMARTIST=%albuminterpret%" -T "COMPOSER=%composer%" %haslyrics%–tag-from-file=LYRICS="%lyricsfile%"%haslyrics% -T "DISCNUMBER=%cdnumber%" -T "TOTALDISCS=%totalcds%" -T "TOTALTRACKS=%numtracks%" %hascover%–picture="%coverfile%"%hascover% %source% -o %dest%


TOC of the extracted CD

Track | Start | Length | Start sector | End sector
––––––––––––––––––––––––––––-
1 | 0:00.00 | 2:27.70 | 0 | 11094
2 | 2:27.70 | 2:30.30 | 11095 | 22374
3 | 4:58.25 | 3:25.67 | 22375 | 37816
4 | 8:24.17 | 2:55.45 | 37817 | 50986
5 | 11:19.62 | 3:01.00 | 50987 | 64561
6 | 14:20.62 | 2:37.00 | 64562 | 76336
7 | 16:57.62 | 3:46.40 | 76337 | 93326
8 | 20:44.27 | 2:30.35 | 93327 | 104611
9 | 23:14.62 | 2:30.73 | 104612 | 115934
10 | 25:45.60 | 3:13.17 | 115935 | 130426
11 | 28:59.02 | 2:34.30 | 130427 | 142006
12 | 31:33.32 | 2:25.68 | 142007 | 152949
13 | 33:59.25 | 2:45.37 | 152950 | 165361
14 | 36:44.62 | 2:50.35 | 165362 | 178146
15 | 39:35.22 | 2:57.53 | 178147 | 191474


Range status and errors

Selected range

Filename E:\MUSIC\Papa Doo Run Run - California Project.wav

Peak level 100.0 %
Extraction speed 7.7 X
Range quality 100.0 %
Test CRC F8D6FAC7
Copy CRC F8D6FAC7
Copy OK

No errors occurred


AccurateRip summary

Track 1 accurately ripped (confidence 2) [308D909E] (AR v1)
Track 2 accurately ripped (confidence 2) [507C3668] (AR v1)
Track 3 accurately ripped (confidence 2) [B120ADD8] (AR v1)
Track 4 accurately ripped (confidence 3) [17548794] (AR v1)
Track 5 accurately ripped (confidence 2) [6E634216] (AR v1)
Track 6 accurately ripped (confidence 2) [2F2A27E6] (AR v1)
Track 7 accurately ripped (confidence 3) [0886415E] (AR v1)
Track 8 accurately ripped (confidence 2) [D44021E0] (AR v1)
Track 9 accurately ripped (confidence 2) [B0B52940] (AR v1)
Track 10 accurately ripped (confidence 2) [400695E4] (AR v1)
Track 11 accurately ripped (confidence 2) [AFDE35FE] (AR v1)
Track 12 accurately ripped (confidence 2) [1DEF377E] (AR v1)
Track 13 accurately ripped (confidence 2) [9C08AA42] (AR v1)
Track 14 accurately ripped (confidence 2) [F6EFC622] (AR v1)
Track 15 accurately ripped (confidence 2) [88DB1974] (AR v1)

All tracks accurately ripped

End of status report

==== Log checksum 8CF75CD16EDF1118F6097E602FB3BE79F28563E539337EB1EBCBA47D19CBFFFA ====

[CUETools log; Date: 23.08.2016 11:13:29; Version: 2.1.5]
[CTDB TOCID: oigzjan2j61zcphXpYobtUF2hNs-] found.
Track | CTDB Status
1 | (32/32) Accurately ripped
2 | (32/32) Accurately ripped
3 | (32/32) Accurately ripped
4 | (32/32) Accurately ripped
5 | (31/32) Accurately ripped
6 | (32/32) Accurately ripped
7 | (32/32) Accurately ripped
8 | (32/32) Accurately ripped
9 | (32/32) Accurately ripped
10 | (32/32) Accurately ripped
11 | (32/32) Accurately ripped
12 | (32/32) Accurately ripped
13 | (32/32) Accurately ripped
14 | (32/32) Accurately ripped
15 | (31/32) Accurately ripped
[AccurateRip ID: 00177587-010a27a8-c109f90f] found.
Track [ CRC | V2 ] Status
01 [308d909e|dbf32a8d] (02+00/47) Accurately ripped
02 [507c3668|1b3b156f] (02+00/47) Accurately ripped
03 [b120add8|e30c1b3a] (02+00/46) Accurately ripped
04 [17548794|50e29824] (03+00/49) Accurately ripped
05 [6e634216|56891bc9] (02+00/49) Accurately ripped
06 [2f2a27e6|ca8221bb] (02+00/48) Accurately ripped
07 [0886415e|fc77ece9] (03+00/49) Accurately ripped
08 [d44021e0|756b2b98] (02+00/49) Accurately ripped
09 [b0b52940|105ca23e] (02+00/48) Accurately ripped
10 [400695e4|210daeb2] (02+00/48) Accurately ripped
11 [afde35fe|d095f843] (02+00/48) Accurately ripped
12 [1def377e|9a5fb815] (02+00/49) Accurately ripped
13 [9c08aa42|55a929d5] (02+00/48) Accurately ripped
14 [f6efc622|51f4dd9c] (02+00/47) Accurately ripped
15 [88db1974|6cc4c8e2] (02+00/50) Accurately ripped
Offsetted by -925:
01 [b1d1da14] (03/47) Accurately ripped
02 [5a3ac0e6] (03/47) Accurately ripped
03 [3800932a] (03/46) Accurately ripped
04 [63e6aacc] (03/49) Accurately ripped
05 [3770fea6] (03/49) Accurately ripped
06 [ed8c7354] (03/48) Accurately ripped
07 [ae318c74] (03/49) Accurately ripped
08 [d0aea830] (03/49) Accurately ripped
09 [4f911950] (03/48) Accurately ripped
10 [27832e1c] (03/48) Accurately ripped
11 [206e50d8] (03/48) Accurately ripped
12 [b80f4112] (03/49) Accurately ripped
13 [45f26b1a] (03/48) Accurately ripped
14 [07988fd4] (03/47) Accurately ripped
15 [a2a95b82] (03/50) Accurately ripped
Offsetted by -635:
01 [577a0578] (02/47) Accurately ripped
02 [a8d159fa] (02/47) Accurately ripped
03 [5185cbf6] (02/46) Accurately ripped
04 [88c8129c] (02/49) Accurately ripped
05 [d9f71106] (02/49) Accurately ripped
06 [be509308] (02/48) Accurately ripped
07 [7fca0798] (02/49) Accurately ripped
08 [9a7049ba] (02/49) Accurately ripped
09 [15787806] (02/48) Accurately ripped
10 [8a8703ec] (02/48) Accurately ripped
11 [a331ea54] (02/48) Accurately ripped
12 [55ec4d4a] (02/49) Accurately ripped
13 [09c20aaa] (02/48) Accurately ripped
14 [07e87ce0] (02/47) Accurately ripped
15 [89f738f6] (02/50) Accurately ripped
Offsetted by 29:
01 [2784c828] (02/47) Accurately ripped
02 [3ebe78ea] (02/47) Accurately ripped
03 [66e13386] (02/46) Accurately ripped
04 [e7d1785c] (02/49) Accurately ripped
05 [fea3dd86] (03/49) Accurately ripped
06 [440a9178] (02/48) Accurately ripped
07 [9d7be748] (02/49) Accurately ripped
08 [9ba0ffa2] (03/49) Accurately ripped
09 [de18651e] (02/48) Accurately ripped
10 [7d2091ac] (02/48) Accurately ripped
11 [89be9224] (03/48) Accurately ripped
12 [141eebea] (03/49) Accurately ripped
13 [af9d6d6a] (02/48) Accurately ripped
14 [2a2af770] (02/47) Accurately ripped
15 [1ffc7c66] (03/50) Accurately ripped
Offsetted by 45:
01 [d3160148] (03/47) Accurately ripped
02 [9ee3078a] (03/47) Accurately ripped
03 [6139c3e6] (03/46) Accurately ripped
04 [7e280edc] (03/49) Accurately ripped
05 [af54c086] (03/49) Accurately ripped
06 [7bb28518] (03/48) Accurately ripped
07 [0a26be68] (03/49) Accurately ripped
08 [738fd512] (03/49) Accurately ripped
09 [1a7271ae] (03/48) Accurately ripped
10 [610b982c] (03/48) Accurately ripped
11 [ccfc9004] (03/48) Accurately ripped
12 [bf4211aa] (03/49) Accurately ripped
13 [47a8e1ea] (03/48) Accurately ripped
14 [ffd009d0] (03/47) Accurately ripped
15 [6a8a7e06] (03/50) Accurately ripped
Offsetted by 566:
01 [65bed56a] (12/47) Accurately ripped
02 [19896bc4] (12/47) Accurately ripped
03 [691da11c] (11/46) Accurately ripped
04 [5d8b9384] (13/49) Accurately ripped
05 [38d4a036] (13/49) Accurately ripped
06 [7fff7222] (13/48) Accurately ripped
07 [6ca1bb6a] (13/49) Accurately ripped
08 [2ae52002] (13/49) Accurately ripped
09 [87a265de] (13/48) Accurately ripped
10 [7ea09bd4] (13/48) Accurately ripped
11 [3a8f2ad2] (12/48) Accurately ripped
12 [43ea8ee6] (13/49) Accurately ripped
13 [9e9de372] (13/48) Accurately ripped
14 [1c9f3026] (12/47) Accurately ripped
15 [b63a92f0] (14/50) Accurately ripped

Track Peak [ CRC32 ] [W/O NULL] [ LOG ]
– 100,0 [F8D6FAC7] [DDCC1727] CRC32
01 99,0 [A2B8BDFA] [ED7A468E]
02 98,7 [32708242] [1189D86E]
03 79,5 [004427FE] [C2B0D83B]
04 99,1 [0CCD6288] [4A347E25]
05 97,9 [BA5B68B8] [D0E76509]
06 68,6 [6C921207] [6D5B06D8]
07 99,7 [4F91B22E] [A5AF8B17]
08 97,9 [988A471F] [E214B265]
09 98,2 [29EFB0CA] [637C74AF]
10 45,2 [79225250] [2E099772]
11 100,0 [CF4F91BC] [4C88B6B1]
12 39,2 [75DE55A1] [364C412F]
13 98,9 [34825225] [65BDF40A]
14 52,0 [4FD26E58] [BBD31AAE]
15 100,0 [92E44149] [684CBF51]

Papa Doo Run Run - California Project (1985)


All thanks go to the original ripper(s) …

>>> My Blog <<<

DOWNLOAD: