Subcategories

Paradisia - Sound of Freedom (2017)

Posted By: Pisulik
Paradisia - Sound of Freedom (2017)

Paradisia - Sound of Freedom (2017)
EAC Rip | FLAC (Tracks) +cue, log - 297 MB | 00:48:43
Alternative, Folk, Indie Pop | Label: Paradisia

For those that are unfamiliar with Paradisia the exciting and extremely talented independent three-piece formed after The Night VI disbanded a few years ago. The band is currently made up of Sophie-Rose (vocals), Anna (harp) and Kristy (vocals, keyboard) and Sound of Freedom their magnificent debut. The band's name itself is a word they use to describe an idealistic and beautiful aesthetic, a space away from reality to a place that occupies a perfect limbo between this world and a dreamlike utopia. The diversion to a higher sphere that music tends to offer most often; escapism. With relatable lyrics that draw inspiration from personal experiences, Paradisia is a world in to which most can escape.

With influences seemingly tinged from extremely catchy and popular 70s songs in "Idea of You" and "Keep on Preying" all through to anthemic ballads such as "Silent Lover", gob-smacking harmonies in "Tell Me", and some surprising subtle vibes of R&B in "Just Words", it's a release that's impossible not to sing along to. (Not to mention Sophie-Rose arguably also has one of the most distinct and recognisable voices of our generation.) The album in many ways documenting life after a break-up will feel very resonant and real for many listeners. Upbeat one moment, and wistful and downcast the next; it really amazingly captures day-to-day life. Something that really makes this album standout as unique is the reflection and reformation of self-identity.

TRACKLIST

01. Tell Me
02. Warpaint
03. Idea Of You
04. Keep On Preying
05. Her
06. Poison
07. Just Words
08. Dancing In The Dark
09. Silent Lover
10. Something Beautiful
11. Song For You
12. Dreamer

Exact Audio Copy V1.3 from 2. September 2016

EAC extraction logfile from 12. August 2017, 16:44

Paradisia / Sound Of Freedom

Used drive : PLEXTOR DVDR PX-716A Adapter: 1 ID: 0

Read mode : Secure
Utilize accurate stream : Yes
Defeat audio cache : Yes
Make use of C2 pointers : No

Read offset correction : 30
Overread into Lead-In and Lead-Out : Yes
Fill up missing offset samples with silence : Yes
Delete leading and trailing silent blocks : No
Null samples used in CRC calculations : Yes
Used interface : Native Win32 interface for Win NT & 2000
Gap handling : Appended to previous track

Used output format : User Defined Encoder
Selected bitrate : 128 kBit/s
Quality : High
Add ID3 tag : No
Command line compressor : C:\Program Files (x86)\Exact Audio Copy\Flac\flac.exe
Additional command line options : -8 -V -T "ARTIST=%artist%" -T "TITLE=%title%" -T "ALBUM=%albumtitle%" -T "DATE=%year%" -T "TRACKNUMBER=%tracknr%" -T "GENRE=%genre%" -T "PERFORMER=%albuminterpret%" -T "COMPOSER=%composer%" %haslyrics%–tag-from-file=LYRICS="%lyricsfile%"%haslyrics% -T "ALBUMARTIST=%albumartist%" -T "DISCNUMBER=%cdnumber%" -T "TOTALDISCS=%totalcds%" -T "TOTALTRACKS=%numtracks%" -T "COMMENT=%comment%" %source% -o %dest%


TOC of the extracted CD

Track | Start | Length | Start sector | End sector
––––––––––––––––––––––––––––-
1 | 0:00.00 | 2:24.68 | 0 | 10867
2 | 2:24.68 | 3:32.32 | 10868 | 26799
3 | 5:57.25 | 4:07.24 | 26800 | 45348
4 | 10:04.49 | 3:39.44 | 45349 | 61817
5 | 13:44.18 | 3:29.07 | 61818 | 77499
6 | 17:13.25 | 4:00.15 | 77500 | 95514
7 | 21:13.40 | 3:19.15 | 95515 | 110454
8 | 24:32.55 | 4:00.44 | 110455 | 128498
9 | 28:33.24 | 4:50.17 | 128499 | 150265
10 | 33:23.41 | 4:06.41 | 150266 | 168756
11 | 37:30.07 | 5:05.44 | 168757 | 191675
12 | 42:35.51 | 5:44.33 | 191676 | 217508


Track 1

Filename E:\EACRips\01 Tell Me.wav

Pre-gap length 0:00:02.00

Peak level 97.7 %
Extraction speed 6.6 X
Track quality 100.0 %
Test CRC 4AFB6399
Copy CRC 4AFB6399
Track not present in AccurateRip database
Copy OK

Track 2

Filename E:\EACRips\02 Warpaint.wav

Peak level 97.7 %
Extraction speed 7.2 X
Track quality 100.0 %
Test CRC AC45F494
Copy CRC AC45F494
Track not present in AccurateRip database
Copy OK

Track 3

Filename E:\EACRips\03 Idea Of You.wav

Peak level 99.9 %
Extraction speed 7.3 X
Track quality 99.9 %
Test CRC 30312645
Copy CRC 30312645
Track not present in AccurateRip database
Copy OK

Track 4

Filename E:\EACRips\04 Keep On Preying.wav

Peak level 97.7 %
Extraction speed 8.5 X
Track quality 100.0 %
Test CRC 125983AE
Copy CRC 125983AE
Track not present in AccurateRip database
Copy OK

Track 5

Filename E:\EACRips\05 Her.wav

Peak level 99.9 %
Extraction speed 9.1 X
Track quality 100.0 %
Test CRC CDE4152C
Copy CRC CDE4152C
Track not present in AccurateRip database
Copy OK

Track 6

Filename E:\EACRips\06 Poison.wav

Peak level 97.7 %
Extraction speed 9.6 X
Track quality 100.0 %
Test CRC 93972DC2
Copy CRC 93972DC2
Track not present in AccurateRip database
Copy OK

Track 7

Filename E:\EACRips\07 Just Words.wav

Peak level 99.9 %
Extraction speed 8.9 X
Track quality 99.9 %
Test CRC 1FD16C13
Copy CRC 1FD16C13
Track not present in AccurateRip database
Copy OK

Track 8

Filename E:\EACRips\08 Dancing In The Dark.wav

Peak level 99.9 %
Extraction speed 10.5 X
Track quality 100.0 %
Test CRC EB9DE213
Copy CRC EB9DE213
Track not present in AccurateRip database
Copy OK

Track 9

Filename E:\EACRips\09 Silent Lover.wav

Peak level 97.7 %
Extraction speed 11.1 X
Track quality 100.0 %
Test CRC 83B61E1A
Copy CRC 83B61E1A
Track not present in AccurateRip database
Copy OK

Track 10

Filename E:\EACRips\10 Something Beautiful.wav

Peak level 99.9 %
Extraction speed 11.5 X
Track quality 100.0 %
Test CRC 064B4DF6
Copy CRC 064B4DF6
Track not present in AccurateRip database
Copy OK

Track 11

Filename E:\EACRips\11 Song For You.wav

Peak level 99.9 %
Extraction speed 12.1 X
Track quality 100.0 %
Test CRC 2EA6E2C1
Copy CRC 2EA6E2C1
Track not present in AccurateRip database
Copy OK

Track 12

Filename E:\EACRips\12 Dreamer.wav

Peak level 97.7 %
Extraction speed 13.0 X
Track quality 100.0 %
Test CRC FD5BA34A
Copy CRC FD5BA34A
Track not present in AccurateRip database
Copy OK


None of the tracks are present in the AccurateRip database

No errors occurred

End of status report

–– CUETools DB Plugin V2.1.6

[CTDB TOCID: 8ehGB323g2xsjNvUMgaFqZIb218-] found
Submit result: 8ehGB323g2xsjNvUMgaFqZIb218- has been confirmed
Track | CTDB Status
1 | (4/4) Accurately ripped
2 | (4/4) Accurately ripped
3 | (4/4) Accurately ripped
4 | (4/4) Accurately ripped
5 | (4/4) Accurately ripped
6 | (4/4) Accurately ripped
7 | (4/4) Accurately ripped
8 | (4/4) Accurately ripped
9 | (4/4) Accurately ripped
10 | (4/4) Accurately ripped
11 | (4/4) Accurately ripped
12 | (4/4) Accurately ripped


==== Log checksum 735F978393880C804BB2395C8A082DA5098B212DF780A8B7F84EB98934EF6181 ====


All thanks go to the original releaser