Subcategories

Pat Benatar & Neil Giraldo - Live: Summer Vacation Tour Soundtrack (2001)

Posted By: popsakov
Pat Benatar & Neil Giraldo - Live: Summer Vacation Tour Soundtrack (2001)

Pat Benatar & Neil Giraldo - Live: Summer Vacation Tour Soundtrack (2001)
EAC Rip | FLAC (Img) + Cue + Log ~ 538 Mb | MP3 CBR320 ~ 187 Mb
Full Scans (PNG, 400 dpi) ~ 79 Mb | RAR 5% Recovery
Hard Rock, Arena Rock, Soft Rock | Gold Circle Records #GC-50024-2

Just because Pat Benatar's longtime guitarist and husband Neil Giraldo gets top-level billing here doesn't mean anything has really changed. Giraldo has backed her since her heyday and while he may have changed his brand of instrument - it looks like a custom Tele copy, judging by the cover - they still turn out music that is essentially the same as the arena rockers of the early '80s, and Benatar sings it the same fashion as before. Which means that Pat Benatar & Neil Giraldo Live is part of that celebrated tradition, the "greatest hits live" album, and that may not be a surprise since it is subtitled the "Summer Vacation Tour Soundtrack" which kind of implies that it taken from an oldies tour. To their credit, Benatar and Giraldo turn in professional, accomplished performances and the 15-track lineup is rich with hits, but it's still a greatest hits live album - which means it's satisfactory for those that just don't care which version of a hit they get (as long as they get the hits man!), and perhaps of interest to those hardcore fans that want everything their favorite artist has done, but is essentially not of interest to the great majority fans that just want to hear their favorite songs, the way they were originally released.
~ Stephen Thomas Erlewine, All Music

***************

Pat Benatar & Neil Giraldo - Live: Summer Vacation Tour Soundtrack (2001)

Pat Benatar & Neil Giraldo - Live: Summer Vacation Tour Soundtrack (2001)

Track List:

01. Treat Me Right [3:30]
02. I Need A Lover [4:21]
03. We Live For Love [3:54]
04. Girl [4:56]
05. I Won't [4:59]
06. We Belong [4:22]
07. Love Is A Battlefield [5:37]
08. True Love [10:38]
09. Out Of The Ruins [3:48]
10. Hell Is For Children [4:42]
11. HeartBreaker [4:39]
12. Please Don't Leave Me [5:42]
13. Promises In The Dark [7:09]
14. Hit Me With Your Best Shot [3:14]
15. All Fired Up [6:18]

Exact Audio Copy V1.0 beta 3 from 29. August 2011

EAC extraction logfile from 25. January 2014, 14:17

Pat Benatar / Neil Giraldo / Live - Summer Vacation Tour Soun

Used drive : SAMSUNG DVD-ROM SD-616E Adapter: 3 ID: 0

Read mode : Secure
Utilize accurate stream : Yes
Defeat audio cache : Yes
Make use of C2 pointers : No

Read offset correction : 12
Overread into Lead-In and Lead-Out : No
Fill up missing offset samples with silence : Yes
Delete leading and trailing silent blocks : No
Null samples used in CRC calculations : Yes
Used interface : Native Win32 interface for Win NT & 2000

Used output format : User Defined Encoder
Selected bitrate : 768 kBit/s
Quality : High
Add ID3 tag : No
Command line compressor : C:\Program Files\Exact Audio Copy\FLAC\FLAC.EXE
Additional command line options : -6 -V -T "ARTIST=%artist%" -T "TITLE=%title%" -T "ALBUM=%albumtitle%" -T "DATE=%year%" -T "TRACKNUMBER=%tracknr%" -T "GENRE=%genre%" -T "COMMENT=%comment%" -T "BAND=%albuminterpret%" -T "ALBUMARTIST=%albuminterpret%" -T "COMPOSER=%composer%" %haslyrics%–tag-from-file=LYRICS="%lyricsfile%"%haslyrics% -T "DISCNUMBER=%cdnumber%" -T "TOTALDISCS=%totalcds%" -T "TOTALTRACKS=%numtracks%" %hascover%–picture="%coverfile%"%hascover% %source% -o %dest%


TOC of the extracted CD

Track | Start | Length | Start sector | End sector
––––––––––––––––––––––––––––-
1 | 0:00.00 | 3:30.22 | 0 | 15771
2 | 3:30.22 | 4:20.43 | 15772 | 35314
3 | 7:50.65 | 3:53.50 | 35315 | 52839
4 | 11:44.40 | 4:55.50 | 52840 | 75014
5 | 16:40.15 | 4:58.52 | 75015 | 97416
6 | 21:38.67 | 4:21.65 | 97417 | 117056
7 | 26:00.57 | 5:37.08 | 117057 | 142339
8 | 31:37.65 | 10:38.37 | 142340 | 190226
9 | 42:16.27 | 3:48.30 | 190227 | 207356
10 | 46:04.57 | 4:41.45 | 207357 | 228476
11 | 50:46.27 | 4:38.45 | 228477 | 249371
12 | 55:24.72 | 5:41.55 | 249372 | 275001
13 | 61:06.52 | 7:09.17 | 275002 | 307193
14 | 68:15.69 | 3:13.38 | 307194 | 321706
15 | 71:29.32 | 6:18.20 | 321707 | 350076


Range status and errors

Selected range

Filename C:\Documents and Settings\Borya\Desktop\PaBeLi01\Pat Benatar - Neil Giraldo , Live - Summer Vacation Tour Soun.wav

Peak level 99.9 %
Extraction speed 2.3 X
Range quality 100.0 %
Test CRC E29DADBC
Copy CRC E29DADBC
Copy OK

No errors occurred


AccurateRip summary

Track 1 accurately ripped (confidence 6) [D4486B24] (AR v1)
Track 2 accurately ripped (confidence 6) [4EAF3A61] (AR v1)
Track 3 accurately ripped (confidence 6) [1F644A83] (AR v1)
Track 4 accurately ripped (confidence 6) [01D20087] (AR v1)
Track 5 accurately ripped (confidence 6) [D3685158] (AR v1)
Track 6 accurately ripped (confidence 6) [FC40EE04] (AR v1)
Track 7 accurately ripped (confidence 6) [68825C35] (AR v1)
Track 8 accurately ripped (confidence 6) [1581E5C5] (AR v1)
Track 9 accurately ripped (confidence 6) [AAE66A8D] (AR v1)
Track 10 accurately ripped (confidence 6) [5952CBCF] (AR v1)
Track 11 accurately ripped (confidence 6) [9BAA9993] (AR v1)
Track 12 accurately ripped (confidence 6) [46556307] (AR v1)
Track 13 accurately ripped (confidence 6) [5B24CADA] (AR v1)
Track 14 accurately ripped (confidence 6) [C0184C63] (AR v1)
Track 15 accurately ripped (confidence 6) [582E0C93] (AR v1)

All tracks accurately ripped

End of status report

==== Log checksum E670ABC4665F41DDEEB6BFC78EAC43D0949B3B8EE54A715BE15F255E550BF175 ====

foobar2000 1.3.16 / Dynamic Range Meter 1.1.1
log date: 2017-11-24 23:35:01

––––––––––––––––––––––––––––––––––––––––
Analyzed: Pat Benatar / Neil Giraldo / Live - Summer Vacation Tour Soun
––––––––––––––––––––––––––––––––––––––––

DR Peak RMS Duration Track
––––––––––––––––––––––––––––––––––––––––
DR10 -0.10 dB -11.47 dB 3:30 01-Treat Me Right
DR9 0.00 dB -11.15 dB 4:21 02-I Need A Lover
DR9 -0.16 dB -11.52 dB 3:54 03-We Live For Love
DR9 -0.19 dB -11.42 dB 4:56 04-Girl
DR9 -0.23 dB -11.36 dB 4:59 05-I Won't
DR11 -0.37 dB -14.47 dB 4:22 06-We Belong
DR14 0.00 dB -16.86 dB 5:37 07-Love Is A Battlefield
DR11 0.00 dB -13.80 dB 10:38 08-True Love
DR11 -0.30 dB -14.61 dB 3:48 09-Out Of The Ruins
DR10 -0.30 dB -13.08 dB 4:42 10-Hell Is For Children
DR10 -0.29 dB -11.79 dB 4:39 11-HeartBreaker
DR11 -0.29 dB -12.77 dB 5:42 12-Please Don't Leave Me
DR9 -0.30 dB -13.18 dB 7:09 13-Promises In The Dark
DR10 -0.29 dB -12.42 dB 3:14 14-Hit Me With Your Best Shot
DR8 -0.30 dB -11.66 dB 6:18 15-All Fired Up
––––––––––––––––––––––––––––––––––––––––

Number of tracks: 15
Official DR value: DR10

Samplerate: 44100 Hz
Channels: 2
Bits per sample: 16
Bitrate: 921 kbps
Codec: FLAC
================================================================================

[CUETools log; Date: 24.11.2017 23:35:14; Version: 2.1.5]
[CTDB TOCID: 4Ch3tYugJTgyaUnCnVUkBoOKa_w-] found.
Track | CTDB Status
1 | (4/8) Accurately ripped
2 | (4/8) Accurately ripped
3 | (4/8) Accurately ripped
4 | (4/8) Accurately ripped
5 | (4/8) Accurately ripped
6 | (4/8) Accurately ripped
7 | (4/8) Accurately ripped
8 | (4/8) Accurately ripped
9 | (4/8) Accurately ripped
10 | (4/8) Accurately ripped
11 | (4/8) Accurately ripped
12 | (4/8) Accurately ripped
13 | (4/8) Accurately ripped
14 | (4/8) Accurately ripped
15 | (4/8) Accurately ripped
[AccurateRip ID: 0028aad1-01d6e4a1-d0123b0f] found.
Track [ CRC | V2 ] Status
01 [d4486b24|d5b1a46d] (06+00/16) Accurately ripped
02 [4eaf3a61|e33df135] (06+00/16) Accurately ripped
03 [1f644a83|88057f93] (06+00/16) Accurately ripped
04 [01d20087|b3fd266a] (06+00/16) Accurately ripped
05 [d3685158|5232b1d5] (06+00/16) Accurately ripped
06 [fc40ee04|b6a9edb0] (06+00/16) Accurately ripped
07 [68825c35|e3691654] (06+00/16) Accurately ripped
08 [1581e5c5|01f2ba31] (06+00/16) Accurately ripped
09 [aae66a8d|1a29560f] (06+00/16) Accurately ripped
10 [5952cbcf|3657b3bb] (06+00/16) Accurately ripped
11 [9baa9993|fcc67f02] (06+00/16) Accurately ripped
12 [46556307|5c75c109] (06+00/16) Accurately ripped
13 [5b24cada|a3906f26] (06+00/16) Accurately ripped
14 [c0184c63|bf1ebce0] (06+00/16) Accurately ripped
15 [582e0c93|4172c9fc] (06+00/16) Accurately ripped

Track Peak [ CRC32 ] [W/O NULL] [ LOG ]
– 99,9 [E29DADBC] [6A2CDA04] CRC32
01 98,8 [D5F7076D] [169B6BF5]
02 99,9 [92B7C1FE] [8831C978]
03 98,1 [61CB2730] [357CC95E]
04 97,8 [2B115EBE] [3494CFEB]
05 97,4 [3BAF98FA] [1F4B471B]
06 95,8 [B8B655F8] [0083B627]
07 99,9 [93A2D731] [0058C52D]
08 99,9 [D0A4CDC6] [F18C2379]
09 96,6 [A61D2DA4] [F5E2D840]
10 96,6 [0BB42A69] [0645F5E8]
11 96,6 [EB43DD4C] [4D800FE3]
12 96,6 [A6B264A0] [EB3684E3]
13 96,6 [E608B5E1] [D8C950A9]
14 96,6 [0D82F198] [7C5431E6]
15 96,6 [E4D60B6A] [B91923CF]

Pat Benatar & Neil Giraldo - Live: Summer Vacation Tour Soundtrack (2001)

All thanks go to Boris1

>>> Pat Benatar in my Blog <<<

Download from icerbox.com: