Subcategories

Pat Thomas & Kwashibu Area Band - Pat Thomas & Kwashibu Area Band (2015)

Posted By: aasana
Pat Thomas & Kwashibu Area Band - Pat Thomas & Kwashibu Area Band (2015)

Pat Thomas & Kwashibu Area Band - Pat Thomas & Kwashibu Area Band (2015)
EAC rip (Secure) | FLAC (tracks)+cue, log, m3u, front cover | 44:27 min | 289 MB
funk, world african traditions | Label: Strut Records

Strut are proud to announce the brand new studio album by one of Ghana's all-time great vocalists, "The Golden Voice Of Africa", Pat Thomas, in conjunction with the Kwashibu Area Band led by multi-instrumentalist Kwame Yeboah (Cat Stevens, Patrice) and saxophonist Ben Abarbanel-Wolff (Ebo Taylor, Poets of Rhythm). Hailing from Kumasi, Thomas had lived with highlife legend King Onyina from a young age before working with Ebo Taylor in two of Ghana's great 1960s highlife big bands, Broadway Dance Band and Stargazers. They would collaborate regularly, Pat contributing vocals to Ebo's solo albums and Ebo arranging horns for Pat's songs. Both would become a mainstay of the '70s and '80s Ghanaian highlife, afrobeat and afro-pop scenes, hitting big with the Ghana Cocoa Board-sponsored Sweet Beans band. Fela Kuti's bandleader, drummer Tony Allen, would record a session with Sweet Beans in Kumasi in 1975 (as yet unreleased). "Highlife was our music," Pat remembers. "People like Ebo and I modernised it, made it more relevant to our day. We took the Kwa music of Kumasi and other local styles and added Western elements." With his distinctive flowing vocal style, sung in Fanti and Ashanti Twi dialect, Pat became established as one of Ghana's biggest musical draws.

Tracklist:
01. Pat Thomas & Kwashibu Area Band - Mewo Akoma
02. Pat Thomas & Kwashibu Area Band - Gyae Su
03. Pat Thomas & Kwashibu Area Band - Odoo Be Ba
04. Pat Thomas & Kwashibu Area Band - Me Ho Asem
05. Pat Thomas & Kwashibu Area Band - Oye Asem
06. Pat Thomas & Kwashibu Area Band - Odo Adaada
07. Pat Thomas & Kwashibu Area Band - Brebrebre
08. Pat Thomas & Kwashibu Area Band - Amaehu

Exact Audio Copy V1.0 beta 3 from 29. August 2011

EAC extraction logfile from 3. March 2017, 19:33

Pat Thomas & Kwashibu / Area Band

Used drive : TSSTcorpCDDVDW SE-218CB Adapter: 1 ID: 0

Read mode : Secure
Utilize accurate stream : Yes
Defeat audio cache : Yes
Make use of C2 pointers : No

Read offset correction : 6
Overread into Lead-In and Lead-Out : No
Fill up missing offset samples with silence : Yes
Delete leading and trailing silent blocks : No
Null samples used in CRC calculations : Yes
Used interface : Native Win32 interface for Win NT & 2000
Gap handling : Appended to previous track

Used output format : User Defined Encoder
Selected bitrate : 1024 kBit/s
Quality : High
Add ID3 tag : No
Command line compressor : C:\Program Files (x86)\Exact Audio Copy\Flac\flac.exe
Additional command line options : -8 -V -T "ARTIST=%artist%" -T "TITLE=%title%" -T "ALBUM=%albumtitle%" -T "DATE=%year%" -T "TRACKNUMBER=%tracknr%" -T "GENRE=%genre%" -T "PERFORMER=%albuminterpret%" -T "COMPOSER=%composer%" %haslyrics%–tag-from-file=LYRICS="%lyricsfile%"%haslyrics% -T "ALBUMARTIST=%albumartist%" -T "DISCNUMBER=%cdnumber%" -T "TOTALDISCS=%totalcds%" -T "TOTALTRACKS=%numtracks%" -T "COMMENT=%comment%" %source% -o %dest%


TOC of the extracted CD

Track | Start | Length | Start sector | End sector
––––––––––––––––––––––––––––-
1 | 0:00.00 | 8:23.03 | 0 | 37727
2 | 8:23.03 | 4:12.66 | 37728 | 56693
3 | 12:35.69 | 4:54.41 | 56694 | 78784
4 | 17:30.35 | 6:32.28 | 78785 | 108212
5 | 24:02.63 | 5:17.59 | 108213 | 132046
6 | 29:20.47 | 4:03.56 | 132047 | 150327
7 | 33:24.28 | 5:22.74 | 150328 | 174551
8 | 38:47.27 | 5:40.30 | 174552 | 200081


Track 1

Filename C:\EAC\Pat Thomas & Kwashibu - Area Band - 2015 - FLAC - CD\01. Mewo Akoma.wav

Pre-gap length 0:00:02.00

Peak level 96.3 %
Extraction speed 3.0 X
Track quality 100.0 %
Test CRC 61118E54
Copy CRC 61118E54
Accurately ripped (confidence 5) [28E069EA] (AR v2)
Copy OK

Track 2

Filename C:\EAC\Pat Thomas & Kwashibu - Area Band - 2015 - FLAC - CD\02. Gyae Su.wav

Pre-gap length 0:00:01.25

Peak level 96.3 %
Extraction speed 3.2 X
Track quality 100.0 %
Test CRC C8357ECB
Copy CRC C8357ECB
Accurately ripped (confidence 5) [9675C1A2] (AR v2)
Copy OK

Track 3

Filename C:\EAC\Pat Thomas & Kwashibu - Area Band - 2015 - FLAC - CD\03. Odoo Be Ba.wav

Peak level 96.3 %
Extraction speed 3.5 X
Track quality 100.0 %
Test CRC E19C6490
Copy CRC E19C6490
Accurately ripped (confidence 5) [D8D87CE6] (AR v2)
Copy OK

Track 4

Filename C:\EAC\Pat Thomas & Kwashibu - Area Band - 2015 - FLAC - CD\04. Me Ho Asem.wav

Pre-gap length 0:00:00.44

Peak level 96.3 %
Extraction speed 3.4 X
Track quality 99.9 %
Test CRC 6A89D94D
Copy CRC 6A89D94D
Accurately ripped (confidence 5) [746243AD] (AR v2)
Copy OK

Track 5

Filename C:\EAC\Pat Thomas & Kwashibu - Area Band - 2015 - FLAC - CD\05. Oye Asem.wav

Peak level 96.3 %
Extraction speed 4.0 X
Track quality 100.0 %
Test CRC C2F42287
Copy CRC C2F42287
Accurately ripped (confidence 5) [705A4AF5] (AR v2)
Copy OK

Track 6

Filename C:\EAC\Pat Thomas & Kwashibu - Area Band - 2015 - FLAC - CD\06. Odo Adaada.wav

Peak level 96.3 %
Extraction speed 4.0 X
Track quality 100.0 %
Test CRC 79535D06
Copy CRC 79535D06
Accurately ripped (confidence 5) [8FCB4E90] (AR v2)
Copy OK

Track 7

Filename C:\EAC\Pat Thomas & Kwashibu - Area Band - 2015 - FLAC - CD\07. Brebrebre.wav

Peak level 96.3 %
Extraction speed 4.4 X
Track quality 100.0 %
Test CRC E63898B5
Copy CRC E63898B5
Accurately ripped (confidence 5) [69EFB1EA] (AR v2)
Copy OK

Track 8

Filename C:\EAC\Pat Thomas & Kwashibu - Area Band - 2015 - FLAC - CD\08. Amaehu.wav

Peak level 96.3 %
Extraction speed 4.6 X
Track quality 100.0 %
Test CRC 10E065A6
Copy CRC 10E065A6
Accurately ripped (confidence 5) [05242233] (AR v2)
Copy OK


All tracks accurately ripped

No errors occurred

End of status report

==== Log checksum 9A63F01159D297C5676CE5575090174E60E5A9BBE6B55742A297D6D968721F1E ====