Subcategories

Patrice Rushen - Prelusion (1974) + Before The Dawn (1975) [2 LP in 1 CD, Remastered 1998] Re-Up

Posted By: Designol
Patrice Rushen - Prelusion (1974) + Before The Dawn (1975) [2 LP in 1 CD, Remastered 1998] Re-Up

Patrice Rushen - Prelusion (1974) + Before The Dawn (1975) [2 LP in 1 CD, 1998]
EAC | FLAC | Image (Cue&Log) ~ 393 Mb | Mp3 (CBR320) ~ 182 Mb | Scans included
Post-Bop, Fusion, Jazz-Funk, Soul-Jazz | Label: Prestige | # PRCD-24207-2 | 01:17:20

This 1998 CD reissues keyboardist Patrice Rushen's first two recordings as a leader except for one selection ("Puttered Bopcorn") from the first date that was left out due to lack of space. Twenty at the time of the earlier set, Rushen showed a great deal of potential for the future, potential that (at least in the jazz world) was unfortunately never realized. Rushen is heard on the Prelusion album heading a septet that includes tenor-saxophonist Joe Henderson (the most memorable soloist), trumpeter Oscar Brashear, trombonist George Bohanon and Hadley Caliman on reeds; the music is essentially advanced hard bop with touches of fusion. The later date has a similar group (without Henderson) and with guest spots for flutist Hubert Laws and guitarist Lee Ritenour. The R&B-ish vocal by Josie James on "What's the Story" hints at where Rushen would be going in the future: straight to the pop market. So overall this CD, which should have served as a bright beginning for the young keyboardist, is practically the artistic high point of Patrice Rushen's erratic career.

Review by Scott Yanow, Allmusic.com

Patrice Rushen - Prelusion (1974) + Before The Dawn (1975) [2 LP in 1 CD, Remastered 1998] Re-Up



Patrice Rushen - keyboards, tambourine, cabasa
Joe Henderson - tenor saxophone (1-4)
George Bohanon - trombone (1-6, 8)
Oscar Brashear - trumpet, flugelhorn (1-6, 8)
Hubert Laws - flute (5-9), alto flute (7, 9)
Hadley Caliman - flute, alto flute, soprano saxophone (1-4)
Lee Ritenour - guitar (5-9)
Charles Meeks - bass (5, 6, 8, 9)
Tony Dumas - bass (1 to 4, 7)
Harvey Mason - drums (5, 7)
Leon "Ndugu" Chancler - drums (1-4, 6, 8)
Nate Alfred - percussion (5, 6, 9)
Kenneth Nash - percussion (1-4, 7, 8)
Josie James - vocals on What's The Story

Tracks 1 to 4 recorded at Fantasy Studios, Berkeley, CA, in August 1974.
Tracks 5 to 9 recorded at Fantasy Studios, Berkeley, CA, in August 1975.

Tracklist:

Prelusion (1974):

01. Shortie's Portion (8:42)
02. 7/73 (12:32)
03. Haw-Right Now (8:00)
04. Traverse (10:53)

Before The Dawn (1975):

05. Kickin' Back (7:35)
06. What's The Story (5:15)
07. Jubilation (5:58)
08. Before The Dawn (8:18)
09. Razzia (9:41)


Exact Audio Copy V0.99 prebeta 5 from 4. May 2009

EAC extraction logfile from 10. December 2009, 21:09

Patrice Rushen / Before The Dawn

Used drive : HL-DT-STDVDRAM GSA-T50L Adapter: 2 ID: 0

Read mode : Secure
Utilize accurate stream : Yes
Defeat audio cache : Yes
Make use of C2 pointers : No

Read offset correction : 667
Overread into Lead-In and Lead-Out : No
Fill up missing offset samples with silence : Yes
Delete leading and trailing silent blocks : No
Null samples used in CRC calculations : Yes
Used interface : Native Win32 interface for Win NT & 2000

Used output format : Internal WAV Routines
Sample format : 44.100 Hz; 16 Bit; Stereo


TOC of the extracted CD

Track | Start | Length | Start sector | End sector
––––––––––––––––––––––––––––-
1 | 0:00.00 | 8:45.02 | 0 | 39376
2 | 8:45.02 | 12:33.35 | 39377 | 95886
3 | 21:18.37 | 8:04.15 | 95887 | 132201
4 | 29:22.52 | 10:56.60 | 132202 | 181461
5 | 40:19.37 | 7:36.38 | 181462 | 215699
6 | 47:56.00 | 5:18.57 | 215700 | 239606
7 | 53:14.57 | 6:00.58 | 239607 | 266664
8 | 59:15.40 | 8:21.47 | 266665 | 304286
9 | 67:37.12 | 9:42.45 | 304287 | 347981


Range status and errors

Selected range

Filename C:\Users\minodora\Desktop\Patrice Rushen - Before The Dawn.wav

Peak level 99.6 %
Range quality 99.9 %
Copy CRC 483D6F63
Copy OK

No errors occurred


AccurateRip summary

Track 1 not present in database
Track 2 not present in database
Track 3 not present in database
Track 4 not present in database
Track 5 not present in database
Track 6 not present in database
Track 7 not present in database
Track 8 not present in database
Track 9 not present in database

None of the tracks are present in the AccurateRip database

End of status report

[CUETools log; Date: 03.05.2018 19:21:39; Version: 2.1.4]
[CTDB TOCID: oLk8G3Gb4ymA5PVmwkYUZgMpApY-] found.
Track | CTDB Status
1 | (8/8) Accurately ripped
2 | (8/8) Accurately ripped
3 | (8/8) Accurately ripped
4 | (8/8) Accurately ripped
5 | (8/8) Accurately ripped
6 | (8/8) Accurately ripped
7 | (8/8) Accurately ripped
8 | (8/8) Accurately ripped
9 | (8/8) Accurately ripped
[AccurateRip ID: 001bd1c1-00c8484a-88121f09] found.
Track [ CRC | V2 ] Status
01 [6f9c983c|73de0173] (04+08/12) Accurately ripped
02 [1e5de523|64067774] (04+08/12) Accurately ripped
03 [cb7b6422|b67fb2b4] (04+08/12) Accurately ripped
04 [1694296d|a12fb3b0] (04+08/12) Accurately ripped
05 [ecbe891f|53dc8449] (04+07/11) Accurately ripped
06 [1b0318cf|316b3fde] (03+07/10) Accurately ripped
07 [04ed9048|0de6b6ab] (03+07/10) Accurately ripped
08 [fbb478d3|21140c2d] (03+07/10) Accurately ripped
09 [29d2fe24|00d64006] (03+07/10) Accurately ripped

Track Peak [ CRC32 ] [W/O NULL] [ LOG ]
– 99,6 [483D6F63] [5D5E7389] CRC32
01 94,7 [372A908B] [7AE77744]
02 75,7 [35631C38] [5965B69C]
03 87,4 [D6B03ECF] [498FA28A]
04 90,9 [F0DAA3D4] [D5B4AADB]
05 97,9 [8091D51E] [D6ECA7C5]
06 99,6 [0684D5D4] [9A80687C]
07 95,4 [1FD530DA] [A8286802]
08 82,7 [139A3D04] [EA52E4E7]
09 77,2 [18F404DD] [425F99BF]

foobar2000 1.2 / Dynamic Range Meter 1.1.1
log date: 2018-05-03 19:17:32

––––––––––––––––––––––––––––––––––––––––
Analyzed: Patrice Rushen / Prelusion (1974) & Before The Dawn (1975)
––––––––––––––––––––––––––––––––––––––––

DR Peak RMS Duration Track
––––––––––––––––––––––––––––––––––––––––
DR14 -0.47 dB -17.18 dB 8:45 01-Shortie's Portion
DR15 -2.42 dB -21.16 dB 12:33 02-7/73
DR13 -1.17 dB -16.38 dB 8:04 03-Haw-Right Now
DR14 -0.82 dB -19.64 dB 10:57 04-Traverse
DR15 -0.18 dB -18.18 dB 7:37 05-Kickin' Back
DR15 -0.03 dB -17.22 dB 5:19 06-What's The Story
DR13 -0.41 dB -18.06 dB 6:01 07-Jubilation
DR14 -1.65 dB -21.26 dB 8:22 08-Before The Dawn
DR14 -2.25 dB -18.44 dB 9:43 09-Razzia
––––––––––––––––––––––––––––––––––––––––

Number of tracks: 9
Official DR value: DR14

Samplerate: 44100 Hz
Channels: 2
Bits per sample: 16
Bitrate: 702 kbps
Codec: FLAC
================================================================================

Patrice Rushen - Prelusion (1974) + Before The Dawn (1975) [2 LP in 1 CD, Remastered 1998] Re-Up

Patrice Rushen - Prelusion (1974) + Before The Dawn (1975) [2 LP in 1 CD, Remastered 1998] Re-Up

All thanks to original releaser - Wtorm58

More interesting music in My Blog