Subcategories

Patterson Hood - Murdering Oscar (And Other Love Songs) (2009)

Posted By: Andi_Deris
Patterson Hood - Murdering Oscar (And Other Love Songs) (2009)

Patterson Hood - Murdering Oscar (And Other Love Songs) (2009)
EAC Rip | FLAC: Tracks+Cue+Log | MP3 CBR 320 kbps
352 Mb | 123 Mb | 52:48
Ruth St. Records | RUTH6000-2
Alternative Country-Rock/Indie Rock, Southern Rock

Murdering Oscar (And Other Love Songs) is the second solo album by Patterson Hood. The album's songs were written from 1994 to 2004, and recording began in early 2005 in Athens, Georgia. Murdering Oscar was released on June 23, 2009 on Hood's own label, Ruth St. Records, and on ATO Records. The music consists of guitar chords and reverb on some tracks, while others also feature piano. The lyrics address topics that affected Hood around the time Murdering Oscar's songs were written, such as the birth of his child and his success with the Drive-By Truckers.



Track Listing

01. Murdering Oscar (04:28)
02. Pollyanna (04:37)
03. Pride Of The Yankees (04:16)
04. I Understand Now (03:23)
05. Screwtopia (04:36)
06. Granddaddy (02:40)
07. Belvedere (04:00)
08. The Range War (03:51)
09. She's A Little Randy (04:29)
10. Foolish Young Bastard (02:32)
11. Heavy And Hanging (04:14)
12. Walking Around Sense (05:13)
13. Back Of A Bible (04:29)

Exact Audio Copy V0.99 prebeta 5 from 4. May 2009

EAC extraction logfile from 10. December 2010, 8:08

Patterson Hood / Murdering Oscar (And Other Love Songs)

Used drive : PLEXTOR DVDR PX-716A Adapter: 1 ID: 0

Read mode : Secure
Utilize accurate stream : Yes
Defeat audio cache : Yes
Make use of C2 pointers : No

Read offset correction : 30
Overread into Lead-In and Lead-Out : No
Fill up missing offset samples with silence : Yes
Delete leading and trailing silent blocks : No
Null samples used in CRC calculations : Yes
Used interface : Native Win32 interface for Win NT & 2000
Gap handling : Appended to previous track

Used output format : User Defined Encoder
Selected bitrate : 768 kBit/s
Quality : High
Add ID3 tag : No
Command line compressor : C:\Program Files (x86)\Exact Audio Copy\FLAC\FLAC.EXE
Additional command line options : -6 -V -T "ARTIST=%a" -T "TITLE=%t" -T "ALBUM=%g" -T "DATE=%y" -T "TRACKNUMBER=%n" -T "GENRE=%m" -T "COMMENT=%e" %s -o %d


TOC of the extracted CD

Track | Start | Length | Start sector | End sector
––––––––––––––––––––––––––––-
1 | 0:00.00 | 4:27.40 | 0 | 20064
2 | 4:27.40 | 4:37.25 | 20065 | 40864
3 | 9:04.65 | 4:16.30 | 40865 | 60094
4 | 13:21.20 | 3:22.60 | 60095 | 75304
5 | 16:44.05 | 4:35.61 | 75305 | 95990
6 | 21:19.66 | 2:39.53 | 95991 | 107968
7 | 23:59.44 | 3:59.68 | 107969 | 125961
8 | 27:59.37 | 3:50.53 | 125962 | 143264
9 | 31:50.15 | 4:28.53 | 143265 | 163417
10 | 36:18.68 | 2:31.57 | 163418 | 174799
11 | 38:50.50 | 4:14.27 | 174800 | 193876
12 | 43:05.02 | 5:13.27 | 193877 | 217378
13 | 48:18.29 | 4:28.48 | 217379 | 237526


Track 1

Filename C:\Users\Mike\Documents\EAC Rips\01. Murdering Oscar - Patterson Hood.wav

Pre-gap length 0:00:02.00

Peak level 98.8 %
Track quality 100.0 %
Test CRC BD000E35
Copy CRC BD000E35
Accurately ripped (confidence 12) [99752873]
Copy OK

Track 2

Filename C:\Users\Mike\Documents\EAC Rips\02. Pollyanna - Patterson Hood.wav

Peak level 98.8 %
Track quality 100.0 %
Test CRC C23128A9
Copy CRC C23128A9
Accurately ripped (confidence 12) [9579C693]
Copy OK

Track 3

Filename C:\Users\Mike\Documents\EAC Rips\03. Pride of the Yankees - Patterson Hood.wav

Peak level 98.8 %
Track quality 100.0 %
Test CRC 5CF6F927
Copy CRC 5CF6F927
Accurately ripped (confidence 12) [3A79D555]
Copy OK

Track 4

Filename C:\Users\Mike\Documents\EAC Rips\04. I Understand Now - Patterson Hood.wav

Pre-gap length 0:00:00.25

Peak level 98.8 %
Track quality 100.0 %
Test CRC D75BB8AE
Copy CRC D75BB8AE
Accurately ripped (confidence 12) [8E058B5C]
Copy OK

Track 5

Filename C:\Users\Mike\Documents\EAC Rips\05. Screwtopia - Patterson Hood.wav

Peak level 98.8 %
Track quality 100.0 %
Test CRC 70C39605
Copy CRC 70C39605
Accurately ripped (confidence 12) [95C32044]
Copy OK

Track 6

Filename C:\Users\Mike\Documents\EAC Rips\06. Granddaddy - Patterson Hood.wav

Peak level 98.8 %
Track quality 99.9 %
Test CRC C61522BF
Copy CRC C61522BF
Accurately ripped (confidence 12) [177A4C3B]
Copy OK

Track 7

Filename C:\Users\Mike\Documents\EAC Rips\07. Belvedere - Patterson Hood.wav

Pre-gap length 0:00:00.09

Peak level 98.8 %
Track quality 100.0 %
Test CRC 520D105D
Copy CRC 520D105D
Accurately ripped (confidence 12) [6460D91D]
Copy OK

Track 8

Filename C:\Users\Mike\Documents\EAC Rips\08. The Range War - Patterson Hood.wav

Peak level 98.8 %
Track quality 100.0 %
Test CRC 084DEAC6
Copy CRC 084DEAC6
Accurately ripped (confidence 12) [F1B448E9]
Copy OK

Track 9

Filename C:\Users\Mike\Documents\EAC Rips\09. She's A Little Randy - Patterson Hood.wav

Peak level 98.8 %
Track quality 100.0 %
Test CRC 2AC238DD
Copy CRC 2AC238DD
Accurately ripped (confidence 12) [9DD5059E]
Copy OK

Track 10

Filename C:\Users\Mike\Documents\EAC Rips\10. Foolish Young Bastard - Patterson Hood.wav

Peak level 98.8 %
Track quality 99.9 %
Test CRC 31F8F1DF
Copy CRC 31F8F1DF
Accurately ripped (confidence 12) [5F04933F]
Copy OK

Track 11

Filename C:\Users\Mike\Documents\EAC Rips\11. Heavy and Hanging - Patterson Hood.wav

Peak level 98.8 %
Track quality 99.9 %
Test CRC A8C32B65
Copy CRC A8C32B65
Accurately ripped (confidence 12) [CE9324CD]
Copy OK

Track 12

Filename C:\Users\Mike\Documents\EAC Rips\12. Walking Around Sense - Patterson Hood.wav

Peak level 98.8 %
Track quality 100.0 %
Test CRC 9A7989AC
Copy CRC 9A7989AC
Accurately ripped (confidence 12) [9EAF8E17]
Copy OK

Track 13

Filename C:\Users\Mike\Documents\EAC Rips\13. Back of a Bible - Patterson Hood.wav

Pre-gap length 0:00:02.15

Peak level 98.8 %
Track quality 99.9 %
Test CRC 399D00C9
Copy CRC 399D00C9
Accurately ripped (confidence 12) [35EF83A3]
Copy OK


All tracks accurately ripped

No errors occurred

End of status report


Many thanks to the original uploader: Mike

SEE also:
Patterson Hood 2004 Killers And Stars



Password: pass