Subcategories

Paul Brady - Primitive Dance (1987)

Posted By: Designol
Paul Brady - Primitive Dance (1987)

Paul Brady - Primitive Dance (1987)
EAC | FLAC | Image (Cue&Log) ~ 276 Mb | Mp3 (CBR320) ~ 127 Mb | Scans included
Singer/Songwriter, Pop/Rock, Folk | Label: Mercury | # 832 133-2 | Time: 00:44:21

Primitive Dance is a 1987 album by Irish singer/songwriter Paul Brady. The song "The Awakening" features the vocals of Irish singer Moya Brennan. Mark Knopfler guests on guitar on one track.

By his fourth solo album, this erstwhile folky had thoroughly sublimated his trad tendencies and replaced them with a pervasive modern soul groove and more than a hint of a Van Morrison influence. "Steal Your Heart Away" is one of the best compositions in his impressive songbook, a melody so strangely lovely and a lyric so earnestly commonplace that it will settle into your brain for days; "The Soul Commotion," on the other hand, is an embarrassing exercise in attempted soulfulness. Everything else falls somewhere in between, from the wonderful "Paradise Is Here" (later covered by both Cher and Tina Turner) to the pretty good "Eat the Peach" (with its very '80s synthesizer and its Uillean pipes) and the vaguely Spanish-sounding "The Game of Love." Recommended overall.

Review by Rick Anderson, Allmusic.com

Paul Brady - Primitive Dance (1987)



Tracklist:

01. Steal Your Heart Away (05:43)
02. The Soul Commotion (03:39)
03. Paradise Is Here (05:08)
04. It's Gonna Work Out Fine (03:58)
05. The Awakening (05:56)
06. Eat The Peach (05:30)
07. Don't Start Knocking (05:05)
08. Just In Case Of Accidents (05:12)
09. The Game Of Love (04:07)


Exact Audio Copy V1.0 beta 3 from 29. August 2011

EAC extraction logfile from 30. May 2014, 19:40

Paul Brady / Primitive Dance

Used drive : ASUS SDRW-08D1S-U Adapter: 1 ID: 0

Read mode : Secure
Utilize accurate stream : Yes
Defeat audio cache : Yes
Make use of C2 pointers : No

Read offset correction : 667
Overread into Lead-In and Lead-Out : No
Fill up missing offset samples with silence : Yes
Delete leading and trailing silent blocks : No
Null samples used in CRC calculations : Yes
Used interface : Native Win32 interface for Win NT & 2000

Used output format : User Defined Encoder
Selected bitrate : 128 kBit/s
Quality : High
Add ID3 tag : No
Command line compressor : C:\Program Files (x86)\Exact Audio Copy\Flac\flac.exe
Additional command line options : -V -8 -T "Date=%year%" -T "Genre=%genre%" %source%


TOC of the extracted CD

Track | Start | Length | Start sector | End sector
––––––––––––––––––––––––––––-
1 | 0:00.33 | 5:43.57 | 33 | 25814
2 | 5:44.15 | 3:39.00 | 25815 | 42239
3 | 9:23.15 | 5:08.53 | 42240 | 65392
4 | 14:31.68 | 3:58.22 | 65393 | 83264
5 | 18:30.15 | 5:56.43 | 83265 | 110007
6 | 24:26.58 | 5:30.47 | 110008 | 134804
7 | 29:57.30 | 5:05.43 | 134805 | 157722
8 | 35:02.73 | 5:12.02 | 157723 | 181124
9 | 40:15.00 | 4:07.20 | 181125 | 199669


Range status and errors

Selected range

Filename C:\Users\Олег\Music\Paul Brady - Primitive Dance.wav

Peak level 95.0 %
Extraction speed 1.9 X
Range quality 100.0 %
Test CRC 0FE04918
Copy CRC 0FE04918
Copy OK

No errors occurred


AccurateRip summary

Track 1 accurately ripped (confidence 14) [78527A3B] (AR v2)
Track 2 accurately ripped (confidence 14) [69391C91] (AR v2)
Track 3 accurately ripped (confidence 14) [BB3CA089] (AR v2)
Track 4 accurately ripped (confidence 14) [5E41F8C9] (AR v2)
Track 5 accurately ripped (confidence 14) [E2E27F25] (AR v2)
Track 6 accurately ripped (confidence 14) [EB9AE635] (AR v2)
Track 7 accurately ripped (confidence 14) [4BC5678E] (AR v2)
Track 8 accurately ripped (confidence 14) [1E1546C7] (AR v2)
Track 9 accurately ripped (confidence 14) [F791E542] (AR v2)

All tracks accurately ripped

End of status report

==== Log checksum 0EDA5C3E2F7806D8ED29543F36A9BCDCE802B5EB856860B45F4EEFE6647CE6EE ====

foobar2000 1.2 / Dynamic Range Meter 1.1.1
log date: 2015-01-22 15:08:48

––––––––––––––––––––––––––––––––––––––––
Analyzed: Paul Brady / Primitive Dance
––––––––––––––––––––––––––––––––––––––––

DR Peak RMS Duration Track
––––––––––––––––––––––––––––––––––––––––
DR14 -0.44 dB -17.76 dB 5:44 01-Steal Your Heart Away
DR14 -0.60 dB -17.79 dB 3:39 02-The Soul Commotion
DR15 -1.22 dB -21.20 dB 5:09 03-Paradise Is Here
DR12 -2.89 dB -17.66 dB 3:58 04-It's Gonna Work Out Fine
DR14 -4.53 dB -20.87 dB 5:57 05-The Awakening
DR13 -1.61 dB -17.52 dB 5:31 06-Eat The Peach
DR14 -1.09 dB -20.06 dB 5:06 07-Don't Start Knocking
DR14 -7.91 dB -27.85 dB 5:12 08-Just In Case Of Accidents
DR15 -4.32 dB -22.27 dB 4:07 09-The Game Of Love
––––––––––––––––––––––––––––––––––––––––

Number of tracks: 9
Official DR value: DR14

Samplerate: 44100 Hz
Channels: 2
Bits per sample: 16
Bitrate: 789 kbps
Codec: FLAC
================================================================================

Paul Brady - Primitive Dance (1987)

Paul Brady - Primitive Dance (1987)

All thanks to original releaser - Alex Fal

More interesting music in My Blog