Subcategories

Paul McCartney - Maxi-Singles Collection Vol. 2 (2004)

Posted By: v3122
Paul McCartney - Maxi-Singles Collection Vol. 2 (2004)

Paul McCartney - Maxi-Singles Collection Vol. 2 (2004)
EAC | Flac(Image) + Cue + Log & MP3 CBR 320Kbps
2CD | SRS Records | RU | ~ 1009 or 369Mb | Scans(jpg) -> 20 Mb
Classic Rock / Pop Rock | Unofficial Release

Sir James Paul McCartney, CH, MBE (born 18 June 1942), is an English singer-songwriter, multi-instrumentalist, and composer. He gained worldwide fame as the bass guitarist and singer for the rock band the Beatles, widely considered the most popular and influential group in the history of pop music. His songwriting partnership with John Lennon was the most successful of the post-war era.[2] After the group disbanded in 1970, he pursued a solo career and formed the band Wings with his first wife, Linda, and Denny Laine.

McCartney is one of the most successful composers and performers of all time. More than 2,200 artists have covered his Beatles song "Yesterday", making it one of the most covered songs in popular music history. Wings' 1977 release "Mull of Kintyre" is one of the all-time best-selling singles in the UK. A two-time inductee into the Rock and Roll Hall of Fame (as a member of the Beatles in 1988, and as a solo artist in 1999), and an 18-time Grammy Award winner, McCartney has written, or co-written, 32 songs that have reached number one on the Billboard Hot 100, and as of 2009 he has 25.5 million RIAA-certified units in the United States. McCartney, Lennon, George Harrison and Ringo Starr all received appointment as Members of the Order of the British Empire in 1965 and, in 1997, McCartney was knighted for services to music. McCartney is also one of the wealthiest musicians in the world, with an estimated net worth of US$1.2 billion.

McCartney has released an extensive catalogue of songs as a solo artist and has composed classical and electronic music. He has taken part in projects to promote international charities related to such subjects as animal rights, seal hunting, land mines, vegetarianism, poverty, and music education. He has married three times and is the father of five children…

~ wiki
Paul McCartney - Maxi-Singles Collection Vol. 2 (2004)


Paul McCartney - Maxi-Singles Collection Vol. 2 (2004):

Paul McCartney - Maxi-Singles Collection Vol. 2 (2004)

Tracklist CD1:

1. Press (Video Edit. Mixed by Bert Bevans & Steve Forward) (McCartney)
From Press 10-inch maxi-single Parlophone 10R 6133 (18/08/1986) – 03:31
2. Press (McCartney)
Video Soundtrack, 1986 – 04:39
3. Hanglide (Mixed by Mac 'n' Matt) (McCartney/Stewart)
From Press maxi-single Parlophone 12R 6133 (14/07/1986) – 05:09
4. Press (Dub Mix) (McCartney)
From Press maxi-single Parlophone 12R 6133 (14/07/1986) – 06:20
5. Pretty Little Head (Control, Remixed by John 'Tokes' Potoker) (McCartney/Stewart)
From Pretty Little Head maxi-single Parlophone 12R 6145 (27/10/1986) – 06:48
6. Angry (Remixed by Larry Alexander) (McCartney/Stewart)
From Pretty Little Head maxi-single Parlophone 12R 6145 (27/10/1986) – 03:32
7. Write Away (Engineering & mixed by Hugh Padgham) (McCartney/Stewart)
From Pretty Little Head maxi-single Parlophone 12R 6145 (27/10/1986) – 02:55
8. Once Upon A Long Ago (Long Version) (Mixed by Paul McCartney/Peter Hendenson) (McCartney)
From Once Upon A Long Ago maxi-single Parlophone 12RX 6170 (23/12/1987) – 06:01
9. Back On My Feet (Produced by Phil Ramone) (McCartney/McManus)
From Once Upon A Long Ago maxi-single Parlophone 12RX 6170 (23/12/1987) – 04:14
10. Lawdy Miss Clawdy (Price)
From Once Upon A Long Ago maxi-single Parlophone 12RX 6170 (23/12/1987) – 03:11
11. Kansas City (Leiber/Stoller)
From Once Upon A Long Ago maxi-single Parlophone 12RX 6170 (23/12/1987) – 03:57
12. Once Upon A Long Ago (Long Version) (Mixed by George Martin) (McCartney)
From Once Upon A Long Ago maxi-single Parlophone 12R 6170 (16/11/1987) – 04:26
13. Midnight Special (Traditional Arr. McCartney)
From Once Upon A Long Ago maxi-single Parlophone 12R 6170 (16/11/1987) – 03:52
14. Don't Get Around Much Anymore (Ellington/Russell)
From Once Upon A Long Ago maxi-single Parlophone 12R 6170 (16/11/1987) – 02:47
15. My Brave Face (McCartney/McManus)
From My Brave Face maxi-single Parlophone 12R 6213 (08/05/1989) – 03:12
16. Flying To My Home (McCartney)
From My Brave Face maxi-single Parlophone 12R 6213 (08/05/1989) – 04:06
17. I'm Gonna Be A Wheel Someday (Bartholomew/Hayes/Domino)
From My Brave Face maxi-single Parlophone 12R 6213 (08/05/1989) – 04:05
18. Ain't That A Shame (Domino/Bartholomew)
From My Brave Face maxi-single Parlophone 12R 6213 (08/05/1989) – 03:35

Exact Audio Copy V1.1 from 23. June 2015

EAC extraction logfile from 9. September 2015, 0:32

Paul McCartney / Maxi - Singles Collection Vol.2 CD1

Used drive : ASUS SDRW-08D1S-U Adapter: 1 ID: 1

Read mode : Secure
Utilize accurate stream : Yes
Defeat audio cache : Yes
Make use of C2 pointers : No

Read offset correction : 667
Overread into Lead-In and Lead-Out : No
Fill up missing offset samples with silence : Yes
Delete leading and trailing silent blocks : No
Null samples used in CRC calculations : Yes
Used interface : Native Win32 interface for Win NT & 2000

Used output format : User Defined Encoder
Selected bitrate : 128 kBit/s
Quality : High
Add ID3 tag : No
Command line compressor : C:\Program Files (x86)\Exact Audio Copy\Flac\flac.exe
Additional command line options : -V -8 -T "Date=%year%" -T "Genre=%genre%" %source%


TOC of the extracted CD

Track | Start | Length | Start sector | End sector
––––––––––––––––––––––––––––-
1 | 0:00.00 | 3:31.09 | 0 | 15833
2 | 3:31.09 | 4:39.64 | 15834 | 36822
3 | 8:10.73 | 5:08.62 | 36823 | 59984
4 | 13:19.60 | 6:19.25 | 59985 | 88434
5 | 19:39.10 | 6:48.58 | 88435 | 119092
6 | 26:27.68 | 3:31.44 | 119093 | 134961
7 | 29:59.37 | 2:55.34 | 134962 | 148120
8 | 32:54.71 | 6:00.08 | 148121 | 175128
9 | 38:55.04 | 4:14.23 | 175129 | 194201
10 | 43:09.27 | 3:10.66 | 194202 | 208517
11 | 46:20.18 | 3:56.57 | 208518 | 226274
12 | 50:17.00 | 4:26.36 | 226275 | 246260
13 | 54:43.36 | 3:51.70 | 246261 | 263655
14 | 58:35.31 | 2:47.21 | 263656 | 276201
15 | 61:22.52 | 3:12.17 | 276202 | 290618
16 | 64:34.69 | 4:05.12 | 290619 | 309005
17 | 68:40.06 | 4:04.70 | 309006 | 327375
18 | 72:45.01 | 3:35.37 | 327376 | 343537


Range status and errors

Selected range

Filename C:\Users\Олег\Desktop\Paul McCartney Maxi-Singles Collection\Vol. 2\CD1\Paul McCartney - Maxi - Singles Collection Vol.2 CD1.wav

Peak level 99.4 %
Extraction speed 4.1 X
Range quality 100.0 %
Test CRC 8F78C8B5
Copy CRC 8F78C8B5
Copy OK

No errors occurred


AccurateRip summary

Track 1 not present in database
Track 2 not present in database
Track 3 not present in database
Track 4 not present in database
Track 5 not present in database
Track 6 not present in database
Track 7 not present in database
Track 8 not present in database
Track 9 not present in database
Track 10 not present in database
Track 11 not present in database
Track 12 not present in database
Track 13 not present in database
Track 14 not present in database
Track 15 not present in database
Track 16 not present in database
Track 17 not present in database
Track 18 not present in database

None of the tracks are present in the AccurateRip database

End of status report

–– CUETools DB Plugin V2.1.6

[CTDB TOCID: WWK9QG2e5kQlUqcO0Ivd_VBeCfc-] disk not present in database
Submit result: WWK9QG2e5kQlUqcO0Ivd_VBeCfc- has been uploaded


==== Log checksum 91C74732810874E8192D81FCCCC424DD8CFD8D43695D30BF65420466D6DE02F1 ====


Paul McCartney - Maxi-Singles Collection Vol. 2 (2004)

Tracklist CD2:

1. This One (Mixed by Nail Dorfsman) (McCartney)
From This One maxi-single Parlophone 12RX 6223 (31/07/1989) – 04:06
2. The First Stone (Mixed by Nail Dorfsman) (McCartney/Stewart)
From This One maxi-single Parlophone 12RX 6223 (31/07/1989) – 03:58
3. Good Sign (Remixed by Duncan Bridgeman/Joe Dworniak) (McCartney)
From This One maxi-single Parlophone 12RX 6223 (31/07/1989) – 06:43
4. I Wanna Cry (Remixed by Duncan Bridgeman/Joe Dworniak) (McCartney)
From This One maxi-single Parlophone 12R 6223 (17/07/1989) – 04:35
5. I'm In Love Again (Remixed by Domino/Bartholomew) (McCartney)
From This One maxi-single Parlophone 12R 6223 (17/07/1989) – 02:37
6. Figure Of Eight (Mixed by Chris Hughes, Remixed by Bob Clearmountain) (McCartney)
From Figure Of Eight maxi-single Parlophone 12R 6235 (13/11/1989) – 05:04
7. This One (Club Lovejoys Mix) (Mixed by Matt Butler) (McCartney)
From Figure Of Eight maxi-single Parlophone 12R 6235 (13/11/1989) – 05:59
8. Ou Est Le Soleil? (McCartney)
Remix by Shep Pettibone for Mastermix Production. From Ou Est Le Soleil? maxi-single Parlophone 12RS 6235 (20/11/1989) – 04:43
9. Ou Est Le Soleil? (McCartney)
Remix by Shep Pettibone. Produced by Trevor Horn, Paul McCartney & Steve Lipson. From Ou Est Le Soleil? maxi-single Parlophone 12RX 6235 (27/11/1989) – 06:52
10. Ou Est Le Soleil? (Tub Dub Mix) (McCartney)
From Ou Est Le Soleil? maxi-single Parlophone 12RX 6235 (27/11/1989) – 04:23
11. Ou Est Le Soleil? (Instrumental Mix) (McCartney)
From Ou Est Le Soleil? maxi-single Parlophone 12RX 6235 (27/11/1989) – 04:17
12. Put It There (McCartney)
From Put It There maxi-single Parlophone 12R 6246 (05/02/1990) – 02:03
13. Mama's Little Girl (Mixed by Bill Price) (McCartney)
From Put It There maxi-single Parlophone 12R 6246 (05/02/1990) – 03:37
14. Same Time Next Year (Mixed by Bill Price) (McCartney)
From Put It There maxi-single Parlophone 12R 6246 (05/02/1990) – 03:03
15. All My Trials (Mixed by Bob Clearmountain) (Trad. Arr. McCartney)
From All My Trials maxi-single Parlophone 12R 6278 (26/11/1990) – 03:18
16. C Moon (Mixed by Matt Butler)
From All My Trials maxi-single Parlophone 12R 6278 (26/11/1990) – 03:35
17. Mull Of Kintyre (Mixed by Peter Henderson) (McCartney/Laine)
From All My Trials maxi-single Parlophone 12R 6278 (26/11/1990) – 05:18
18. Put It There (Mixed by Bob Clearmountain) (McCartney)
From All My Trials maxi-single Parlophone 12R 6278 (26/11/1990) – 02:41

Exact Audio Copy V1.1 from 23. June 2015

EAC extraction logfile from 9. September 2015, 14:26

Paul McCartney / Maxi - Singles Collection Vol. 2 CD2

Used drive : ASUS SDRW-08D1S-U Adapter: 1 ID: 1

Read mode : Secure
Utilize accurate stream : Yes
Defeat audio cache : Yes
Make use of C2 pointers : No

Read offset correction : 667
Overread into Lead-In and Lead-Out : No
Fill up missing offset samples with silence : Yes
Delete leading and trailing silent blocks : No
Null samples used in CRC calculations : Yes
Used interface : Native Win32 interface for Win NT & 2000

Used output format : User Defined Encoder
Selected bitrate : 128 kBit/s
Quality : High
Add ID3 tag : No
Command line compressor : C:\Program Files (x86)\Exact Audio Copy\Flac\flac.exe
Additional command line options : -V -8 -T "Date=%year%" -T "Genre=%genre%" %source%


TOC of the extracted CD

Track | Start | Length | Start sector | End sector
––––––––––––––––––––––––––––-
1 | 0:00.00 | 4:06.03 | 0 | 18452
2 | 4:06.03 | 3:58.60 | 18453 | 36362
3 | 8:04.63 | 6:43.08 | 36363 | 66595
4 | 14:47.71 | 4:34.63 | 66596 | 87208
5 | 19:22.59 | 2:37.05 | 87209 | 98988
6 | 21:59.64 | 5:03.26 | 98989 | 121739
7 | 27:03.15 | 5:58.67 | 121740 | 148656
8 | 33:02.07 | 4:43.01 | 148657 | 169882
9 | 37:45.08 | 6:52.50 | 169883 | 200832
10 | 44:37.58 | 4:22.36 | 200833 | 220518
11 | 49:00.19 | 4:17.00 | 220519 | 239793
12 | 53:17.19 | 2:03.19 | 239794 | 249037
13 | 55:20.38 | 3:36.59 | 249038 | 265296
14 | 58:57.22 | 3:03.19 | 265297 | 279040
15 | 62:00.41 | 3:17.63 | 279041 | 293878
16 | 65:18.29 | 3:35.02 | 293879 | 310005
17 | 68:53.31 | 5:18.09 | 310006 | 333864
18 | 74:11.40 | 2:40.45 | 333865 | 345909


Range status and errors

Selected range

Filename C:\Users\Олег\Desktop\Paul McCartney Maxi-Singles Collection\Vol. 2\CD2\Paul McCartney - Maxi - Singles Collection Vol. 2 CD2.wav

Peak level 100.0 %
Extraction speed 4.1 X
Range quality 99.9 %
Test CRC CD8EEB5F
Copy CRC CD8EEB5F
Copy OK

No errors occurred


AccurateRip summary

Track 1 not present in database
Track 2 not present in database
Track 3 not present in database
Track 4 not present in database
Track 5 not present in database
Track 6 not present in database
Track 7 not present in database
Track 8 not present in database
Track 9 not present in database
Track 10 not present in database
Track 11 not present in database
Track 12 not present in database
Track 13 not present in database
Track 14 not present in database
Track 15 not present in database
Track 16 not present in database
Track 17 not present in database
Track 18 not present in database

None of the tracks are present in the AccurateRip database

End of status report

–– CUETools DB Plugin V2.1.6

[CTDB TOCID: UaPj9zmHwu74minuD8XEd5Zr1v4-] disk not present in database
Submit result: UaPj9zmHwu74minuD8XEd5Zr1v4- has been uploaded


==== Log checksum B022119AC453C598858F9B67E7ABAA0DDB4A3D62164CBA764F9824B02BD6DCC5 ====


Paul McCartney - Maxi-Singles Collection Vol. 2 (2004)

All thanks go to Alex Fal

Paul McCartney or Paul McCartney in my Blog

Download Paul McCartney - Maxi-Singles Collection Vol. 2 (2004):