Subcategories

Paul McCartney - Maxi-Singles Collection Vol. 3 (2004)

Posted By: v3122
Paul McCartney - Maxi-Singles Collection Vol. 3 (2004)

Paul McCartney - Maxi-Singles Collection Vol. 3 (2004)
EAC | Flac(Image) + Cue + Log & MP3 CBR 320Kbps
2CD | SRS Records | RU | ~ 915 or 352 Mb | Scans(jpg) -> 21 Mb
Classic Rock / Pop Rock / Downtempo / Ambient | Unofficial Release

Sir James Paul McCartney, CH, MBE (born 18 June 1942), is an English singer-songwriter, multi-instrumentalist, and composer. He gained worldwide fame as the bass guitarist and singer for the rock band the Beatles, widely considered the most popular and influential group in the history of pop music. His songwriting partnership with John Lennon was the most successful of the post-war era.[2] After the group disbanded in 1970, he pursued a solo career and formed the band Wings with his first wife, Linda, and Denny Laine.

McCartney is one of the most successful composers and performers of all time. More than 2,200 artists have covered his Beatles song "Yesterday", making it one of the most covered songs in popular music history. Wings' 1977 release "Mull of Kintyre" is one of the all-time best-selling singles in the UK. A two-time inductee into the Rock and Roll Hall of Fame (as a member of the Beatles in 1988, and as a solo artist in 1999), and an 18-time Grammy Award winner, McCartney has written, or co-written, 32 songs that have reached number one on the Billboard Hot 100, and as of 2009 he has 25.5 million RIAA-certified units in the United States. McCartney, Lennon, George Harrison and Ringo Starr all received appointment as Members of the Order of the British Empire in 1965 and, in 1997, McCartney was knighted for services to music. McCartney is also one of the wealthiest musicians in the world, with an estimated net worth of US$1.2 billion.

McCartney has released an extensive catalogue of songs as a solo artist and has composed classical and electronic music. He has taken part in projects to promote international charities related to such subjects as animal rights, seal hunting, land mines, vegetarianism, poverty, and music education. He has married three times and is the father of five children…

~ wiki
Paul McCartney - Maxi-Singles Collection Vol. 3 (2004)


Paul McCartney - Maxi-Singles Collection Vol. 3 (2004):

Paul McCartney - Maxi-Singles Collection Vol. 3 (2004)

Tracklist CD1:

1. Birthday (Recorded at Knebworth June 30,1990) (Lennon/McCartney)
From Birthday maxi-single Parlophone 12R 6271 (08/10/1990) – 02:46
2. Good Day Sunshine (Recorded at Montreal Forum Dec 9, 1990) (Lennon/McCartney)
From Birthday maxi-single Parlophone 12R 6271 (08/10/1990) – 02:30
3. P.S. Love Me Do (Recorded at Maracana Stadium Rio April 21, 1990) (Lennon/McCartney)
From Birthday maxi-single Parlophone 12R 6271 (08/10/1990) – 03:17
4. Let 'Em In (Recorded at Tokyo Dome March 5, 1990) (McCartney)
From Birthday maxi-single Parlophone 12R 6271 (08/10/1990) – 05:29
5. Deliverance (Remixed by Steve Anderson) (McCartney)
From Deliverance maxi-single Parlophone 12R 6330 (15/01/1993) – 08:31
6. Deliverance (Dub Mix) (Remixed by Steve Anderson) (McCartney)
From Deliverance maxi-single Parlophone 12R 6330 (15/01/1993) – 07:32
7. Hope Of Deliverance (McCartney)
From Deliverance maxi-single Parlophone 12R 6330 (15/01/1993) – 03:16
8. Fluid (out of body and mind mix) (The Fireman)
From The Fireman (aka Paul McCartney) 'Nitin Sawhney Remixes' maxi-single Juggler Music HYDRA 12008 (1999) – 03:35
9. Fluid (out of body mix) (The Fireman)
From The Fireman (aka Paul McCartney) 'Nitin Sawhney Remixes' maxi-single Juggler Music HYDRA 12008 (1999) – 04:16
10. Fluid (out of body with sitar mix) (The Fireman)
From The Fireman (aka Paul McCartney) 'Nitin Sawhney Remixes' maxi-single Juggler Music HYDRA 12008 (1999) – 04:15
11. Bison (The Fireman)
From The Fireman (aka Paul McCartney) 'Nitin Sawhney Remixes' maxi-single Juggler Music HYDRA 12008 (1999) – 02:41
12. Seaside Woman (Linda McCartney)
From album Wide Prairie by Linda McCartney Parlophone 7243 4 97910 2 2 (27/10/1999) – 03:38
13. B-side To Seaside (Linda and Paul McCartney)
From album Wide Prairie by Linda McCartney Parlophone 7243 4 97910 2 2 (27/10/1999) – 02:35
14. Seaside Woman (Linda McCartney)
Remix by Alvin Clark, 1996 – 05:14
15. B-side To Seaside (Linda and Paul McCartney)
Remix by Alvin Clark, 1996 – 04:35
16. Good Sigh (Groove Mix) (McCartney)
From Promo maxi-single, 1989 – 07:13
17. We All Stand Together (McCartney)
Paul McCartney and Frog Chorus, 1984 – 04:17
18. We All Stand Together (Humming Version) (McCartney)
Paul McCartney and The Finchley Frogettes, 1984 – 02:20

Exact Audio Copy V1.1 from 23. June 2015

EAC extraction logfile from 9. September 2015, 17:25

Paul McCartney / Maxi-Singles Collection Vol.3 - CD 1

Used drive : ASUS SDRW-08D1S-U Adapter: 1 ID: 1

Read mode : Secure
Utilize accurate stream : Yes
Defeat audio cache : Yes
Make use of C2 pointers : No

Read offset correction : 667
Overread into Lead-In and Lead-Out : No
Fill up missing offset samples with silence : Yes
Delete leading and trailing silent blocks : No
Null samples used in CRC calculations : Yes
Used interface : Native Win32 interface for Win NT & 2000

Used output format : User Defined Encoder
Selected bitrate : 128 kBit/s
Quality : High
Add ID3 tag : No
Command line compressor : C:\Program Files (x86)\Exact Audio Copy\Flac\flac.exe
Additional command line options : -V -8 -T "Date=%year%" -T "Genre=%genre%" %source%


TOC of the extracted CD

Track | Start | Length | Start sector | End sector
––––––––––––––––––––––––––––-
1 | 0:00.00 | 2:46.27 | 0 | 12476
2 | 2:46.27 | 2:29.55 | 12477 | 23706
3 | 5:16.07 | 3:17.35 | 23707 | 38516
4 | 8:33.42 | 5:28.43 | 38517 | 63159
5 | 14:02.10 | 8:31.16 | 63160 | 101500
6 | 22:33.26 | 7:32.18 | 101501 | 135418
7 | 30:05.44 | 3:15.67 | 135419 | 150110
8 | 33:21.36 | 3:34.56 | 150111 | 166216
9 | 36:56.17 | 4:15.67 | 166217 | 185408
10 | 41:12.09 | 4:15.04 | 185409 | 204537
11 | 45:27.13 | 2:41.46 | 204538 | 216658
12 | 48:08.59 | 3:37.61 | 216659 | 232994
13 | 51:46.45 | 2:34.63 | 232995 | 244607
14 | 54:21.33 | 5:14.58 | 244608 | 268215
15 | 59:36.16 | 4:35.16 | 268216 | 288856
16 | 64:11.32 | 7:12.55 | 288857 | 321311
17 | 71:24.12 | 4:17.00 | 321312 | 340586
18 | 75:41.12 | 2:20.19 | 340587 | 351105


Range status and errors

Selected range

Filename C:\Users\Олег\Desktop\Paul McCartney Maxi-Singles Collection\Vol. 3\CD1\Paul McCartney - Maxi-Singles Collection Vol.3 - CD 1.wav

Peak level 98.7 %
Extraction speed 4.2 X
Range quality 100.0 %
Test CRC 9971DA3B
Copy CRC 9971DA3B
Copy OK

No errors occurred


AccurateRip summary

Track 1 not present in database
Track 2 not present in database
Track 3 not present in database
Track 4 not present in database
Track 5 not present in database
Track 6 not present in database
Track 7 not present in database
Track 8 not present in database
Track 9 not present in database
Track 10 not present in database
Track 11 not present in database
Track 12 not present in database
Track 13 not present in database
Track 14 not present in database
Track 15 not present in database
Track 16 not present in database
Track 17 not present in database
Track 18 not present in database

None of the tracks are present in the AccurateRip database

End of status report

–– CUETools DB Plugin V2.1.6

[CTDB TOCID: 9H7eOh35i2WNHXUQ3fA2w_jXxPY-] disk not present in database
Submit result: 9H7eOh35i2WNHXUQ3fA2w_jXxPY- has been uploaded


==== Log checksum CA04B5EDA0C180688C81120851E8E3635B428175C13097EC2798D105BE105707 ====


[CUETools log; Date: 19.02.2018 10:14:06; Version: 2.1.5]
[CTDB TOCID: 9H7eOh35i2WNHXUQ3fA2w_jXxPY-] found.
Track | CTDB Status
1 | (2/2) Accurately ripped
2 | (2/2) Accurately ripped
3 | (2/2) Accurately ripped
4 | (2/2) Accurately ripped
5 | (2/2) Accurately ripped
6 | (2/2) Accurately ripped
7 | (2/2) Accurately ripped
8 | (2/2) Accurately ripped
9 | (2/2) Accurately ripped
10 | (2/2) Accurately ripped
11 | (2/2) Accurately ripped
12 | (2/2) Accurately ripped
13 | (2/2) Accurately ripped
14 | (2/2) Accurately ripped
15 | (2/2) Accurately ripped
16 | (2/2) Accurately ripped
17 | (2/2) Accurately ripped
18 | (2/2) Accurately ripped
[AccurateRip ID: 00330bf4-02ace7a3-09124912] disk not present in database.

Track Peak [ CRC32 ] [W/O NULL] [ LOG ]
– 98,7 [9971DA3B] [31129404] CRC32
01 97,8 [C2C1813F] [7F9791A4]
02 95,1 [93E6433D] [4AD9D43B]
03 95,9 [D69C4C61] [1DC6D0A2]
04 91,2 [BC56B151] [074D908D]
05 69,6 [9FA3FB56] [5893EB5A]
06 69,9 [1A969B68] [33A33C62]
07 69,0 [5480478B] [E7108BCA]
08 69,9 [7469066B] [DBC47655]
09 67,4 [E4D320FE] [306811CC]
10 68,5 [BF0DD79A] [2CA65350]
11 67,8 [07CED9D0] [A2DAFE29]
12 98,0 [247DDC68] [247638D6]
13 94,5 [C76AC8A7] [5FE3AAAF]
14 94,6 [7120EB4E] [4921F4E5]
15 83,8 [348F1162] [1C515D85]
16 92,9 [B8E84AF7] [F858C287]
17 94,4 [E8050176] [C833AB9B]
18 98,7 [C4E7BB7B] [2935BF49]


Paul McCartney - Maxi-Singles Collection Vol. 3 (2004)

Tracklist CD2:

1. Let It Be (Lennon/McCartney)
From Ferry Aid maxi-single CBS 650796 6 (1987) – 06:03
2. Let It Be (Mega Message Mix) (Lennon/McCartney)
From Ferry Aid maxi-single CBS 650796 6 (1987) -06:20
3. Do They Know It's Christmas? (Geldorf/Ure)
Message by Paul McCartney. From Band Aid single Do They Know It's Christmas? (1988), Germany issue – 06:05
4. Feed The World (Geldorf / Ure)
Message by Paul McCartney. From Band Aid single Do They Know It's Christmas? (1988), Germany issue – 04:12
5. Good Night Tonight (McCartney)
Version Early, Produced by P. McCartney, Wings, 1978 – 07:12
6. I'm Partial To Your Abracadabra
Paul McCartney & The Blockheads. Tribute to Jan Dury – 03:26
7. God Bless California
Duane Eddy. Paul & Linda: Baas and Vocal – 03:32
8. Rochestra Theme (Extended Version)
Bass and Background vocals by Paul McCartney (1987) – 07:25
9. Rochestra Theme (7" Version)
Bass and Background vocals by Paul McCartney (1987) – 03:58
10. Send Me The Heart (McCArtney/Laine)
From Nashville session, other instruments (1974) – 03:34
11. Winter Rose
Instrumental version – 01:11
12. Love Awake
Alternate version – 04:57
13. Complain To The Queen
Live on Dutch radio – 01:10
14. Party Party (P&L McCartney/McIntosh/Stuart/Whitten/Wickens)
1989 – 03:45
15. Party Party (P&L McCartney/McIntosh/Stuart/Whitten/Wickens)
Remixed by Bruce Forest, Version 3' CD – 05:33

Exact Audio Copy V1.1 from 23. June 2015

EAC extraction logfile from 9. September 2015, 18:02

Paul McCartney / Maxi-Singles Collection Vol.3 - CD 2

Used drive : ASUS SDRW-08D1S-U Adapter: 1 ID: 1

Read mode : Secure
Utilize accurate stream : Yes
Defeat audio cache : Yes
Make use of C2 pointers : No

Read offset correction : 667
Overread into Lead-In and Lead-Out : No
Fill up missing offset samples with silence : Yes
Delete leading and trailing silent blocks : No
Null samples used in CRC calculations : Yes
Used interface : Native Win32 interface for Win NT & 2000

Used output format : User Defined Encoder
Selected bitrate : 128 kBit/s
Quality : High
Add ID3 tag : No
Command line compressor : C:\Program Files (x86)\Exact Audio Copy\Flac\flac.exe
Additional command line options : -V -8 -T "Date=%year%" -T "Genre=%genre%" %source%


TOC of the extracted CD

Track | Start | Length | Start sector | End sector
––––––––––––––––––––––––––––-
1 | 0:00.00 | 6:03.19 | 0 | 27243
2 | 6:03.19 | 6:19.66 | 27244 | 55734
3 | 12:23.10 | 6:05.58 | 55735 | 83167
4 | 18:28.68 | 4:11.12 | 83168 | 102004
5 | 22:40.05 | 7:12.20 | 102005 | 134424
6 | 29:52.25 | 3:26.15 | 134425 | 149889
7 | 33:18.40 | 3:32.25 | 149890 | 165814
8 | 36:50.65 | 7:25.07 | 165815 | 199196
9 | 44:15.72 | 3:57.38 | 199197 | 217009
10 | 48:13.35 | 3:34.21 | 217010 | 233080
11 | 51:47.56 | 1:10.38 | 233081 | 238368
12 | 52:58.19 | 4:57.17 | 238369 | 260660
13 | 57:55.36 | 1:09.43 | 260661 | 265878
14 | 59:05.04 | 3:45.05 | 265879 | 282758
15 | 62:50.09 | 5:33.30 | 282759 | 307763


Range status and errors

Selected range

Filename C:\Users\Олег\Desktop\Paul McCartney Maxi-Singles Collection\Vol. 3\CD2\Paul McCartney - Maxi-Singles Collection Vol.3 - CD 2.wav

Peak level 100.0 %
Extraction speed 4.1 X
Range quality 99.9 %
Test CRC 5EB7B4C0
Copy CRC 5EB7B4C0
Copy OK

No errors occurred


AccurateRip summary

Track 1 accurately ripped (confidence 1) [72EE88CE] (AR v2)
Track 2 accurately ripped (confidence 1) [B92F4102] (AR v2)
Track 3 not present in database
Track 4 not present in database
Track 5 not present in database
Track 6 not present in database
Track 7 not present in database
Track 8 not present in database
Track 9 not present in database
Track 10 not present in database
Track 11 not present in database
Track 12 not present in database
Track 13 not present in database
Track 14 not present in database
Track 15 not present in database

2 трек(и) скопированы точно
13 трек(и) не содержатся в базе AccurateRip

Some tracks could not be verified as accurate

End of status report

–– CUETools DB Plugin V2.1.6

[CTDB TOCID: hdt5d7NSK1HCt9azcY5GoK8.omg-] disk not present in database
Submit result: hdt5d7NSK1HCt9azcY5GoK8.omg- has been uploaded


==== Log checksum D05D117A4BAC1309F16A7B96E6DE3CC316B8811EAA7BC7DE2FF1B020E7A8231F ====


[CUETools log; Date: 19.02.2018 10:14:31; Version: 2.1.5]
[CTDB TOCID: hdt5d7NSK1HCt9azcY5GoK8.omg-] found.
Track | CTDB Status
1 | (2/2) Accurately ripped
2 | (2/2) Accurately ripped
3 | (2/2) Accurately ripped
4 | (2/2) Accurately ripped
5 | (2/2) Accurately ripped
6 | (2/2) Accurately ripped
7 | (2/2) Accurately ripped
8 | (2/2) Accurately ripped
9 | (2/2) Accurately ripped
10 | (2/2) Accurately ripped
11 | (2/2) Accurately ripped
12 | (2/2) Accurately ripped
13 | (2/2) Accurately ripped
14 | (2/2) Accurately ripped
15 | (2/2) Accurately ripped
[AccurateRip ID: 00298cba-01c86577-cd10070f] found.
Track [ CRC | V2 ] Status
01 [efa93106|72ee88ce] (0+1/1) Accurately ripped
02 [45e76e4a|b92f4102] (0+1/1) Accurately ripped
03 [f57ee64d|9c605c7b] (0+0/0) No match
04 [2cff61de|55d59d4d] (0+0/0) No match
05 [ba9294d2|91068091] (0+0/0) No match
06 [b0703b2e|57d2e2c8] (0+0/0) No match
07 [803fa436|3732adee] (0+0/0) No match
08 [66f81e7b|45dcd715] (0+0/0) No match
09 [b364ca3a|d58487ce] (0+0/0) No match
10 [014f604b|4ee622a5] (0+0/0) No match
11 [a1bfa5fb|6569ba73] (0+0/0) No match
12 [baca415f|aa5b5d48] (0+0/0) No match
13 [786fd5e1|2d0b91ee] (0+0/0) No match
14 [a16619d7|2b4629e1] (0+0/0) No match
15 [acde6b98|f200afac] (0+0/0) No match

Track Peak [ CRC32 ] [W/O NULL] [ LOG ]
– 100,0 [5EB7B4C0] [15C3E959] CRC32
01 93,7 [D97DD6DA] [9FD87023]
02 94,2 [D0A6FA5B] [CF604EDB]
03 94,5 [9D0BFA8E] [9CCFDFAA]
04 94,3 [B8301C21] [E7111477]
05 100,0 [694E2A82] [21A8A690]
06 93,4 [36514499] [F3B4299F]
07 95,5 [F3FF497B] [8C285632]
08 69,9 [224B0B7B] [104524DC]
09 69,9 [30D1C991] [0D87ED85]
10 93,5 [4C9E4A5A] [EEF76AE5]
11 91,2 [36D1C85D] [41DFEB60]
12 68,7 [867549B5] [E87EBDBF]
13 35,0 [CF5CB025] [5A38E96A]
14 82,8 [3BBE6140] [2472B4EE]
15 94,4 [BE2DD4C4] [6C73CC35]


Paul McCartney - Maxi-Singles Collection Vol. 3 (2004)

All thanks go to Alex Fal

Paul McCartney or Paul McCartney in my Blog

Download Paul McCartney - Maxi-Singles Collection Vol. 3 (2004):