Subcategories

Paul McCartney - Снова в СССР & Single Hits VIII (1999)

Posted By: v3122
Paul McCartney - Снова в СССР & Single Hits VIII (1999)

Paul McCartney - Снова в СССР & Single Hits VIII (1999)
EAC | Flac(Image) + Cue + Log & MP3 CBR 320Kbps
CD-Maximum, CDM 0999-340 | RU | ~ 490 or 184 Mb | Scans(jpg) -> 12 Mb
Classic Rock / Pop Rock

CHOBA B CCCP (Russian: «Снова в СССР», Snova v SSSR, literally Back in the USSR Again; also known as The Russian Album) is the seventh solo studio album by Paul McCartney under his own name, originally released in 1988 exclusively in the Soviet Union. The album consists entirely of covers, mainly of rock and roll oldies (similar to John Lennon's 1975 album Rock 'n' Roll). With the addition of an extra track, it was released internationally in 1991…

~ wiki
Paul McCartney - Снова в СССР & Single Hits VIII (1999)


Paul McCartney - Снова в СССР & Single Hits VIII (1999):

Paul McCartney - Снова в СССР & Single Hits VIII (1999)

Tracklist:

СНОВА В СССР
[01] Kansas City [04:02]
[02] Twenty Flight Rock [03:04]
[03] Lawdy Miss Clawdy [03:17]
[04] I'm in Love Again [02:59]
[05] Bring It on Home to Me [03:14]
[06] Lucille [03:13]
[07] Don't Get Around Much Anymore [02:50]
[08] I'm Gonna Be a Wheel Someday [04:13]
[09] That's All Right Mama [03:48]
[10] Summertime [04:57]
[11] Ain't That a Shame [03:43]
[12] Crackin' Up [03:55]
[13] Just Because [03:34]
[14] Midnight Special [03:58]
SINGLE HITS VII
[01] C Moon [04:32]
[02] Hi, Hi, Hi [03:07]
[03] The Girl Is Mind [03:42]
[04] Helen Wheels [03:45]
[05] Another Day [03:41]
[06] Live And Let Die [03:11]
[07] Lunch Box/Odd Sox [03:48]

Exact Audio Copy V1.1 from 23. June 2015

EAC extraction logfile from 24. March 2016, 16:29

Paul McCartney / Back in USSR - Single Hits VIII

Used drive : ASUS SDRW-08D1S-U Adapter: 1 ID: 1

Read mode : Secure
Utilize accurate stream : Yes
Defeat audio cache : Yes
Make use of C2 pointers : No

Read offset correction : 667
Overread into Lead-In and Lead-Out : No
Fill up missing offset samples with silence : Yes
Delete leading and trailing silent blocks : No
Null samples used in CRC calculations : Yes
Used interface : Native Win32 interface for Win NT & 2000

Used output format : User Defined Encoder
Selected bitrate : 128 kBit/s
Quality : High
Add ID3 tag : No
Command line compressor : C:\Program Files (x86)\Exact Audio Copy\Flac\flac.exe
Additional command line options : -V -8 -T "Date=%year%" -T "Genre=%genre%" %source%


TOC of the extracted CD

Track | Start | Length | Start sector | End sector
––––––––––––––––––––––––––––-
1 | 0:00.00 | 4:01.54 | 0 | 18128
2 | 4:01.54 | 3:02.47 | 18129 | 31825
3 | 7:04.26 | 3:16.12 | 31826 | 46537
4 | 10:20.38 | 2:57.47 | 46538 | 59859
5 | 13:18.10 | 3:13.68 | 59860 | 74402
6 | 16:32.03 | 3:12.31 | 74403 | 88833
7 | 19:44.34 | 2:50.45 | 88834 | 101628
8 | 22:35.04 | 4:11.38 | 101629 | 120491
9 | 26:46.42 | 3:46.56 | 120492 | 137497
10 | 30:33.23 | 4:57.04 | 137498 | 159776
11 | 35:30.27 | 3:43.15 | 159777 | 176516
12 | 39:13.42 | 3:54.27 | 176517 | 194093
13 | 43:07.69 | 3:34.08 | 194094 | 210151
14 | 46:42.02 | 3:57.67 | 210152 | 227993
15 | 50:39.69 | 4:31.60 | 227994 | 248378
16 | 55:11.54 | 3:06.57 | 248379 | 262385
17 | 58:18.36 | 3:41.70 | 262386 | 279030
18 | 62:00.31 | 3:44.15 | 279031 | 295845
19 | 65:44.46 | 3:40.25 | 295846 | 312370
20 | 69:24.71 | 3:10.54 | 312371 | 326674
21 | 72:35.50 | 3:47.51 | 326675 | 343750


Range status and errors

Selected range

Filename C:\Users\Олег\Desktop\Paul McCartney - Снова в СССР. Single hits VIII\Paul McCartney - Back in USSR - Single Hits VIII.wav

Peak level 97.7 %
Extraction speed 4.1 X
Range quality 100.0 %
Test CRC 2AD0763C
Copy CRC 2AD0763C
Copy OK

No errors occurred


AccurateRip summary

Track 1 accurately ripped (confidence 2) [0E37759E] (AR v2)
Track 2 accurately ripped (confidence 2) [2B8590DE] (AR v2)
Track 3 accurately ripped (confidence 2) [71449B81] (AR v2)
Track 4 accurately ripped (confidence 2) [8234BE73] (AR v2)
Track 5 accurately ripped (confidence 2) [651A0631] (AR v2)
Track 6 accurately ripped (confidence 2) [60D4F020] (AR v2)
Track 7 accurately ripped (confidence 2) [8B99575F] (AR v2)
Track 8 accurately ripped (confidence 2) [DCCBE75B] (AR v2)
Track 9 accurately ripped (confidence 2) [2A5E1070] (AR v2)
Track 10 accurately ripped (confidence 2) [44D439A9] (AR v2)
Track 11 accurately ripped (confidence 2) [361A4CEE] (AR v2)
Track 12 accurately ripped (confidence 2) [AD22E010] (AR v2)
Track 13 accurately ripped (confidence 2) [5FF5927E] (AR v2)
Track 14 accurately ripped (confidence 2) [B838EEBE] (AR v2)
Track 15 accurately ripped (confidence 2) [FD8DEE0E] (AR v2)
Track 16 accurately ripped (confidence 2) [67FD7266] (AR v2)
Track 17 accurately ripped (confidence 2) [7C3A4B71] (AR v2)
Track 18 accurately ripped (confidence 2) [EAB67EF1] (AR v2)
Track 19 accurately ripped (confidence 2) [208429DD] (AR v2)
Track 20 accurately ripped (confidence 2) [DD5B3138] (AR v2)
Track 21 accurately ripped (confidence 2) [566BAA19] (AR v2)

All tracks accurately ripped

End of status report

–– CUETools DB Plugin V2.1.6

[CTDB TOCID: CXPrrJSLHKd3fdFZE2ktewJKF5g-] found
Submit result: CXPrrJSLHKd3fdFZE2ktewJKF5g- has been confirmed
Track | CTDB Status
1 | (1/1) Accurately ripped
2 | (1/1) Accurately ripped
3 | (1/1) Accurately ripped
4 | (1/1) Accurately ripped
5 | (1/1) Accurately ripped
6 | (1/1) Accurately ripped
7 | (1/1) Accurately ripped
8 | (1/1) Accurately ripped
9 | (1/1) Accurately ripped
10 | (1/1) Accurately ripped
11 | (1/1) Accurately ripped
12 | (1/1) Accurately ripped
13 | (1/1) Accurately ripped
14 | (1/1) Accurately ripped
15 | (1/1) Accurately ripped
16 | (1/1) Accurately ripped
17 | (1/1) Accurately ripped
18 | (1/1) Accurately ripped
19 | (1/1) Accurately ripped
20 | (1/1) Accurately ripped
21 | (1/1) Accurately ripped


==== Log checksum FD5C8BA4B7CB15E88CBF2EA646FB1771C284D906C35872D055EE69BD783FC520 ====


[CUETools log; Date: 26.02.2018 12:52:45; Version: 2.1.5]
[AccurateRip ID: 0038b456-036ce187-1f11e715] found.
Track [ CRC | V2 ] Status
01 [dd992631|0e37759e] (0+2/2) Accurately ripped
02 [78afe4a3|2b8590de] (0+2/2) Accurately ripped
03 [395f166a|71449b81] (0+2/2) Accurately ripped
04 [c65aa3a3|8234be73] (0+2/2) Accurately ripped
05 [9cbe016e|651a0631] (0+2/2) Accurately ripped
06 [6de5edf7|60d4f020] (0+2/2) Accurately ripped
07 [d20fbe62|8b99575f] (0+2/2) Accurately ripped
08 [c9609029|dccbe75b] (0+2/2) Accurately ripped
09 [e26c73f2|2a5e1070] (0+2/2) Accurately ripped
10 [63290ebd|44d439a9] (0+2/2) Accurately ripped
11 [c0fe074d|361a4cee] (0+2/2) Accurately ripped
12 [cdd89cc4|ad22e010] (0+2/2) Accurately ripped
13 [3bf2b64b|5ff5927e] (0+2/2) Accurately ripped
14 [b062a305|b838eebe] (0+2/2) Accurately ripped
15 [d0b7942a|fd8dee0e] (0+2/2) Accurately ripped
16 [14d77254|67fd7266] (0+2/2) Accurately ripped
17 [56a76eac|7c3a4b71] (0+2/2) Accurately ripped
18 [a660fc66|eab67ef1] (0+2/2) Accurately ripped
19 [002b4e88|208429dd] (0+2/2) Accurately ripped
20 [50ec19fb|dd5b3138] (0+2/2) Accurately ripped
21 [fdd9e4c7|566baa19] (0+2/2) Accurately ripped

Track Peak [ CRC32 ] [W/O NULL] [ LOG ]
– 97,7 [2AD0763C] [A4B962EF] CRC32
01 78,4 [3290C266] [1A9ABA45]
02 83,5 [0CBE43AE] [B425F2CE]
03 80,9 [4767059B] [4A00AF31]
04 82,9 [EE9E63A9] [C5E0437C]
05 88,6 [5C2099A3] [1B1F6BC9]
06 73,1 [66422A3C] [B209D641]
07 73,8 [26E5D266] [A6F1849C]
08 78,8 [30BD7ED6] [0D551F97]
09 72,9 [2F3F8E29] [2593BE14]
10 78,2 [178E9B9B] [29E0C68E]
11 71,5 [523E94E9] [AEA4B723]
12 73,4 [624FCDB5] [5BB5CB96]
13 73,5 [1A6F94D6] [752E4760]
14 80,6 [53752065] [187B25D9]
15 67,9 [237FF028] [E32635B6]
16 89,2 [5958F88B] [9EE99395]
17 83,9 [14636DBE] [5DC743A9]
18 97,7 [50B5E5EA] [67870426]
19 78,5 [B64E8BB8] [901C5DF3]
20 89,7 [1B95FD56] [D31E3124]
21 92,1 [0326CDF6] [44834EFC]


Paul McCartney - Снова в СССР & Single Hits VIII (1999)

All thanks go to Alex Fal

Paul McCartney or Paul McCartney in my Blog

Download Paul McCartney - Снова в СССР & Single Hits VIII (1999):