Subcategories

Paul McCartney & Wings - Band Of The Run (1973) {1984, Japan}

Posted By: popsakov
Paul McCartney & Wings - Band Of The Run (1973) {1984, Japan}

Paul McCartney & Wings - Band Of The Run (1973) {1984, Japan}
EAC Rip | FLAC (Img) + Cue + Log ~ 248 Mb | MP3 CBR320 ~ 100 Mb
Scans (JPG, 300 dpi) ~ 22 Mb | RAR 5% Recovery
Classic Rock, Pop Rock| Parlophone / MPL #CDP 7 46055 2

Band on the Run is the third studio album by Paul McCartney and Wings, released in December 1973. It marked the fifth album by Paul McCartney since his departure from the Beatles in April 1970. Although sales were modest initially, its commercial performance was aided by two hit singles - "Jet" and "Band on the Run" - such that it became the top-selling studio album of 1974 in the United Kingdom and Australia, in addition to revitalising McCartney's critical standing. It remains McCartney's most successful album and the most celebrated of his post-Beatles works. In 2000, Q magazine placed it at number 75 in its list of the "100 Greatest British Albums Ever". In 2012, Band on the Run was voted 418th on Rolling Stone's revised list of "The 500 Greatest Albums of All Time".
~ Wiki

***************

Paul McCartney & Wings - Band Of The Run (1973) {1984, Japan}

Track List:

01. Band on the Run [5:15]
02. Jet [4:09]
03. Bluebird [3:25]
04. Mrs. Vanderbilt [4:42]
05. Let Me Roll It [4:51]
06. Mamunia [4:51]
07. No Words [2:39]
08. Picasso's Last Words (Drink to Me) [5:51]
09. Nineteen Hundred and Eighty Five [5:29]

Exact Audio Copy V1.0 beta 3 from 29. August 2011

Отчёт EAC об извлечении, выполненном 27. марта 2014, 13:06

Paul McCartney & Wings / Band on the Run (CDP 7460552 Japan)

Дисковод: HL-DT-STDVDRAM GH20NS10 Adapter: 1 ID: 0

Режим чтения : Достоверность
Использование точного потока : Да
Отключение кэша аудио : Да
Использование указателей C2 : Нет

Коррекция смещения при чтении : 667
Способность читать области Lead-in и Lead-out : Нет
Заполнение пропущенных сэмплов тишиной : Да
Удаление блоков с тишиной в начале и конце : Нет
При вычислениях CRC использовались нулевые сэмплы : Да
Интерфейс : Встроенный Win32-интерфейс для Win NT/2000

Выходной формат : Внутренние WAV-операции
Формат сэмплов : 44.100 Гц; 16 бит; стерео


TOC извлечённого CD

Трек | Старт | Длительность | Начальный сектор | Конечный сектор
––––––––––––––––––––––––––––––––––-
1 | 0:00.00 | 5:15.05 | 0 | 23629
2 | 5:15.05 | 4:09.10 | 23630 | 42314
3 | 9:24.15 | 3:25.22 | 42315 | 57711
4 | 12:49.37 | 4:41.58 | 57712 | 78844
5 | 17:31.20 | 4:51.05 | 78845 | 100674
6 | 22:22.25 | 4:50.52 | 100675 | 122476
7 | 27:13.02 | 2:38.63 | 122477 | 134389
8 | 29:51.65 | 5:51.05 | 134390 | 160719
9 | 35:42.70 | 5:28.42 | 160720 | 185361


Характеристики диапазона извлечения и сообщения об ошибках

Выбранный диапазон

Имя файла D:\Музыка\Готовое для заливки\W73J\w73j\Paul McCartney & Wings - Band Of The Run (1973) Japan APE\Paul McCartney & Wings - Band on the Run (CDP 7460552 Japan).wav

Пиковый уровень 98.0 %
Скорость извлечения 7.1 X
Качество диапазона 100.0 %
CRC копии FA4038FE
Копирование… OK

Ошибок не произошло


AccurateRip: сводка

Трек 1 : извлечено точно (доверие 7) [E711F443] (AR v2)
Трек 2 : извлечено точно (доверие 7) [D4010205] (AR v2)
Трек 3 : извлечено точно (доверие 7) [CA6667B8] (AR v2)
Трек 4 : извлечено точно (доверие 7) [80ADFA0D] (AR v2)
Трек 5 : извлечено точно (доверие 7) [01373A37] (AR v2)
Трек 6 : извлечено точно (доверие 7) [9036DA4A] (AR v2)
Трек 7 : извлечено точно (доверие 7) [4C910ADE] (AR v2)
Трек 8 : извлечено точно (доверие 7) [9A53C6E0] (AR v2)
Трек 9 : извлечено точно (доверие 7) [4FEC4604] (AR v2)

Все треки извлечены точно

Конец отчёта

foobar2000 1.2.6 / Dynamic Range Meter 1.1.1
log date: 2016-02-20 14:07:27

––––––––––––––––––––––––––––––––––––––––
Analyzed: Paul McCartney & Wings / Band on the Run (CDP 7460552 Japan)
––––––––––––––––––––––––––––––––––––––––

DR Peak RMS Duration Track
––––––––––––––––––––––––––––––––––––––––
DR13 -1.26 dB -16.96 dB 5:15 01-Band on the Run
DR13 -0.50 dB -15.34 dB 4:09 02-Jet
DR13 -1.69 dB -17.93 dB 3:25 03-Bluebird
DR12 -0.97 dB -15.75 dB 4:42 04-Mrs. Vanderbilt
DR12 -2.62 dB -16.69 dB 4:51 05-Let Me Roll It
DR13 -1.26 dB -17.52 dB 4:51 06-Mamunia
DR11 -1.97 dB -16.19 dB 2:39 07-No Words
DR14 -2.45 dB -19.33 dB 5:51 08-Picasso's Last Words (Drink to Me)
DR12 -0.17 dB -15.91 dB 5:29 09-Nineteen Hundred and Eighty Five
––––––––––––––––––––––––––––––––––––––––

Number of tracks: 9
Official DR value: DR13

Samplerate: 44100 Hz
Channels: 2
Bits per sample: 16
Bitrate: 799 kbps
Codec: FLAC
================================================================================

[CUETools log; Date: 20.02.2016 14:07:46; Version: 2.1.5]
[CTDB TOCID: FNlPI2C1C9KAiZXQ0v9S0ye78qk-] found.
Track | CTDB Status
1 | (40/40) Accurately ripped
2 | (40/40) Accurately ripped
3 | (40/40) Accurately ripped
4 | (40/40) Accurately ripped
5 | (40/40) Accurately ripped
6 | (40/40) Accurately ripped
7 | (40/40) Accurately ripped
8 | (40/40) Accurately ripped
9 | (39/40) Accurately ripped
[AccurateRip ID: 000dd38e-00654170-7009a709] found.
Track [ CRC | V2 ] Status
01 [a436ff09|e711f443] (006+012/102) Accurately ripped
02 [c9a2cfbd|d4010205] (006+012/102) Accurately ripped
03 [6549a10e|ca6667b8] (006+012/100) Accurately ripped
04 [97f153d0|80adfa0d] (006+012/101) Accurately ripped
05 [23cb2266|01373a37] (006+012/101) Accurately ripped
06 [c9406812|9036da4a] (006+012/100) Accurately ripped
07 [f8d13e78|4c910ade] (006+012/101) Accurately ripped
08 [5b3206d5|9a53c6e0] (006+012/101) Accurately ripped
09 [90e1cef7|4fec4604] (006+012/100) Accurately ripped
Offsetted by -456:
01 [46255441] (003/102) Accurately ripped
02 [0448e63d] (003/102) Accurately ripped
03 [b77aa596] (003/100) Accurately ripped
04 [d1118398] (003/101) Accurately ripped
05 [2a8d9f3e] (003/101) Accurately ripped
06 [50c31190] (003/100) Accurately ripped
07 [bcae11a2] (003/101) Accurately ripped
08 [a6a527bd] (003/101) Accurately ripped
09 [0a06ed0f] (003/100) Accurately ripped
Offsetted by -451:
01 [8b1b6ae6] (038/102) Accurately ripped
02 [ec9fc7ad] (038/102) Accurately ripped
03 [f2a5e619] (036/100) Accurately ripped
04 [6ec200d3] (037/101) Accurately ripped
05 [6f881eff] (037/101) Accurately ripped
06 [3e6e0dc4] (036/100) Accurately ripped
07 [9ae6455b] (037/101) Accurately ripped
08 [710bc0a4] (037/101) Accurately ripped
09 [d50cb1c8] (036/100) Accurately ripped
Offsetted by -251:
01 [518ef4ae] (000/102) No match (V2 was not tested)
02 [3a33012d] (000/102) No match (V2 was not tested)
03 [3167fa91] (000/100) No match (V2 was not tested)
04 [1255920b] (000/101) No match (V2 was not tested)
05 [36ac1527] (000/101) No match (V2 was not tested)
06 [4aeefaec] (000/100) No match (V2 was not tested)
07 [9c1f6dbb] (000/101) No match (V2 was not tested)
08 [1113a4bc] (000/101) No match (V2 was not tested)
09 [8df36eb0] (000/100) No match (V2 was not tested)
Offsetted by -44:
01 [1227d15d] (000/102) No match (V2 was not tested)
02 [cd0ca97d] (000/102) No match (V2 was not tested)
03 [f633695a] (000/100) No match (V2 was not tested)
04 [c5e038fc] (000/101) No match (V2 was not tested)
05 [2b2ebe2a] (000/101) No match (V2 was not tested)
06 [d20336bd] (000/100) No match (V2 was not tested)
07 [459f5859] (000/101) No match (V2 was not tested)
08 [ffab2bb1] (000/101) No match (V2 was not tested)
09 [c97bd89b] (000/100) No match (V2 was not tested)

Track Peak [ CRC32 ] [W/O NULL] [ LOG ]
– 98,0 [FA4038FE] [F19EB483] CRC32
01 86,4 [56D2162A] [C88B70F9]
02 94,3 [25B66FD0] [53DC242C]
03 82,3 [153A943D] [B51C67CE]
04 89,4 [81CEF0CA] [B2060027]
05 73,9 [E4C3E697] [A29CBEB8]
06 86,4 [8209AAE7] [6AE8383C]
07 79,7 [F2F352AD] [31D78C4E]
08 75,4 [186A9DA7] [AE1FDF28]
09 98,0 [EBD10516] [09EC4DED]

Paul McCartney & Wings - Band Of The Run (1973) {1984, Japan}

Paul McCartney & Wings - Band Of The Run (1973) {1984, Japan}

All thanks go to the original ripper(s) …

> Paul McCartney in my blog <

Download: