Subcategories

Paul McCartney & Wings - Band on the Run (1973)

Posted By: v3122
Paul McCartney & Wings - Band on the Run (1973)

Paul McCartney & Wings - Band on the Run (1973)
EAC | Flac(Image) + Cue + Log & MP3 CBR 320Kbps
1987 | Capitol, CDP 7 46675 2 (DIDX 1383) | ~ 266 or 106 Mb | Scans(png) -> 102 Mb
Classic Rock / Pop Rock

Neither the dippy, rustic Wild Life nor the slick AOR flourishes of Red Rose Speedway earned Paul McCartney much respect, so he made the self-consciously ambitious Band on the Run to rebuke his critics. On the surface, Band on the Run appears to be constructed as a song cycle in the vein of Abbey Road, but subsequent listens reveal that the only similarities the two albums share are simply superficial. McCartney's talent for songcraft and nuanced arrangements is in ample display throughout the record, which makes many of the songs – including the nonsensical title track – sound more substantial than they actually are. While a handful of the songs are excellent – the surging, inspired surrealism of "Jet" is by far one of his best solo recordings, "Bluebird" is sunny acoustic pop, and "Helen Wheels" captures McCartney rocking with abandon – most of the songs are more style than substance. Yet McCartney's melodies are more consistent than any of his previous solo records, and there are no throwaways; the songs just happen to be not very good. Still, the record is enjoyable, whether it's the minor-key "Mrs. Vandebilt" or "Let Me Roll It," a silly response to John Lennon's "How Do You Sleep?," which does make Band on the Run one of McCartney's finest solo efforts. However, there's little of real substance on the record. No matter how elaborate the production is, or how cleverly his mini-suites are constructed, Band on the Run is nothing more than a triumph of showmanship.

by Stephen Thomas Erlewine, AMG
Paul McCartney & Wings - Band on the Run (1973)


Paul McCartney & Wings - Band on the Run (1973):

Paul McCartney & Wings - Band on the Run (1973)

Tracklist:

01. Band on the Run 05:14
02. Jet 04:09
03. Bluebird 03:25
04. Mrs. Vandebilt 04:41
05. Let Me Roll It 04:51
06. Mamunia 04:50
07. No Words 02:38
08. Helen Wheels 03:47
09. Picasso's Last Words (Drink to Me) 05:51
10. Nineteen Hundred and Eighty Five 05:28

All songs written by Paul and Linda McCartney, except "No Words" by Paul McCartney and Denny Laine.

Musicians:

Paul McCartney – vocals, acoustic, electric and bass guitars, piano and keyboards, drums and percussion
Linda McCartney – keyboards and vocals
Denny Laine – vocals, acoustic, electric and bass guitars, keyboards, percussion\

Howie Casey – saxophone
Ginger Baker – percussion
Remi Kabaka – percussion
Tony Visconti – orchestrations
Ian Horn and Trevor Jones – backing vocals


Exact Audio Copy V1.0 beta 3 from 29. August 2011

EAC extraction logfile from 16. March 2016, 21:45

Paul McCartney & Wings / Band on the Run (CDP 7 46675 2)

Used drive : HL-DT-STDVDRAM GSA-4163B Adapter: 0 ID: 1

Read mode : Secure
Utilize accurate stream : Yes
Defeat audio cache : Yes
Make use of C2 pointers : No

Read offset correction : 667
Overread into Lead-In and Lead-Out : No
Fill up missing offset samples with silence : Yes
Delete leading and trailing silent blocks : No
Null samples used in CRC calculations : Yes
Used interface : Native Win32 interface for Win NT & 2000

Used output format : Internal WAV Routines
Sample format : 44.100 Hz; 16 Bit; Stereo


TOC of the extracted CD

Track | Start | Length | Start sector | End sector
––––––––––––––––––––––––––––-
1 | 0:00.37 | 5:14.05 | 37 | 23591
2 | 5:14.42 | 4:09.10 | 23592 | 42276
3 | 9:23.52 | 3:25.23 | 42277 | 57674
4 | 12:49.00 | 4:41.57 | 57675 | 78806
5 | 17:30.57 | 4:51.05 | 78807 | 100636
6 | 22:21.62 | 4:50.50 | 100637 | 122436
7 | 27:12.37 | 2:38.60 | 122437 | 134346
8 | 29:51.22 | 3:47.43 | 134347 | 151414
9 | 33:38.65 | 5:51.00 | 151415 | 177739
10 | 39:29.65 | 5:28.45 | 177740 | 202384


Range status and errors

Selected range

Filename I:\Ready.zp\Paul McCartney & Wings - Band on the Run (CDP 7 46675 2).wav

Peak level 100.0 %
Extraction speed 6.8 X
Range quality 100.0 %
Test CRC 3CB9C2E1
Copy CRC 3CB9C2E1
Copy OK

No errors occurred


AccurateRip summary

Track 1 accurately ripped (confidence 18) [92A0E8E1] (AR v2)
Track 2 accurately ripped (confidence 18) [77D31D4E] (AR v2)
Track 3 accurately ripped (confidence 18) [593BCD9D] (AR v2)
Track 4 accurately ripped (confidence 19) [4FA85C97] (AR v2)
Track 5 accurately ripped (confidence 20) [0CF8828C] (AR v2)
Track 6 accurately ripped (confidence 19) [66C327EE] (AR v2)
Track 7 accurately ripped (confidence 18) [58696207] (AR v2)
Track 8 accurately ripped (confidence 19) [B35776FB] (AR v2)
Track 9 accurately ripped (confidence 18) [E598C35A] (AR v2)
Track 10 accurately ripped (confidence 20) [469713CC] (AR v2)

All tracks accurately ripped

End of status report

–– CUETools DB Plugin V2.1.3

[CTDB TOCID: OQd8V9ZRO48y.KjGIUxQX6UyuGM-] found, Submit result: discs with pregaps not supported in this protocol version
[08aadb97] (13/15) Differs in 0 samples @
[f879a83a] (01/15) No match
[3f0e29e1] (01/15) No match
You can use CUETools to repair this rip.


==== Log checksum EE579A8F23174DC46A11AE0C6F574A0143C1EBF204E4EE28900AE4AFEF884C9D ====

foobar2000 1.2.9 / Dynamic Range Meter 1.1.1
log date: 2016-03-18 08:25:09

––––––––––––––––––––––––––––––––––––––––
Analyzed: Paul McCartney & Wings / Band on the Run (CDP 7 46675 2)
––––––––––––––––––––––––––––––––––––––––

DR Peak RMS Duration Track
––––––––––––––––––––––––––––––––––––––––
DR13 -1.26 dB -16.96 dB 5:14 01-Band on the Run
DR13 -0.50 dB -15.34 dB 4:09 02-Jet
DR13 -1.69 dB -17.93 dB 3:25 03-Bluebird
DR12 -0.97 dB -15.75 dB 4:42 04-Mrs. Vandebilt
DR12 -2.62 dB -16.69 dB 4:51 05-Let Me Roll It
DR13 -1.26 dB -17.52 dB 4:51 06-Mamunia
DR11 -1.97 dB -16.19 dB 2:39 07-No Words
DR11 0.00 dB -13.78 dB 3:48 08-Helen Wheels
DR14 -2.45 dB -19.33 dB 5:51 09-Picasso's Last Words (Drink to Me)
DR12 -0.17 dB -15.91 dB 5:29 10-Nineteen Hundred and Eighty Five
––––––––––––––––––––––––––––––––––––––––

Number of tracks: 10
Official DR value: DR12

Samplerate: 44100 Hz
Channels: 2
Bits per sample: 16
Bitrate: 804 kbps
Codec: FLAC

[CUETools log; Date: 18.03.2016 8:14:08; Version: 2.1.4]
Pregap length 00:00:37.
[CTDB TOCID: OQd8V9ZRO48y.KjGIUxQX6UyuGM-] found.
Track | CTDB Status
1 | (15/16) Accurately ripped
2 | (15/16) Accurately ripped
3 | (15/16) Accurately ripped
4 | (15/16) Accurately ripped
5 | (15/16) Accurately ripped
6 | (15/16) Accurately ripped
7 | (15/16) Accurately ripped
8 | (15/16) Accurately ripped
9 | (15/16) Accurately ripped
10 | (14/16) Accurately ripped
[AccurateRip ID: 0010a715-0084c38e-710a8a0a] found.
Track [ CRC | V2 ] Status
01 [122c2f21|92a0e8e1] (028+018/106) Accurately ripped
02 [c13e597d|77d31d4e] (029+018/109) Accurately ripped
03 [560ec05a|593bcd9d] (030+018/113) Accurately ripped
04 [5b0388b0|4fa85c97] (029+019/112) Accurately ripped
05 [7ee11b2a|0cf8828c] (030+020/113) Accurately ripped
06 [ecd83ab0|66c327ee] (029+019/111) Accurately ripped
07 [770d7ace|58696207] (030+018/110) Accurately ripped
08 [95c03a1d|b35776fb] (029+019/111) Accurately ripped
09 [8a9f65f1|e598c35a] (029+018/111) Accurately ripped
10 [2d5c1852|469713cc] (027+020/109) Accurately ripped
Offsetted by -2467:
01 [8f13571e] (014/106) Accurately ripped
02 [f4fea76d] (013/109) Accurately ripped
03 [18e56a45] (014/113) Accurately ripped
04 [3bdbc593] (014/112) Accurately ripped
05 [c014e163] (015/113) Accurately ripped
06 [1da2f05f] (014/111) Accurately ripped
07 [f3aa1e94] (014/110) Accurately ripped
08 [7b2768f8] (014/111) Accurately ripped
09 [276ae720] (015/111) Accurately ripped
10 [7ba457c3] (015/109) Accurately ripped
Offsetted by -1803:
01 [88557cb6] (008/106) Accurately ripped
02 [7ba9ffed] (008/109) Accurately ripped
03 [30eee16d] (008/113) Accurately ripped
04 [6f6988fb] (008/112) Accurately ripped
05 [2207271b] (007/113) Accurately ripped
06 [ffe259c9] (008/111) Accurately ripped
07 [19c758c2] (008/110) Accurately ripped
08 [566b00a0] (008/111) Accurately ripped
09 [d7dbd228] (008/111) Accurately ripped
10 [99d597bb] (007/109) Accurately ripped
Offsetted by -1534:
01 [39a6a563] (009/106) Accurately ripped
02 [4f85c6dd] (009/109) Accurately ripped
03 [069f7028] (010/113) Accurately ripped
04 [f980a72e] (010/112) Accurately ripped
05 [3aac0044] (010/113) Accurately ripped
06 [5a3936aa] (010/111) Accurately ripped
07 [097c2766] (009/110) Accurately ripped
08 [fde59d4b] (009/111) Accurately ripped
09 [e5e48de7] (009/111) Accurately ripped
10 [113f229c] (010/109) Accurately ripped

Track Peak [ CRC32 ] [W/O NULL] [ LOG ]
– 100,0 [3CB9C2E1] [C80AD46E] CRC32
01 86,4 [D4E76BC9] [C88B70F9]
02 94,3 [EBA76F78] [53DC242C]
03 82,3 [B9B95B32] [B51C67CE]
04 89,4 [29B813A5] [B2060027]
05 73,9 [3AC4BA34] [A29CBEB8]
06 86,4 [3AC448F6] [0B63ED10]
07 79,7 [9518948F] [F1B441C9]
08 100,0 [1396D104] [08CB0A65]
09 75,4 [00CCE695] [302FF944]
10 98,0 [DC078CDD] [09EC4DED]

Paul McCartney & Wings - Band on the Run (1973)

All thanks go to Ready.zp

Paul McCartney in my Blog

Download Paul McCartney & Wings - Band on the Run (1973):