Subcategories

Paul McCartney, Wings: Remastered CD Collection (1971 - 1989)

Posted By: v3122
Paul McCartney, Wings: Remastered CD Collection (1971 - 1989)

Paul McCartney, Wings: Remastered CD Collection (1971 - 1989)
EAC | Flac(Image) + Cue + Log & MP3 CBR 320Kbps
13CD | 1993, Parlophone | ~ 4052 or 1801 Mb | Scans(jpg) -> 156 Mb
Classic Rock / Pop Rock | Remastered

Sir James Paul McCartney, CH, MBE (born 18 June 1942), better known as Paul McCartney, is an English singer-songwriter, multi-instrumentalist, and composer. He gained worldwide fame as the bass guitarist and singer for the rock band the Beatles, widely considered the most popular and influential group in the history of pop music. His songwriting partnership with John Lennon was the most successful of the post-war era. After the group disbanded in 1970, he pursued a solo career and formed the band Wings with his first wife, Linda, and Denny Laine.

McCartney is one of the most successful composers and performers of all time. More than 2,200 artists have covered his Beatles song "Yesterday", making it one of the most covered songs in popular music history. Wings' 1977 release "Mull of Kintyre" is one of the all-time best-selling singles in the UK. A two-time inductee into the Rock and Roll Hall of Fame (as a member of the Beatles in 1988, and as a solo artist in 1999), and an 18-time Grammy Award winner, McCartney has written, or co-written, 32 songs that have reached number one on the Billboard Hot 100, and as of 2009 he has 25.5 million RIAA-certified units in the United States. McCartney, Lennon, Harrison and Starr all received appointment as Members of the Order of the British Empire in 1965 and, in 1997, McCartney was knighted for services to music. McCartney is also one of the wealthiest musicians in the world, with an estimated net worth of US$1.2 billion.

McCartney has released an extensive catalogue of songs as a solo artist and has composed classical and electronic music. He has taken part in projects to promote international charities related to such subjects as animal rights, seal hunting, land mines, vegetarianism, poverty, and music education. He has married three times and is the father of five children…

~ wiki
Paul McCartney, Wings: Remastered CD Collection (1971 - 1989)


Paul McCartney, Wings: Remastered CD Collection (1971 - 1989):

Paul McCartney, Wings: Remastered CD Collection (1971 - 1989)

Tracklist CD1 - Ram - 1971:
Parlophone 0777 7 89139 2 4, Holland

01. Too Many People
02. 3 Legs
03. Ram On
04. Dear Boy
05. Uncle Albert/Admiral Halsey
06. Smile Away
07. Heart Of The Country
08. Monkberry Moon Delight
09. Eat At Home
10. Long Haired Lady
11. Ram On
12. The Back Seat Of My Car
13. Another Day
14. Oh Woman, Oh Why

Exact Audio Copy V0.99 prebeta 5 from 4. May 2009

Отчёт EAC об извлечении, выполненном 19. февраля 2011, 20:37

Paul McCartney / Ram

Дисковод: Optiarc DVD RW AD-7240S Adapter: 1 ID: 0

Режим чтения : Достоверность
Использование точного потока : Да
Отключение кэша аудио : Да
Использование указателей C2 : Нет

Коррекция смещения при чтении : 48
Способность читать области Lead-in и Lead-out : Нет
Заполнение пропущенных сэмплов тишиной : Да
Удаление блоков с тишиной в начале и конце : Нет
При вычислениях CRC использовались нулевые сэмплы : Да
Интерфейс : Встроенный Win32-интерфейс для Win NT/2000

Выходной формат : Пользовательский кодировщик
Выбранный битрейт : 768 kBit/s
Качество : Высокий
Добавление ID3-тэга : Нет
Утилита сжатия : C:\Program Files\Exact Audio Copy\FLAC\FLAC.EXE
Дополнительные параметры : -6 -V -T "ARTIST=%a" -T "TITLE=%t" -T "ALBUM=%g" -T "DATE=%y" -T "TRACKNUMBER=%n" -T "GENRE=%m" -T "COMMENT=%e" %s -o %d


TOC извлечённого CD

Трек | Старт | Длительность | Начальный сектор | Конечный сектор
––––––––––––––––––––––––––––––––––-
1 | 0:00.33 | 4:10.32 | 33 | 18814
2 | 4:10.65 | 2:47.43 | 18815 | 31382
3 | 6:58.33 | 2:29.72 | 31383 | 42629
4 | 9:28.30 | 2:15.50 | 42630 | 52804
5 | 11:44.05 | 4:54.63 | 52805 | 74917
6 | 16:38.68 | 3:54.25 | 74918 | 92492
7 | 20:33.18 | 2:23.42 | 92493 | 103259
8 | 22:56.60 | 5:25.73 | 103260 | 127707
9 | 28:22.58 | 3:24.25 | 127708 | 143032
10 | 31:47.08 | 6:04.72 | 143033 | 170404
11 | 37:52.05 | 0:55.00 | 170405 | 174529
12 | 38:47.05 | 4:37.55 | 174530 | 195359
13 | 43:24.60 | 3:44.58 | 195360 | 212217
14 | 47:09.43 | 4:34.35 | 212218 | 232802


Характеристики диапазона извлечения и сообщения об ошибках

Выбранный диапазон

Имя файла E:\Paul McCartney\1971 Ram\Paul McCartney - Ram.wav

Пиковый уровень 96.2 %
Качество диапазона 100.0 %
CRC теста 4A6F6097
CRC копии 4A6F6097
Копирование… OK

Ошибок не произошло


AccurateRip: сводка

Трек 1 точное извлечение (доверие 5) [67673F0E]
Трек 2 точное извлечение (доверие 5) [4827FB56]
Трек 3 точное извлечение (доверие 5) [9655DC6A]
Трек 4 точное извлечение (доверие 5) [0CB1FCF6]
Трек 5 точное извлечение (доверие 5) [E5767047]
Трек 6 точное извлечение (доверие 5) [634257DE]
Трек 7 точное извлечение (доверие 5) [29943622]
Трек 8 точное извлечение (доверие 5) [04DF3F5F]
Трек 9 точное извлечение (доверие 5) [686157FA]
Трек 10 точное извлечение (доверие 5) [0C4663C9]
Трек 11 точное извлечение (доверие 5) [3A1E2C18]
Трек 12 точное извлечение (доверие 5) [C35CFCEA]
Трек 13 точное извлечение (доверие 5) [0E8F6708]
Трек 14 точное извлечение (доверие 5) [266B7A31]

Все треки извлечены точно

Конец отчёта


[CUETools log; Date: 06.12.2017 20:07:03; Version: 2.1.5]
Pregap length 00:00:33.
[CTDB TOCID: 7XqL1uz.6z3n5j.nsYY.Un7uFN4-] found.
Track | CTDB Status
1 | (110/111) Accurately ripped
2 | (111/111) Accurately ripped
3 | (111/111) Accurately ripped
4 | (111/111) Accurately ripped
5 | (109/111) Accurately ripped, or (2/111) differs in 12 samples @03:29:35
6 | (111/111) Accurately ripped
7 | (111/111) Accurately ripped
8 | (111/111) Accurately ripped
9 | (110/111) Accurately ripped
10 | (110/111) Accurately ripped
11 | (111/111) Accurately ripped
12 | (108/111) Accurately ripped, or (2/111) differs in 30574 samples @01:15:17-01:15:43
13 | (108/111) Accurately ripped, or (2/111) differs in 9322 samples @00:37:44-00:37:48,00:37:60-00:37:66,00:38:02-00:38:06,00:38:18-00:38:23,00:38:37-00:38:40,00:38:56-00:38:58,01:44:65-01:44:67,01:45:05-01:45:11,01:45:21-01:45:25,01:45:42,01:45:58-01:45:61,01:56:03-01:56:04,01:56:18-01:56:21,01:56:35-01:56:40,01:56:52-01:56:57,01:56:68-01:56:74
14 | (107/111) Accurately ripped, or (2/111) differs in 254 samples @00:07:39-00:07:40
[AccurateRip ID: 001984ca-01134772-a30c200e] found.
Track [ CRC | V2 ] Status
01 [67673f0e|90eb25c9] (007+010/241) Accurately ripped
02 [4827fb56|9fa09904] (007+010/240) Accurately ripped
03 [9655dc6a|13e4253e] (007+010/241) Accurately ripped
04 [0cb1fcf6|a5558aa5] (007+010/239) Accurately ripped
05 [e5767047|6bd1b841] (007+010/241) Accurately ripped
06 [634257de|78cb9c27] (007+010/238) Accurately ripped
07 [29943622|5121bc1d] (007+010/243) Accurately ripped
08 [04df3f5f|c8667207] (007+010/238) Accurately ripped
09 [686157fa|fe531f99] (007+010/239) Accurately ripped
10 [0c4663c9|062888de] (007+010/237) Accurately ripped
11 [3a1e2c18|764f2fd7] (007+010/237) Accurately ripped
12 [c35cfcea|896aee04] (007+010/239) Accurately ripped
13 [0e8f6708|0b18d8da] (007+010/239) Accurately ripped
14 [266b7a31|bc8b6e55] (007+010/239) Accurately ripped
Offsetted by 562:
01 [41d703a0] (014/241) Accurately ripped
02 [46d19de6] (014/240) Accurately ripped
03 [c2d0b7dc] (014/241) Accurately ripped
04 [73c912f0] (014/239) Accurately ripped
05 [97866b3d] (014/241) Accurately ripped
06 [e71f6d84] (014/238) Accurately ripped
07 [d0b09d26] (015/243) Accurately ripped
08 [d1a7cef5] (014/238) Accurately ripped
09 [42ba37f4] (013/239) Accurately ripped
10 [b3c1714f] (013/237) Accurately ripped
11 [687b3992] (014/237) Accurately ripped
12 [2a9753c8] (013/239) Accurately ripped
13 [07099c00] (014/239) Accurately ripped
14 [b3928ce7] (014/239) Accurately ripped
Offsetted by 676:
01 [3dee6f02] (106/241) Accurately ripped
02 [9dfa4216] (107/240) Accurately ripped
03 [6311b98e] (107/241) Accurately ripped
04 [de55802a] (106/239) Accurately ripped
05 [09250449] (106/241) Accurately ripped
06 [396b9f9c] (106/238) Accurately ripped
07 [c336d4aa] (106/243) Accurately ripped
08 [159d794b] (104/238) Accurately ripped
09 [c019af2e] (106/239) Accurately ripped
10 [3160ba12] (104/237) Accurately ripped
11 [18a42d9f] (104/237) Accurately ripped
12 [5adc8e66] (104/239) Accurately ripped
13 [7dc48ff8] (104/239) Accurately ripped
14 [22329e5d] (104/239) Accurately ripped

Track Peak [ CRC32 ] [W/O NULL] [ LOG ]
– 96,2 [4A6F6097] [1EFD5D65] CRC32
01 96,2 [4E42F3DC] [2373B339]
02 92,5 [E265E5B2] [3F2513E7]
03 81,1 [6B3AC94C] [CF6395CC]
04 79,9 [9936DCEB] [0CDF0025]
05 71,6 [38E8ECB8] [32E0A892]
06 77,0 [27AAFA74] [930CC031]
07 65,2 [17B807C8] [72BCE19E]
08 74,9 [AAF0060A] [83FB0F03]
09 83,5 [14605E3D] [8C6C2DC3]
10 75,0 [ACA7F146] [5837C3C8]
11 72,1 [D682E586] [5F547307]
12 67,8 [BA828786] [A6E8BF23]
13 82,8 [4BBBD7D8] [082D663C]
14 89,7 [E781B7FB] [1453294A]


Paul McCartney, Wings: Remastered CD Collection (1971 - 1989)

Tracklist CD2 - Wild Life - 1971:
Parlophone 0 777 7 89237 2 5, Holland

01. Mumbo
02. Bip Bop
03. Love Is Strange
04. Wild Life
05. Some People Never Know
06. I Am Your Singer
07. Bip Bop Link
08. Tomorrow
09. Dear Friend
10. Mumbo Link
11. Give Ireland Back To The Irish
12. Mary Had A Little Lamb
13. Little Woman Love
14. Mama's Little Girl

Exact Audio Copy V0.99 prebeta 5 from 4. May 2009

Отчёт EAC об извлечении, выполненном 19. февраля 2011, 23:26

Wings / Wild Life

Дисковод: Optiarc DVD RW AD-7240S Adapter: 1 ID: 0

Режим чтения : Достоверность
Использование точного потока : Да
Отключение кэша аудио : Да
Использование указателей C2 : Нет

Коррекция смещения при чтении : 48
Способность читать области Lead-in и Lead-out : Нет
Заполнение пропущенных сэмплов тишиной : Да
Удаление блоков с тишиной в начале и конце : Нет
При вычислениях CRC использовались нулевые сэмплы : Да
Интерфейс : Встроенный Win32-интерфейс для Win NT/2000

Выходной формат : Пользовательский кодировщик
Выбранный битрейт : 768 kBit/s
Качество : Высокий
Добавление ID3-тэга : Нет
Утилита сжатия : C:\Program Files\Exact Audio Copy\FLAC\FLAC.EXE
Дополнительные параметры : -6 -V -T "ARTIST=%a" -T "TITLE=%t" -T "ALBUM=%g" -T "DATE=%y" -T "TRACKNUMBER=%n" -T "GENRE=%m" -T "COMMENT=%e" %s -o %d


TOC извлечённого CD

Трек | Старт | Длительность | Начальный сектор | Конечный сектор
––––––––––––––––––––––––––––––––––-
1 | 0:00.33 | 3:57.52 | 33 | 17859
2 | 3:58.10 | 4:09.58 | 17860 | 36592
3 | 8:07.68 | 4:51.10 | 36593 | 58427
4 | 12:59.03 | 6:41.60 | 58428 | 88562
5 | 19:40.63 | 6:36.45 | 88563 | 118307
6 | 26:17.33 | 2:18.35 | 118308 | 128692
7 | 28:35.68 | 0:52.30 | 128693 | 132622
8 | 29:28.23 | 3:27.32 | 132623 | 148179
9 | 32:55.55 | 5:59.13 | 148180 | 175117
10 | 38:54.68 | 0:53.12 | 175118 | 179104
11 | 39:48.05 | 3:46.23 | 179105 | 196077
12 | 43:34.28 | 3:34.10 | 196078 | 212137
13 | 47:08.38 | 2:11.15 | 212138 | 221977
14 | 49:19.53 | 3:41.62 | 221978 | 238614


Характеристики диапазона извлечения и сообщения об ошибках

Выбранный диапазон

Имя файла E:\Paul McCartney\1971 Wild Life\Wings - Wild Life.wav

Пиковый уровень 100.0 %
Качество диапазона 100.0 %
CRC теста EBC9FBBF
CRC копии EBC9FBBF
Копирование… OK

Ошибок не произошло


AccurateRip: сводка

Трек 1 точное извлечение (доверие 4) [2B7BE685]
Трек 2 точное извлечение (доверие 4) [5209FB3A]
Трек 3 точное извлечение (доверие 4) [57080477]
Трек 4 точное извлечение (доверие 4) [CFB5F026]
Трек 5 точное извлечение (доверие 4) [FAE2B6E7]
Трек 6 точное извлечение (доверие 4) [E9C3B7D0]
Трек 7 точное извлечение (доверие 4) [266063E5]
Трек 8 точное извлечение (доверие 4) [64580381]
Трек 9 точное извлечение (доверие 3) [0AEA3B0A]
Трек 10 точное извлечение (доверие 4) [6A222DC2]
Трек 11 точное извлечение (доверие 3) [42166B2D]
Трек 12 точное извлечение (доверие 3) [19A2B275]
Трек 13 точное извлечение (доверие 3) [AEF6F62D]
Трек 14 точное извлечение (доверие 4) [6F2AA647]

Все треки извлечены точно

Конец отчёта


[CUETools log; Date: 06.12.2017 20:07:35; Version: 2.1.5]
Pregap length 00:00:33.
[CTDB TOCID: L.5JzrQtBj0TPotWpsj6IJj6Nb4-] found.
Track | CTDB Status
1 | (85/87) Accurately ripped
2 | (82/87) Accurately ripped, or (2/87) differs in 30576 samples @01:54:56-01:55:07
3 | (80/87) Accurately ripped, or (2/87) differs in 3 samples @04:48:46, or (2/87) differs in 8 samples @04:48:09
4 | (86/87) Accurately ripped
5 | (82/87) Accurately ripped, or (2/87) differs in 266 samples @06:36:07-06:36:09
6 | (84/87) Accurately ripped
7 | (85/87) Accurately ripped
8 | (85/87) Accurately ripped
9 | (83/87) Accurately ripped
10 | (85/87) Accurately ripped
11 | (84/87) Accurately ripped
12 | (84/87) Accurately ripped, or (1/87) differs in 377 samples @03:01:14-03:01:15,03:02:10-03:02:11,03:02:27-03:02:28,03:02:45-03:02:46,03:02:63-03:02:64,03:03:06,03:03:24
13 | (83/87) Accurately ripped, or (2/87) differs in 3361 samples @02:07:49-02:07:57
14 | (83/87) Accurately ripped
[AccurateRip ID: 001dca39-013675e8-d00c6d0e] found.
Track [ CRC | V2 ] Status
01 [2b7be685|6c530163] (007+005/132) Accurately ripped
02 [5209fb3a|50191d6d] (007+005/133) Accurately ripped
03 [57080477|c44bb6c8] (007+005/131) Accurately ripped
04 [cfb5f026|843c401e] (007+005/129) Accurately ripped
05 [fae2b6e7|c3038bb2] (007+005/132) Accurately ripped
06 [e9c3b7d0|20e7331e] (007+005/133) Accurately ripped
07 [266063e5|1722b896] (007+005/133) Accurately ripped
08 [64580381|2e8f8c45] (007+005/133) Accurately ripped
09 [0aea3b0a|4029ffde] (006+005/132) Accurately ripped
10 [6a222dc2|3dde1cdc] (007+005/133) Accurately ripped
11 [42166b2d|3c8ec92d] (006+005/137) Accurately ripped
12 [19a2b275|0d2d6306] (006+005/133) Accurately ripped
13 [aef6f62d|f7193ca2] (006+005/129) Accurately ripped
14 [6f2aa647|dadc79b2] (007+005/127) Accurately ripped
Offsetted by -208:
01 [0bb643b5] (002/132) Accurately ripped
02 [bcc4c7ea] (002/133) Accurately ripped
03 [6a929ff7] (002/131) Accurately ripped
04 [30c330b6] (002/129) Accurately ripped
05 [3e26d8a7] (002/132) Accurately ripped
06 [6c89a420] (002/133) Accurately ripped
07 [36b464a5] (002/133) Accurately ripped
08 [e6832031] (002/133) Accurately ripped
09 [12141f4a] (002/132) Accurately ripped
10 [25d8dc22] (002/133) Accurately ripped
11 [fdd1cebd] (002/137) Accurately ripped
12 [5b1ab675] (002/133) Accurately ripped
13 [d943b70d] (002/129) Accurately ripped
14 [6c32fd47] (002/127) Accurately ripped
Offsetted by 523:
01 [bb5f4d70] (013/132) Accurately ripped
02 [4f8584dd] (013/133) Accurately ripped
03 [385b7fef] (013/131) Accurately ripped
04 [958713f7] (013/129) Accurately ripped
05 [14362be3] (013/132) Accurately ripped
06 [20f20e3d] (013/133) Accurately ripped
07 [84b48e51] (013/133) Accurately ripped
08 [c6e43a24] (013/133) Accurately ripped
09 [a7abf96e] (013/132) Accurately ripped
10 [f35f74d8] (013/133) Accurately ripped
11 [00342aae] (014/137) Accurately ripped
12 [f77b14b5] (014/133) Accurately ripped
13 [898733ab] (014/129) Accurately ripped
14 [20795f37] (013/127) Accurately ripped
Offsetted by 676:
01 [92be37a9] (041/132) Accurately ripped
02 [f72ae1fe] (041/133) Accurately ripped
03 [57858b17] (041/131) Accurately ripped
04 [d44ade52] (039/129) Accurately ripped
05 [a0454937] (041/132) Accurately ripped
06 [40c077cc] (041/133) Accurately ripped
07 [714f6175] (041/133) Accurately ripped
08 [3d4be645] (041/133) Accurately ripped
09 [73a2153a] (041/132) Accurately ripped
10 [4810770a] (041/133) Accurately ripped
11 [5ff56799] (043/137) Accurately ripped
12 [c4dca575] (041/133) Accurately ripped
13 [257d8355] (041/129) Accurately ripped
14 [f8cf8b87] (039/127) Accurately ripped

Track Peak [ CRC32 ] [W/O NULL] [ LOG ]
– 100,0 [EBC9FBBF] [86E64586] CRC32
01 90,8 [8D047948] [4462936C]
02 91,4 [E4FCA22B] [50E9F8C8]
03 82,7 [27B05F4B] [1FEFABF7]
04 100,0 [14A2B5F7] [C19D30E7]
05 87,5 [D70D3120] [61B56AB0]
06 85,9 [D40BC662] [0674BDBF]
07 41,7 [859A73A0] [8F575812]
08 100,0 [98B59C22] [157850D4]
09 72,3 [5C9AF59F] [06477EA7]
10 68,1 [B0C00B2C] [9EC9CF20]
11 72,2 [93F09856] [A6947E83]
12 96,4 [092752BB] [45B83BC7]
13 76,8 [7DBD30F8] [10822083]
14 80,8 [961EB295] [5BF32DD6]


Paul McCartney, Wings: Remastered CD Collection (1971 - 1989)

Tracklist CD3 - Red Rose Speedway - 1973:
Parlophone 0777 7 89238 2 4, Holland

01. Big Barn Bed
02. My Love
03. Get On The Right Thing
04. One More Kiss
05. Little Lamb Dragonfly
06. Single Pigeon
07. When The Night
08. Loup (1st Indian On The Moon)
09. Medley: Hold Me Tight - Lazy Dynamite - Hands Of Love - Power Cut
10. C Moon (Bonus Track)
11. Hi, Hi, Hi
12. The Mess
13. I Lie Around

Exact Audio Copy V0.99 prebeta 5 from 4. May 2009

Отчёт EAC об извлечении, выполненном 14. марта 2011, 16:02

Paul McCartney / Red Rose Speedway

Дисковод: Optiarc DVD RW AD-7240S Adapter: 1 ID: 0

Режим чтения : Достоверность
Использование точного потока : Да
Отключение кэша аудио : Да
Использование указателей C2 : Нет

Коррекция смещения при чтении : 48
Способность читать области Lead-in и Lead-out : Нет
Заполнение пропущенных сэмплов тишиной : Да
Удаление блоков с тишиной в начале и конце : Нет
При вычислениях CRC использовались нулевые сэмплы : Да
Интерфейс : Встроенный Win32-интерфейс для Win NT/2000

Выходной формат : Пользовательский кодировщик
Выбранный битрейт : 768 kBit/s
Качество : Высокий
Добавление ID3-тэга : Нет
Утилита сжатия : C:\Program Files\Exact Audio Copy\FLAC\FLAC.EXE
Дополнительные параметры : -6 -V -T "ARTIST=%a" -T "TITLE=%t" -T "ALBUM=%g" -T "DATE=%y" -T "TRACKNUMBER=%n" -T "GENRE=%m" -T "COMMENT=%e" %s -o %d


TOC извлечённого CD

Трек | Старт | Длительность | Начальный сектор | Конечный сектор
––––––––––––––––––––––––––––––––––-
1 | 0:00.33 | 3:49.47 | 33 | 17254
2 | 3:50.05 | 4:07.55 | 17255 | 35834
3 | 7:57.60 | 4:16.18 | 35835 | 55052
4 | 12:14.03 | 2:29.20 | 55053 | 66247
5 | 14:43.23 | 6:20.47 | 66248 | 94794
6 | 21:03.70 | 1:52.65 | 94795 | 103259
7 | 22:56.60 | 3:36.60 | 103260 | 119519
8 | 26:33.45 | 4:23.10 | 119520 | 139254
9 | 30:56.55 | 11:25.40 | 139255 | 190669
10 | 42:22.20 | 4:34.65 | 190670 | 211284
11 | 46:57.10 | 3:08.28 | 211285 | 225412
12 | 50:05.38 | 4:57.52 | 225413 | 247739
13 | 55:03.15 | 4:59.68 | 247740 | 270232


Характеристики диапазона извлечения и сообщения об ошибках

Выбранный диапазон

Имя файла E:\Paul McCartney\1973.Red Rose Speedway\Paul McCartney - Red Rose Speedway.wav

Пиковый уровень 99.5 %
Качество диапазона 100.0 %
CRC теста 0E7A20FF
CRC копии 0E7A20FF
Копирование… OK

Ошибок не произошло


AccurateRip: сводка

Трек 1 точное извлечение (доверие 42) [954D246E]
Трек 2 точное извлечение (доверие 44) [D4045209]
Трек 3 точное извлечение (доверие 44) [91B78B8B]
Трек 4 точное извлечение (доверие 44) [E89325AD]
Трек 5 точное извлечение (доверие 45) [9874308F]
Трек 6 точное извлечение (доверие 45) [CEBC44F4]
Трек 7 точное извлечение (доверие 45) [8C807EFC]
Трек 8 точное извлечение (доверие 45) [F34A0043]
Трек 9 точное извлечение (доверие 43) [00879334]
Трек 10 точное извлечение (доверие 42) [7DCA8A5F]
Трек 11 точное извлечение (доверие 44) [2A97A2D5]
Трек 12 точное извлечение (доверие 43) [D000F2A6]
Трек 13 точное извлечение (доверие 44) [578270C1]

Все треки извлечены точно

Конец отчёта


[CUETools log; Date: 06.12.2017 20:08:00; Version: 2.1.5]
Pregap length 00:00:33.
[CTDB TOCID: 4ZauuicuA0gqZa3ElHxb7hKXngM-] found.
Track | CTDB Status
1 | (82/85) Accurately ripped
2 | (84/85) Accurately ripped
3 | (83/85) Accurately ripped
4 | (84/85) Accurately ripped
5 | (79/85) Accurately ripped, or (1/85) differs in 1435 samples @06:20:07-06:20:13
6 | (84/85) Accurately ripped
7 | (83/85) Accurately ripped
8 | (83/85) Accurately ripped
9 | (80/85) Accurately ripped
10 | (80/85) Accurately ripped, or (1/85) differs in 197 samples @04:32:23-04:32:32
11 | (82/85) Accurately ripped
12 | (83/85) Accurately ripped
13 | (80/85) Accurately ripped
[AccurateRip ID: 001b1bd3-0114b4ca-c50e130d] found.
Track [ CRC | V2 ] Status
01 [954d246e|8e385849] (046+067/149) Accurately ripped
02 [d4045209|134260f0] (048+070/154) Accurately ripped
03 [91b78b8b|3b8dd39b] (048+069/153) Accurately ripped
04 [e89325ad|9c7e16a9] (048+069/153) Accurately ripped
05 [9874308f|30737eb3] (049+070/155) Accurately ripped
06 [cebc44f4|daabf686] (049+068/153) Accurately ripped
07 [8c807efc|d2201078] (049+069/154) Accurately ripped
08 [f34a0043|d9ca114f] (049+068/153) Accurately ripped
09 [00879334|29825343] (047+066/149) Accurately ripped
10 [7dca8a5f|aac28eda] (046+071/152) Accurately ripped
11 [2a97a2d5|e43b8a31] (048+070/152) Accurately ripped
12 [d000f2a6|61c53d08] (047+067/149) Accurately ripped
13 [578270c1|89b2668b] (048+069/151) Accurately ripped
Offsetted by -664:
01 [18086bea] (009/149) Accurately ripped
02 [accb6ebd] (009/154) Accurately ripped
03 [d4f25743] (009/153) Accurately ripped
04 [dc0a00ed] (009/153) Accurately ripped
05 [ff7fc1af] (009/155) Accurately ripped
06 [b52ccc94] (009/153) Accurately ripped
07 [4653892c] (009/154) Accurately ripped
08 [b7ba5ed7] (009/153) Accurately ripped
09 [c6edca3c] (009/149) Accurately ripped
10 [11904987] (009/152) Accurately ripped
11 [b7395815] (008/152) Accurately ripped
12 [9186a77e] (009/149) Accurately ripped
13 [30a09169] (009/151) Accurately ripped
Offsetted by 621:
01 [7a4c3fe2] (006/149) Accurately ripped
02 [6d44491f] (006/154) Accurately ripped
03 [8680f142] (006/153) Accurately ripped
04 [6dbe9715] (006/153) Accurately ripped
05 [b62771b3] (006/155) Accurately ripped
06 [de8b50e8] (006/153) Accurately ripped
07 [52c272c2] (006/154) Accurately ripped
08 [4e5474e0] (006/153) Accurately ripped
09 [3d99b068] (006/149) Accurately ripped
10 [0e938704] (006/152) Accurately ripped
11 [b42d1f7d] (006/152) Accurately ripped
12 [8a0cc481] (006/149) Accurately ripped
13 [edfe8d96] (006/151) Accurately ripped
Offsetted by -48:
01 [839630c7] (000/149) No match (V2 was not tested)
02 [4d95dab0] (000/154) No match (V2 was not tested)
03 [0bc821fb] (000/153) No match (V2 was not tested)
04 [15ef042d] (000/153) No match (V2 was not tested)
05 [623756cf] (000/155) No match (V2 was not tested)
06 [c9cda834] (000/153) No match (V2 was not tested)
07 [1b7a295c] (000/154) No match (V2 was not tested)
08 [ac7cd204] (000/153) No match (V2 was not tested)
09 [a259e44b] (000/149) No match (V2 was not tested)
10 [e81685af] (000/152) No match (V2 was not tested)
11 [d83a7555] (000/152) No match (V2 was not tested)
12 [bf265f56] (000/149) No match (V2 was not tested)
13 [988ddf11] (000/151) No match (V2 was not tested)

Track Peak [ CRC32 ] [W/O NULL] [ LOG ]
– 99,5 [0E7A20FF] [E961C91F] CRC32
01 99,5 [05EA0944] [DBB5A6F1]
02 78,1 [DC47359A] [3AF75556]
03 74,2 [24756828] [66954614]
04 80,0 [BA6BD6C0] [29E25D92]
05 72,2 [61378268] [478014C1]
06 60,5 [5083A9D2] [B900AF77]
07 74,4 [FBA23535] [80FC6E28]
08 82,6 [EDC02053] [079FA738]
09 80,7 [4550D708] [91292746]
10 67,9 [E1F3C194] [B8A04CB1]
11 89,2 [5742CCFC] [70C092AD]
12 88,8 [6AEE1B7E] [F1A9278B]
13 71,7 [90A8D29B] [50A30F80]


Paul McCartney, Wings: Remastered CD Collection (1971 - 1989)

Tracklist CD4 - Venus And Mars - 1975:
Parlophone 0 777 7 89241 2 8, Holland

01. Venus And Mars
02. Rock Show
03. Love In Song
04. You Gave Me The Answer
05. Magneto And Titanium Man
06. Letting Go
07. Venus And Mars (Reprise)
08. Spirits Of Ancient Egypt
09. Medicine Jar
10. Call Me Back Again
11. Listen To What The Man Said
12. Treat Her Gently (Lonely Old People)
13. Crossroads Theme
14. Zoo Gang
15. Lunch Box/Odd Sox
16. My Carnival

Exact Audio Copy V0.99 prebeta 5 from 4. May 2009

Отчёт EAC об извлечении, выполненном 10. сентября 2010, 16:59

Paul McCartney & Wings / Venus And Mars

Дисковод: Optiarc DVD RW AD-7240S Adapter: 1 ID: 0

Режим чтения : Достоверность
Использование точного потока : Да
Отключение кэша аудио : Да
Использование указателей C2 : Нет

Коррекция смещения при чтении : 48
Способность читать области Lead-in и Lead-out : Нет
Заполнение пропущенных сэмплов тишиной : Да
Удаление блоков с тишиной в начале и конце : Нет
При вычислениях CRC использовались нулевые сэмплы : Да
Интерфейс : Встроенный Win32-интерфейс для Win NT/2000

Выходной формат : Пользовательский кодировщик
Выбранный битрейт : 768 kBit/s
Качество : Высокий
Добавление ID3-тэга : Нет
Утилита сжатия : C:\Program Files\Exact Audio Copy\FLAC\FLAC.EXE
Дополнительные параметры : -6 -V -T "ARTIST=%a" -T "TITLE=%t" -T "ALBUM=%g" -T "DATE=%y" -T "TRACKNUMBER=%n" -T "GENRE=%m" -T "COMMENT=%e" %s -o %d


TOC извлечённого CD

Трек | Старт | Длительность | Начальный сектор | Конечный сектор
––––––––––––––––––––––––––––––––––-
1 | 0:00.33 | 1:20.37 | 33 | 6069
2 | 1:20.70 | 5:30.73 | 6070 | 30892
3 | 6:51.68 | 3:03.32 | 30893 | 44649
4 | 9:55.25 | 2:14.73 | 44650 | 54772
5 | 12:10.23 | 3:16.17 | 54773 | 69489
6 | 15:26.40 | 4:33.10 | 69490 | 89974
7 | 19:59.50 | 2:05.30 | 89975 | 99379
8 | 22:05.05 | 3:04.33 | 99380 | 113212
9 | 25:09.38 | 3:37.12 | 113213 | 129499
10 | 28:46.50 | 4:58.70 | 129500 | 151919
11 | 33:45.45 | 4:01.33 | 151920 | 170027
12 | 37:47.03 | 4:23.70 | 170028 | 189822
13 | 42:10.73 | 1:09.02 | 189823 | 194999
14 | 43:20.00 | 2:01.03 | 195000 | 204077
15 | 45:21.03 | 3:50.45 | 204078 | 221372
16 | 49:11.48 | 3:57.05 | 221373 | 239152


Характеристики диапазона извлечения и сообщения об ошибках

Выбранный диапазон

Имя файла E:\music\Музон\Paul McCartney & Wings Venus And Mars1975\Paul McCartney & Wings - Venus And Mars.wav

Пиковый уровень 97.7 %
Качество диапазона 100.0 %
CRC теста E697BB1F
CRC копии E697BB1F
Копирование… OK

Ошибок не произошло


AccurateRip: сводка

Трек 1 точное извлечение (доверие 59) [EC330927]
Трек 2 точное извлечение (доверие 59) [0165B1B9]
Трек 3 точное извлечение (доверие 59) [B2242FD9]
Трек 4 точное извлечение (доверие 59) [60A39565]
Трек 5 точное извлечение (доверие 59) [C6F752AB]
Трек 6 точное извлечение (доверие 56) [EB42B613]
Трек 7 точное извлечение (доверие 59) [88FDCBC9]
Трек 8 точное извлечение (доверие 58) [B02BC11A]
Трек 9 точное извлечение (доверие 58) [1DF5B459]
Трек 10 точное извлечение (доверие 56) [201732AE]
Трек 11 точное извлечение (доверие 59) [DE6A4A3B]
Трек 12 точное извлечение (доверие 57) [361FCD33]
Трек 13 точное извлечение (доверие 58) [ACFCA72F]
Трек 14 точное извлечение (доверие 58) [63B29F5B]
Трек 15 точное извлечение (доверие 58) [71CD8DFB]
Трек 16 точное извлечение (доверие 56) [91F9EB7C]

Все треки извлечены точно

Конец отчёта


[CUETools log; Date: 06.12.2017 20:08:27; Version: 2.1.5]
Pregap length 00:00:33.
[CTDB TOCID: T4eq2Nuz9jqgRlRWP1tw98zUvt4-] found.
Track | CTDB Status
1 | (93/95) Accurately ripped
2 | (95/95) Accurately ripped
3 | (94/95) Accurately ripped
4 | (95/95) Accurately ripped
5 | (95/95) Accurately ripped
6 | (94/95) Accurately ripped
7 | (95/95) Accurately ripped
8 | (93/95) Accurately ripped
9 | (94/95) Accurately ripped
10 | (95/95) Accurately ripped
11 | (95/95) Accurately ripped
12 | (94/95) Accurately ripped
13 | (95/95) Accurately ripped
14 | (95/95) Accurately ripped
15 | (94/95) Accurately ripped
16 | (95/95) Accurately ripped
[AccurateRip ID: 001ea908-0172a675-c80c7410] found.
Track [ CRC | V2 ] Status
01 [ec330927|f186f994] (075+102/220) Accurately ripped
02 [0165b1b9|f98a88c2] (075+103/221) Accurately ripped
03 [b2242fd9|5f1a0cba] (075+103/219) Accurately ripped
04 [60a39565|987b9feb] (075+103/220) Accurately ripped
05 [c6f752ab|5be9e4cd] (075+103/219) Accurately ripped
06 [eb42b613|54ca3ab3] (072+103/217) Accurately ripped
07 [88fdcbc9|ecb05e51] (075+103/218) Accurately ripped
08 [b02bc11a|8165e68f] (074+103/217) Accurately ripped
09 [1df5b459|720f7738] (074+102/217) Accurately ripped
10 [201732ae|d702b937] (072+103/215) Accurately ripped
11 [de6a4a3b|2ad1fe82] (075+104/221) Accurately ripped
12 [361fcd33|038c9ef3] (072+103/216) Accurately ripped
13 [acfca72f|b2a0e51c] (074+103/217) Accurately ripped
14 [63b29f5b|1c636081] (074+098/212) Accurately ripped
15 [71cd8dfb|0ff755b1] (073+097/209) Accurately ripped
16 [91f9eb7c|5f0163f0] (071+099/210) Accurately ripped
Offsetted by -676:
01 [cd0412a2] (004/220) Accurately ripped
02 [0a84591e] (004/221) Accurately ripped
03 [1d605c71] (003/219) Accurately ripped
04 [3b244829] (003/220) Accurately ripped
05 [b0bbe82c] (003/219) Accurately ripped
06 [6e4a3882] (003/217) Accurately ripped
07 [cb860480] (003/218) Accurately ripped
08 [49294be7] (003/217) Accurately ripped
09 [3188db5d] (004/217) Accurately ripped
10 [95434a42] (003/215) Accurately ripped
11 [67c5edbd] (003/221) Accurately ripped
12 [aa9c5fa1] (003/216) Accurately ripped
13 [f932d2d3] (003/217) Accurately ripped
14 [b48671a3] (004/212) Accurately ripped
15 [e917c937] (003/209) Accurately ripped
16 [3418e400] (004/210) Accurately ripped
Offsetted by -36:
01 [ab3751ff] (013/220) Accurately ripped
02 [c2d98618] (013/221) Accurately ripped
03 [63f98216] (013/219) Accurately ripped
04 [c29e51a9] (013/220) Accurately ripped
05 [f4160a45] (013/219) Accurately ripped
06 [cc001c71] (013/217) Accurately ripped
07 [10765082] (013/218) Accurately ripped
08 [0e1d5251] (013/217) Accurately ripped
09 [976f2430] (013/217) Accurately ripped
10 [416d813f] (013/215) Accurately ripped
11 [ef88cf7e] (013/221) Accurately ripped
12 [c313aa10] (013/216) Accurately ripped
13 [2d423053] (013/217) Accurately ripped
14 [e2b34ca3] (013/212) Accurately ripped
15 [7e36ffb7] (013/209) Accurately ripped
16 [5afd1580] (013/210) Accurately ripped
Offsetted by -6:
01 [c96ebf2d] (000/220) No match (V2 was not tested)
02 [f64dd31d] (000/221) No match (V2 was not tested)
03 [23a03789] (000/219) No match (V2 was not tested)
04 [70f80a1b] (000/220) No match (V2 was not tested)
05 [7655ea30] (000/219) No match (V2 was not tested)
06 [cd3ba07e] (000/217) No match (V2 was not tested)
07 [5ed27951] (000/218) No match (V2 was not tested)
08 [0657a9de] (000/217) No match (V2 was not tested)
09 [7c7481bf] (000/217) No match (V2 was not tested)
10 [cfd26b46] (000/215) No match (V2 was not tested)
11 [4a45a363] (000/221) No match (V2 was not tested)
12 [4fb2fc83] (000/216) No match (V2 was not tested)
13 [17b2e8b5] (000/217) No match (V2 was not tested)
14 [f8dd66e7] (000/212) No match (V2 was not tested)
15 [49347645] (000/209) No match (V2 was not tested)
16 [88cfc7d2] (000/210) No match (V2 was not tested)

Track Peak [ CRC32 ] [W/O NULL] [ LOG ]
– 97,7 [E697BB1F] [B7B34E0D] CRC32
01 64,9 [5E9D1021] [DF1F32AF]
02 97,7 [75225F7E] [BE4DFC4F]
03 49,5 [0D930464] [50D6FB30]
04 56,0 [EC6FD9DD] [B441DDF3]
05 82,1 [16BA44D7] [79A564EC]
06 79,9 [6D71CFAA] [AAADBF65]
07 39,3 [F093720A] [54481057]
08 75,7 [DBD8B2C0] [7C4A2067]
09 91,2 [AE2EE179] [21A395FD]
10 80,1 [5F042A31] [1F1B23E1]
11 97,7 [069A8188] [55C102F4]
12 86,4 [1150AF21] [41CC011B]
13 95,1 [58C58D68] [7CAF2E1B]
14 96,6 [D5C7A5B6] [E52D3022]
15 92,1 [1F5548AC] [6B9D7734]
16 95,9 [FE95F90B] [E3B9E84B]


Paul McCartney, Wings: Remastered CD Collection (1971 - 1989)

Tracklist CD5 - Wings At The Speed Of Sound - 1976:
Parlophone 0 777 7 89140 2 0, Holland

01. Let 'Em In
02. The Note You Never Wrote
03. She's My Baby
04. Beware My Love
05. Wino Junko
06. Silly Love Songs
07. Cook Of The House
08. Time To Hide
09. Must Do Something About It
10. San Ferry Anne
11. Warm and Beautiful
12. Walking In The Park With Eloise
13. Bridge On The River Suite
14. Sally G

Exact Audio Copy V0.99 prebeta 5 from 4. May 2009

Отчёт EAC об извлечении, выполненном 25. февраля 2011, 19:39

Wings / Wings At The Speed Of Sound

Дисковод: Optiarc DVD RW AD-7240S Adapter: 1 ID: 0

Режим чтения : Достоверность
Использование точного потока : Да
Отключение кэша аудио : Да
Использование указателей C2 : Нет

Коррекция смещения при чтении : 48
Способность читать области Lead-in и Lead-out : Нет
Заполнение пропущенных сэмплов тишиной : Да
Удаление блоков с тишиной в начале и конце : Нет
При вычислениях CRC использовались нулевые сэмплы : Да
Интерфейс : Встроенный Win32-интерфейс для Win NT/2000

Выходной формат : Пользовательский кодировщик
Выбранный битрейт : 768 kBit/s
Качество : Высокий
Добавление ID3-тэга : Нет
Утилита сжатия : C:\Program Files\Exact Audio Copy\FLAC\FLAC.EXE
Дополнительные параметры : -6 -V -T "ARTIST=%a" -T "TITLE=%t" -T "ALBUM=%g" -T "DATE=%y" -T "TRACKNUMBER=%n" -T "GENRE=%m" -T "COMMENT=%e" %s -o %d


TOC извлечённого CD

Трек | Старт | Длительность | Начальный сектор | Конечный сектор
––––––––––––––––––––––––––––––––––-
1 | 0:00.33 | 5:11.30 | 33 | 23387
2 | 5:11.63 | 4:20.35 | 23388 | 42922
3 | 9:32.23 | 3:06.25 | 42923 | 56897
4 | 12:38.48 | 6:29.40 | 56898 | 86112
5 | 19:08.13 | 5:20.70 | 86113 | 110182
6 | 24:29.08 | 5:52.72 | 110183 | 136654
7 | 30:22.05 | 2:38.43 | 136655 | 148547
8 | 33:00.48 | 4:32.02 | 148548 | 168949
9 | 37:32.50 | 3:43.48 | 168950 | 185722
10 | 41:16.23 | 2:09.47 | 185723 | 195444
11 | 43:25.70 | 3:21.53 | 195445 | 210572
12 | 46:47.48 | 3:10.10 | 210573 | 224832
13 | 49:57.58 | 3:10.22 | 224833 | 239104
14 | 53:08.05 | 3:39.05 | 239105 | 255534


Характеристики диапазона извлечения и сообщения об ошибках

Выбранный диапазон

Имя файла E:\Paul McCartney\1976 Wings At The Speed Of Sound\Wings - Wings At The Speed Of Sound.wav

Пиковый уровень 92.8 %
Качество диапазона 100.0 %
CRC теста 9F750BAF
CRC копии 9F750BAF
Копирование… OK

Ошибок не произошло


AccurateRip: сводка

Трек 1 точное извлечение (доверие 43) [8AE23F14]
Трек 2 точное извлечение (доверие 43) [DF2ECD38]
Трек 3 точное извлечение (доверие 44) [79435AED]
Трек 4 точное извлечение (доверие 44) [4C039EB7]
Трек 5 точное извлечение (доверие 43) [3317D903]
Трек 6 точное извлечение (доверие 44) [9BF39A2A]
Трек 7 точное извлечение (доверие 43) [36C05D9D]
Трек 8 точное извлечение (доверие 42) [80658117]
Трек 9 точное извлечение (доверие 43) [4A81907C]
Трек 10 точное извлечение (доверие 43) [D774D696]
Трек 11 точное извлечение (доверие 43) [6B105FB1]
Трек 12 точное извлечение (доверие 43) [EE4AD20F]
Трек 13 точное извлечение (доверие 43) [5F00B029]
Трек 14 точное извлечение (доверие 43) [9DCC7E6A]

Все треки извлечены точно

Конец отчёта


[CUETools log; Date: 06.12.2017 20:08:49; Version: 2.1.5]
Pregap length 00:00:33.
[CTDB TOCID: tjcIIytZI4qndGeTAdTvzXhiJCk-] found.
Track | CTDB Status
1 | (54/58) Accurately ripped
2 | (57/58) Accurately ripped
3 | (56/58) Accurately ripped
4 | (57/58) Accurately ripped
5 | (57/58) Accurately ripped
6 | (57/58) Accurately ripped
7 | (56/58) Accurately ripped
8 | (55/58) Accurately ripped
9 | (57/58) Accurately ripped
10 | (56/58) Accurately ripped
11 | (57/58) Accurately ripped
12 | (57/58) Accurately ripped
13 | (57/58) Accurately ripped
14 | (56/58) Accurately ripped
[AccurateRip ID: 001fd029-014c9b2d-cb0d4f0e] found.
Track [ CRC | V2 ] Status
01 [8ae23f14|f0404ea0] (050+071/159) Accurately ripped
02 [df2ecd38|4f6d7e20] (049+067/154) Accurately ripped
03 [79435aed|a9a175f0] (050+067/154) Accurately ripped
04 [4c039eb7|79b97908] (050+067/156) Accurately ripped
05 [3317d903|1967fdbc] (049+065/152) Accurately ripped
06 [9bf39a2a|73654807] (050+066/154) Accurately ripped
07 [36c05d9d|0b4451ae] (049+065/152) Accurately ripped
08 [80658117|b1131639] (048+064/148) Accurately ripped
09 [4a81907c|39190981] (049+064/151) Accurately ripped
10 [d774d696|49596cb3] (049+065/152) Accurately ripped
11 [6b105fb1|ef285c93] (049+066/153) Accurately ripped
12 [ee4ad20f|0d05817a] (049+065/152) Accurately ripped
13 [5f00b029|c1947db6] (049+059/145) Accurately ripped
14 [9dcc7e6a|411f2b97] (049+063/150) Accurately ripped
Offsetted by -676:
01 [29ad13d0] (009/159) Accurately ripped
02 [48f801b8] (009/154) Accurately ripped
03 [61286ac2] (009/154) Accurately ripped
04 [70051b8e] (009/156) Accurately ripped
05 [c7a10c2f] (009/152) Accurately ripped
06 [161a9ece] (009/154) Accurately ripped
07 [5adb1bf5] (009/152) Accurately ripped
08 [63540e04] (009/148) Accurately ripped
09 [329542c3] (009/151) Accurately ripped
10 [26df2f8e] (009/152) Accurately ripped
11 [0348ef01] (009/153) Accurately ripped
12 [9ea39023] (009/152) Accurately ripped
13 [f7ea32a9] (009/145) Accurately ripped
14 [b0ea688e] (009/150) Accurately ripped
Offsetted by -664:
01 [d8168abc] (003/159) Accurately ripped
02 [69ee6038] (003/154) Accurately ripped
03 [9eb02ac6] (003/154) Accurately ripped
04 [f7d2e0ba] (003/156) Accurately ripped
05 [6713404b] (003/152) Accurately ripped
06 [d75808c2] (003/154) Accurately ripped
07 [f1b1bc2d] (003/152) Accurately ripped
08 [193f9b7a] (003/148) Accurately ripped
09 [77e5ddc9] (003/151) Accurately ripped
10 [361ff2e6] (003/152) Accurately ripped
11 [eb602a91] (003/153) Accurately ripped
12 [b5428e47] (003/152) Accurately ripped
13 [dcf6b729] (002/145) Accurately ripped
14 [1918d602] (003/150) Accurately ripped
Offsetted by -269:
01 [4526153f] (009/159) Accurately ripped
02 [d19c06d8] (009/154) Accurately ripped
03 [bd9a708f] (009/154) Accurately ripped
04 [25221c0a] (009/156) Accurately ripped
05 [522d1e3a] (009/152) Accurately ripped
06 [30283db7] (009/154) Accurately ripped
07 [ac1fd60b] (009/152) Accurately ripped
08 [0ceb1dc2] (008/148) Accurately ripped
09 [47c4d4c2] (009/151) Accurately ripped
10 [d6de664c] (009/152) Accurately ripped
11 [edb23dd5] (009/153) Accurately ripped
12 [88896668] (009/152) Accurately ripped
13 [907d6b49] (009/145) Accurately ripped
14 [be6668d7] (009/150) Accurately ripped
Offsetted by -48:
01 [d13c6364] (000/159) No match (V2 was not tested)
02 [5b555338] (000/154) No match (V2 was not tested)
03 [6e52fe07] (000/154) No match (V2 was not tested)
04 [6ae248d1] (000/156) No match (V2 was not tested)
05 [b54f0893] (000/152) No match (V2 was not tested)
06 [96fdf25a] (000/154) No match (V2 was not tested)
07 [db65dcbd] (000/152) No match (V2 was not tested)
08 [b4e41985] (000/148) No match (V2 was not tested)
09 [a78792d6] (000/151) No match (V2 was not tested)
10 [9a71c936] (000/152) No match (V2 was not tested)
11 [cab37171] (000/153) No match (V2 was not tested)
12 [93ced97f] (000/152) No match (V2 was not tested)
13 [cace9e29] (000/145) No match (V2 was not tested)
14 [fd12c89a] (000/150) No match (V2 was not tested)

Track Peak [ CRC32 ] [W/O NULL] [ LOG ]
– 92,8 [9F750BAF] [6F53BABA] CRC32
01 85,8 [A365039B] [49726877]
02 66,9 [4F52B72E] [DBF2567D]
03 90,4 [26E5CE13] [09A19B86]
04 78,6 [C8364733] [D8871266]
05 82,8 [37889783] [736253D7]
06 80,0 [61B57C21] [4B17F9F6]
07 70,3 [42CF2EFA] [63789D2B]
08 75,4 [DFCB7CAC] [F4F72783]
09 69,7 [5301159E] [0792E4F0]
10 71,1 [5D1BBCF4] [526848E1]
11 48,9 [0F77B3C5] [32357D8E]
12 92,8 [785002EC] [2FBDE18E]
13 78,3 [CD7EF7BA] [2C5E21C2]
14 74,1 [F906075A] [2478A961]


Paul McCartney, Wings: Remastered CD Collection (1971 - 1989)

Tracklist CD6 - London Town - 1978:
Parlophone 0 777 7 89265 2 8, Holland

01. London Town
02. Cafe On The Left Bank
03. I'm Carrying
04. Backwards Traveller
05. Cuff Link
06. Children Children
07. Girlfriend
08. I've Had Enough
09. With A Little Luck
10. Famous Groupies
11. Deliver Your Children
12. Name And Address
13. Don't Let It Bring You Down
14. Morse Moose And The Grey Goose
15. Girls' School
16. Mull Of Kintyre

Exact Audio Copy V0.99 prebeta 5 from 4. May 2009

Отчёт EAC об извлечении, выполненном 19. февраля 2011, 15:58

Wings / London Town

Дисковод: Optiarc DVD RW AD-7240S Adapter: 1 ID: 0

Режим чтения : Достоверность
Использование точного потока : Да
Отключение кэша аудио : Да
Использование указателей C2 : Нет

Коррекция смещения при чтении : 48
Способность читать области Lead-in и Lead-out : Нет
Заполнение пропущенных сэмплов тишиной : Да
Удаление блоков с тишиной в начале и конце : Нет
При вычислениях CRC использовались нулевые сэмплы : Да
Интерфейс : Встроенный Win32-интерфейс для Win NT/2000

Выходной формат : Пользовательский кодировщик
Выбранный битрейт : 768 kBit/s
Качество : Высокий
Добавление ID3-тэга : Нет
Утилита сжатия : C:\Program Files\Exact Audio Copy\FLAC\FLAC.EXE
Дополнительные параметры : -6 -V -T "ARTIST=%a" -T "TITLE=%t" -T "ALBUM=%g" -T "DATE=%y" -T "TRACKNUMBER=%n" -T "GENRE=%m" -T "COMMENT=%e" %s -o %d


TOC извлечённого CD

Трек | Старт | Длительность | Начальный сектор | Конечный сектор
––––––––––––––––––––––––––––––––––-
1 | 0:00.33 | 4:09.47 | 33 | 18754
2 | 4:10.05 | 3:26.40 | 18755 | 34244
3 | 7:36.45 | 2:44.08 | 34245 | 46552
4 | 10:20.53 | 1:09.02 | 46553 | 51729
5 | 11:29.55 | 2:01.43 | 51730 | 60847
6 | 13:31.23 | 2:22.30 | 60848 | 71527
7 | 15:53.53 | 4:41.50 | 71528 | 92652
8 | 20:35.28 | 3:05.47 | 92653 | 106574
9 | 23:41.00 | 5:46.03 | 106575 | 132527
10 | 29:27.03 | 3:35.40 | 132528 | 148692
11 | 33:02.43 | 4:17.62 | 148693 | 168029
12 | 37:20.30 | 3:08.38 | 168030 | 182167
13 | 40:28.68 | 4:35.27 | 182168 | 202819
14 | 45:04.20 | 6:33.68 | 202820 | 232362
15 | 51:38.13 | 4:38.12 | 232363 | 253224
16 | 56:16.25 | 4:42.40 | 253225 | 274414


Характеристики диапазона извлечения и сообщения об ошибках

Выбранный диапазон

Имя файла E:\Paul McCartney\1978 London Town\Wings - London Town.wav

Пиковый уровень 100.0 %
Качество диапазона 100.0 %
CRC теста 5DB93537
CRC копии 5DB93537
Копирование… OK

Ошибок не произошло


AccurateRip: сводка

Трек 1 точное извлечение (доверие 52) [82C1D666]
Трек 2 точное извлечение (доверие 53) [9A09AF2C]
Трек 3 точное извлечение (доверие 55) [18EA1F09]
Трек 4 точное извлечение (доверие 53) [2F4DE619]
Трек 5 точное извлечение (доверие 53) [86F3C8BB]
Трек 6 точное извлечение (доверие 52) [6ABDCE38]
Трек 7 точное извлечение (доверие 54) [6E952D6C]
Трек 8 точное извлечение (доверие 52) [A7A59808]
Трек 9 точное извлечение (доверие 53) [EC03EBA6]
Трек 10 точное извлечение (доверие 55) [BB5F4074]
Трек 11 точное извлечение (доверие 53) [702DEE29]
Трек 12 точное извлечение (доверие 54) [59B1BB3E]
Трек 13 точное извлечение (доверие 55) [B0B46DC7]
Трек 14 точное извлечение (доверие 51) [E4C8FA26]
Трек 15 точное извлечение (доверие 53) [637F622B]
Трек 16 точное извлечение (доверие 44) [4C038138]

Все треки извлечены точно

Конец отчёта


[CUETools log; Date: 06.12.2017 20:09:31; Version: 2.1.5]
Pregap length 00:00:33.
[CTDB TOCID: uP6gLWSm2gPTnbc7rvpn2X5bXPY-] found.
Track | CTDB Status
1 | ( 95/101) Accurately ripped
2 | ( 98/101) Accurately ripped
3 | ( 97/101) Accurately ripped
4 | ( 99/101) Accurately ripped
5 | ( 97/101) Accurately ripped
6 | (100/101) Accurately ripped
7 | ( 98/101) Accurately ripped
8 | ( 98/101) Accurately ripped
9 | ( 95/101) Accurately ripped, or (3/101) differs in 45 samples @04:32:04,04:32:36,04:32:68
10 | ( 99/101) Accurately ripped
11 | (100/101) Accurately ripped
12 | ( 98/101) Accurately ripped
13 | (100/101) Accurately ripped
14 | ( 95/101) Accurately ripped, or (3/101) differs in 54 samples @02:58:01-02:58:02,03:00:65
15 | ( 97/101) Accurately ripped
16 | ( 90/101) Accurately ripped, or (3/101) differs in 33 samples @00:14:29-00:14:30,00:25:34-00:25:35,00:26:63,00:27:29
[AccurateRip ID: 001fb1ea-0185af2e-d40e4a10] found.
Track [ CRC | V2 ] Status
01 [82c1d666|75239ca8] (063+083/194) Accurately ripped
02 [9a09af2c|0e361bd4] (064+081/196) Accurately ripped
03 [18ea1f09|ef90c83b] (066+079/194) Accurately ripped
04 [2f4de619|85c1479e] (064+080/193) Accurately ripped
05 [86f3c8bb|8642241e] (064+081/194) Accurately ripped
06 [6abdce38|8341a6b6] (063+081/195) Accurately ripped
07 [6e952d6c|ba3d8a00] (065+083/198) Accurately ripped
08 [a7a59808|23959b78] (063+084/197) Accurately ripped
09 [ec03eba6|fce527d5] (065+084/200) Accurately ripped
10 [bb5f4074|b5a85e7f] (066+080/194) Accurately ripped
11 [702dee29|10d90f87] (064+083/196) Accurately ripped
12 [59b1bb3e|f28e69e7] (065+081/196) Accurately ripped
13 [b0b46dc7|c979e7a0] (066+080/195) Accurately ripped
14 [e4c8fa26|29c2f1c2] (062+079/188) Accurately ripped
15 [637f622b|a0a31941] (064+079/193) Accurately ripped
16 [4c038138|6f48792f] (055+081/196) Accurately ripped
Offsetted by -670:
01 [b87f927a] (010/194) Accurately ripped
02 [8724b512] (012/196) Accurately ripped
03 [7877e75f] (011/194) Accurately ripped
04 [8aaed217] (011/193) Accurately ripped
05 [bd8e8ea3] (011/194) Accurately ripped
06 [e5cad3be] (012/195) Accurately ripped
07 [57442a00] (012/198) Accurately ripped
08 [5f1e4796] (012/197) Accurately ripped
09 [a429d5bc] (012/200) Accurately ripped
10 [3f9ab542] (010/194) Accurately ripped
11 [d90e623d] (011/196) Accurately ripped
12 [a29ec460] (012/196) Accurately ripped
13 [d40620bd] (011/195) Accurately ripped
14 [d55aac56] (011/188) Accurately ripped
15 [a50ff3c1] (011/193) Accurately ripped
16 [b8858470] (011/196) Accurately ripped
Offsetted by -84:
01 [6ebfa49e] (006/194) Accurately ripped
02 [05b5f4b0] (006/196) Accurately ripped
03 [297ac02d] (006/194) Accurately ripped
04 [9b4fbcf0] (006/193) Accurately ripped
05 [d732c9c0] (006/194) Accurately ripped
06 [03b88f7c] (006/195) Accurately ripped
07 [1f3dd6a4] (005/198) Accurately ripped
08 [7db1aafc] (005/197) Accurately ripped
09 [bb450b4a] (006/200) Accurately ripped
10 [54bd0ee8] (006/194) Accurately ripped
11 [d2ea8c61] (006/196) Accurately ripped
12 [da0c956a] (006/196) Accurately ripped
13 [c46a9cab] (006/195) Accurately ripped
14 [8af84846] (006/188) Accurately ripped
15 [301c96cf] (006/193) Accurately ripped
16 [4374db08] (004/196) Accurately ripped
Offsetted by 575:
01 [210dcfbc] (010/194) Accurately ripped
02 [02224109] (009/196) Accurately ripped
03 [153cdc2e] (009/194) Accurately ripped
04 [df3d216c] (009/193) Accurately ripped
05 [c9588f1b] (009/194) Accurately ripped
06 [2efd2345] (010/195) Accurately ripped
07 [93c98282] (010/198) Accurately ripped
08 [9f3477d1] (009/197) Accurately ripped
09 [ad8009eb] (010/200) Accurately ripped
10 [d55a139d] (009/194) Accurately ripped
11 [a1a2cb7f] (009/196) Accurately ripped
12 [0fa5599d] (009/196) Accurately ripped
13 [4227a09c] (009/195) Accurately ripped
14 [ff66af8e] (008/188) Accurately ripped
15 [b0f5f0b0] (009/193) Accurately ripped
16 [89a335dc] (010/196) Accurately ripped
Offsetted by -48:
01 [7752de86] (000/194) No match (V2 was not tested)
02 [20b5449c] (000/196) No match (V2 was not tested)
03 [901831f9] (000/194) No match (V2 was not tested)
04 [7ff9bcf8] (000/193) No match (V2 was not tested)
05 [0746a48c] (000/194) No match (V2 was not tested)
06 [9d963ca8] (000/195) No match (V2 was not tested)
07 [1cac698c] (000/198) No match (V2 was not tested)
08 [fd6359b8] (000/197) No match (V2 was not tested)
09 [194db496] (000/200) No match (V2 was not tested)
10 [5c272424] (000/194) No match (V2 was not tested)
11 [a899b649] (000/196) No match (V2 was not tested)
12 [c79c810e] (000/196) No match (V2 was not tested)
13 [29aed1b7] (000/195) No match (V2 was not tested)
14 [fa9adda6] (000/188) No match (V2 was not tested)
15 [b3d9371b] (000/193) No match (V2 was not tested)
16 [b4d68ff8] (000/196) No match (V2 was not tested)

Track Peak [ CRC32 ] [W/O NULL] [ LOG ]
– 100,0 [5DB93537] [7D369638] CRC32
01 98,6 [BCCEF0A3] [36E319B5]
02 93,1 [5156A369] [11B143E9]
03 57,1 [CA671BB1] [4FE324F8]
04 86,1 [C42DB12E] [9B617CD1]
05 86,8 [39CF6EE3] [B382E6A0]
06 72,4 [05C23C61] [C95D0646]
07 83,2 [843F783F] [5C35828D]
08 100,0 [11823585] [CC2375D2]
09 75,0 [FE359C82] [7406E4FC]
10 84,3 [A1F368C7] [739DF79A]
11 96,4 [D4302127] [0F9A0FE6]
12 83,2 [22EC26B8] [775BFA3D]
13 84,7 [ECF3CA42] [D82DB9C4]
14 95,5 [AB19FC7F] [F6862A70]
15 93,7 [5A5D7AF7] [A7584F0D]
16 86,0 [CDDDC636] [C3F80F46]


Paul McCartney, Wings: Remastered CD Collection (1971 - 1989)

Tracklist CD7 - Back To The Egg - 1979:
Parlophone 0 777 7 89136 2 7, Holland

01. Reception
02. Getting Closer
03. We're Open Tonight
04. Spin It On
05. Again and Again and Again
06. Old Siam, Sir
07. Arrow Through Me
08. Rockestra Theme
09. To You
10. After the Ball - Million Miles
11. Winter Rose - Love Awake
12. The Broadcast
13. So Glad to See You Here
14. Baby's Request
15. Daytime Nightime Suffering
16. Wonderful Christmastime
17. Rudolph the Red-Nosed Reggae

Exact Audio Copy V0.99 prebeta 5 from 4. May 2009

Отчёт EAC об извлечении, выполненном 25. февраля 2011, 20:08

Wings / Back To The Egg

Дисковод: Optiarc DVD RW AD-7240S Adapter: 1 ID: 0

Режим чтения : Достоверность
Использование точного потока : Да
Отключение кэша аудио : Да
Использование указателей C2 : Нет

Коррекция смещения при чтении : 48
Способность читать области Lead-in и Lead-out : Нет
Заполнение пропущенных сэмплов тишиной : Да
Удаление блоков с тишиной в начале и конце : Нет
При вычислениях CRC использовались нулевые сэмплы : Да
Интерфейс : Встроенный Win32-интерфейс для Win NT/2000

Выходной формат : Пользовательский кодировщик
Выбранный битрейт : 768 kBit/s
Качество : Высокий
Добавление ID3-тэга : Нет
Утилита сжатия : C:\Program Files\Exact Audio Copy\FLAC\FLAC.EXE
Дополнительные параметры : -6 -V -T "ARTIST=%a" -T "TITLE=%t" -T "ALBUM=%g" -T "DATE=%y" -T "TRACKNUMBER=%n" -T "GENRE=%m" -T "COMMENT=%e" %s -o %d


TOC извлечённого CD

Трек | Старт | Длительность | Начальный сектор | Конечный сектор
––––––––––––––––––––––––––––––––––-
1 | 0:00.33 | 1:07.47 | 33 | 5104
2 | 1:08.05 | 3:23.08 | 5105 | 20337
3 | 4:31.13 | 1:28.22 | 20338 | 26959
4 | 5:59.35 | 2:12.20 | 26960 | 36879
5 | 8:11.55 | 3:34.05 | 36880 | 52934
6 | 11:45.60 | 4:10.63 | 52935 | 71747
7 | 15:56.48 | 3:36.70 | 71748 | 88017
8 | 19:33.43 | 2:35.02 | 88018 | 99644
9 | 22:08.45 | 3:12.23 | 99645 | 114067
10 | 25:20.68 | 4:00.52 | 114068 | 132119
11 | 29:21.45 | 4:59.28 | 132120 | 154572
12 | 34:20.73 | 1:29.70 | 154573 | 161317
13 | 35:50.68 | 3:21.05 | 161318 | 176397
14 | 39:11.73 | 2:59.12 | 176398 | 189834
15 | 42:11.10 | 3:23.20 | 189835 | 205079
16 | 45:34.30 | 3:49.08 | 205080 | 222262
17 | 49:23.38 | 1:45.65 | 222263 | 230202


Характеристики диапазона извлечения и сообщения об ошибках

Выбранный диапазон

Имя файла E:\Paul McCartney\1979 Back To The Egg\Wings - Back To The Egg.wav

Пиковый уровень 100.0 %
Качество диапазона 100.0 %
CRC теста FE597E5B
CRC копии FE597E5B
Копирование… OK

Ошибок не произошло


AccurateRip: сводка

Трек 1 точное извлечение (доверие 10) [4D9BD442]
Трек 2 точное извлечение (доверие 10) [1453884A]
Трек 3 точное извлечение (доверие 10) [B2565D5D]
Трек 4 точное извлечение (доверие 10) [999A1D11]
Трек 5 точное извлечение (доверие 10) [E2A3E035]
Трек 6 точное извлечение (доверие 10) [72E35C8D]
Трек 7 точное извлечение (доверие 10) [660D0D5E]
Трек 8 точное извлечение (доверие 10) [38BC21A8]
Трек 9 точное извлечение (доверие 10) [A2E8ECCC]
Трек 10 точное извлечение (доверие 10) [1C2C5C06]
Трек 11 точное извлечение (доверие 9) [3329C5CA]
Трек 12 точное извлечение (доверие 10) [51EE67CF]
Трек 13 точное извлечение (доверие 10) [4914E7A4]
Трек 14 точное извлечение (доверие 10) [D60A3C78]
Трек 15 точное извлечение (доверие 10) [F5830A5C]
Трек 16 точное извлечение (доверие 10) [B6218A37]
Трек 17 точное извлечение (доверие 10) [C7AAF44B]

Все треки извлечены точно

Конец отчёта


[CUETools log; Date: 06.12.2017 20:09:54; Version: 2.1.5]
Pregap length 00:00:33.
[CTDB TOCID: ENyWpEdq5yRP3REo_xhtQ4Rwplc-] found.
Track | CTDB Status
1 | (81/82) Accurately ripped
2 | (82/82) Accurately ripped
3 | (81/82) Accurately ripped
4 | (82/82) Accurately ripped
5 | (81/82) Accurately ripped
6 | (81/82) Accurately ripped
7 | (80/82) Accurately ripped
8 | (81/82) Accurately ripped
9 | (82/82) Accurately ripped
10 | (82/82) Accurately ripped
11 | (82/82) Accurately ripped
12 | (82/82) Accurately ripped
13 | (82/82) Accurately ripped
14 | (81/82) Accurately ripped
15 | (82/82) Accurately ripped
16 | (81/82) Accurately ripped
17 | (80/82) Accurately ripped
[AccurateRip ID: 001e53c0-018a73b4-d90bfd11] found.
Track [ CRC | V2 ] Status
01 [4d9bd442|10e41feb] (011+017/145) Accurately ripped
02 [1453884a|89c05566] (011+018/147) Accurately ripped
03 [b2565d5d|7c58f31e] (011+017/146) Accurately ripped
04 [999a1d11|e7d34972] (011+017/147) Accurately ripped
05 [e2a3e035|d8d52c84] (011+017/145) Accurately ripped
06 [72e35c8d|428e7f16] (011+018/147) Accurately ripped
07 [660d0d5e|0b5a51a7] (011+018/147) Accurately ripped
08 [38bc21a8|007530a4] (011+017/147) Accurately ripped
09 [a2e8eccc|384a41c5] (011+017/146) Accurately ripped
10 [1c2c5c06|8c6b96a3] (011+017/145) Accurately ripped
11 [3329c5ca|80ae09f0] (010+017/145) Accurately ripped
12 [51ee67cf|0b67d8a6] (011+017/145) Accurately ripped
13 [4914e7a4|fae35671] (011+017/147) Accurately ripped
14 [d60a3c78|4907b98b] (011+017/146) Accurately ripped
15 [f5830a5c|020dccb2] (011+018/144) Accurately ripped
16 [b6218a37|c3f1f671] (011+017/146) Accurately ripped
17 [c7aaf44b|f65424ea] (011+016/145) Accurately ripped
Offsetted by -861:
01 [c37fd75e] (006/145) Accurately ripped
02 [7d017156] (006/147) Accurately ripped
03 [0fb90988] (005/146) Accurately ripped
04 [fc3bd516] (006/147) Accurately ripped
05 [e6146ca1] (006/145) Accurately ripped
06 [fc9278f8] (006/147) Accurately ripped
07 [acd43521] (006/147) Accurately ripped
08 [86bb721f] (005/147) Accurately ripped
09 [ca7e350a] (006/146) Accurately ripped
10 [bb0c6d8d] (006/145) Accurately ripped
11 [7172c076] (006/145) Accurately ripped
12 [a579e35e] (006/145) Accurately ripped
13 [4481041d] (006/147) Accurately ripped
14 [4c3e0f66] (006/146) Accurately ripped
15 [3c096bf5] (006/144) Accurately ripped
16 [0597ad85] (006/146) Accurately ripped
17 [7b31c3fc] (006/145) Accurately ripped
Offsetted by -197:
01 [8c45cf8e] (046/145) Accurately ripped
02 [b1f83b66] (048/147) Accurately ripped
03 [52426c60] (049/146) Accurately ripped
04 [380c6bbe] (049/147) Accurately ripped
05 [f8d5b601] (047/145) Accurately ripped
06 [37687dd0] (048/147) Accurately ripped
07 [fd87a0b9] (048/147) Accurately ripped
08 [58da4d57] (047/147) Accurately ripped
09 [f00e0dfa] (048/146) Accurately ripped
10 [35d21945] (048/145) Accurately ripped
11 [97579bd6] (048/145) Accurately ripped
12 [f9b60356] (047/145) Accurately ripped
13 [976bc865] (048/147) Accurately ripped
14 [b50655d6] (047/146) Accurately ripped
15 [41b5693d] (047/144) Accurately ripped
16 [95c426f5] (049/146) Accurately ripped
17 [f10a9e04] (048/145) Accurately ripped

Track Peak [ CRC32 ] [W/O NULL] [ LOG ]
– 100,0 [FE597E5B] [3BDFB325] CRC32
01 94,6 [014F4B10] [D7C38384]
02 95,5 [DE6C73FD] [06770950]
03 44,0 [014B6602] [0385818E]
04 94,1 [0003DA35] [501C08EB]
05 98,4 [8786B79A] [30F9ACDD]
06 100,0 [4C7848C2] [BA0EB57C]
07 100,0 [D727D8C1] [91779B18]
08 92,2 [291744E8] [F6486DA4]
09 97,9 [5704BFD4] [5C679687]
10 93,1 [8BE6806C] [C6E926F3]
11 83,4 [4B0BFE10] [9F284EB3]
12 42,5 [ED54E218] [DDDB816F]
13 100,0 [0907DE31] [7A108011]
14 65,8 [8FD9E256] [CC7D1ADA]
15 90,4 [9748F18E] [5636CDBC]
16 83,9 [B621BDDA] [B4BE1EDF]
17 86,5 [6364F822] [5D15AF7C]


Paul McCartney, Wings: Remastered CD Collection (1971 - 1989)

Tracklist CD8 - McCartney II - 1980:
Parlophone 0 777 7 89137 2 6, Holland

01. Coming Up
02. Temporary Secretary
03. On The Way
04. Waterfalls
05. Nobody Knows
06. Front Parlour
07. Summer's Day Song
08. Frozen Jap
09. Bogey Music
10. Darkroom
11. One Of These Days
12. Check My Machine
13. Secret Friend
14. Goodnight Tonight

Exact Audio Copy V0.99 prebeta 5 from 4. May 2009

Отчёт EAC об извлечении, выполненном 19. февраля 2011, 16:29

Paul McCartney / McCartney II

Дисковод: Optiarc DVD RW AD-7240S Adapter: 1 ID: 0

Режим чтения : Достоверность
Использование точного потока : Да
Отключение кэша аудио : Да
Использование указателей C2 : Нет

Коррекция смещения при чтении : 48
Способность читать области Lead-in и Lead-out : Нет
Заполнение пропущенных сэмплов тишиной : Да
Удаление блоков с тишиной в начале и конце : Нет
При вычислениях CRC использовались нулевые сэмплы : Да
Интерфейс : Встроенный Win32-интерфейс для Win NT/2000

Выходной формат : Пользовательский кодировщик
Выбранный битрейт : 768 kBit/s
Качество : Высокий
Добавление ID3-тэга : Нет
Утилита сжатия : C:\Program Files\Exact Audio Copy\FLAC\FLAC.EXE
Дополнительные параметры : -6 -V -T "ARTIST=%a" -T "TITLE=%t" -T "ALBUM=%g" -T "DATE=%y" -T "TRACKNUMBER=%n" -T "GENRE=%m" -T "COMMENT=%e" %s -o %d


TOC извлечённого CD

Трек | Старт | Длительность | Начальный сектор | Конечный сектор
––––––––––––––––––––––––––––––––––-
1 | 0:00.33 | 3:55.20 | 33 | 17677
2 | 3:55.53 | 3:16.25 | 17678 | 32402
3 | 7:12.03 | 3:40.22 | 32403 | 48924
4 | 10:52.25 | 4:45.53 | 48925 | 70352
5 | 15:38.03 | 2:54.20 | 70353 | 83422
6 | 18:32.23 | 3:33.37 | 83423 | 99434
7 | 22:05.60 | 3:25.68 | 99435 | 114877
8 | 25:31.53 | 3:40.62 | 114878 | 131439
9 | 29:12.40 | 3:28.15 | 131440 | 147054
10 | 32:40.55 | 2:20.20 | 147055 | 157574
11 | 35:01.00 | 3:44.58 | 157575 | 174432
12 | 38:45.58 | 5:52.50 | 174433 | 200882
13 | 44:38.33 | 10:30.72 | 200883 | 248204
14 | 55:09.30 | 4:19.48 | 248205 | 267677


Характеристики диапазона извлечения и сообщения об ошибках

Выбранный диапазон

Имя файла E:\Paul McCartney\1980 McCartney II\Paul McCartney - McCartney II.wav

Пиковый уровень 100.0 %
Качество диапазона 99.9 %
CRC теста 1C43422D
CRC копии 1C43422D
Копирование… OK

Ошибок не произошло


AccurateRip: сводка

Трек 1 точное извлечение (доверие 36) [B39A8A4C]
Трек 2 точное извлечение (доверие 37) [BFD67833]
Трек 3 точное извлечение (доверие 37) [16D45733]
Трек 4 точное извлечение (доверие 35) [C30ABE83]
Трек 5 точное извлечение (доверие 37) [722EC62C]
Трек 6 точное извлечение (доверие 36) [95206DA1]
Трек 7 точное извлечение (доверие 36) [23DC8913]
Трек 8 точное извлечение (доверие 36) [8F44E4BC]
Трек 9 точное извлечение (доверие 37) [1921C817]
Трек 10 точное извлечение (доверие 37) [494B635C]
Трек 11 точное извлечение (доверие 37) [5937D4BE]
Трек 12 точное извлечение (доверие 36) [B2FD2760]
Трек 13 точное извлечение (доверие 35) [80C74F17]
Трек 14 точное извлечение (доверие 36) [EA814056]

Все треки извлечены точно

Конец отчёта


[CUETools log; Date: 06.12.2017 20:10:21; Version: 2.1.5]
Pregap length 00:00:33.
[CTDB TOCID: SG9nNVtHd8cMnuiOuhh8OEPh0AE-] found.
Track | CTDB Status
1 | (54/54) Accurately ripped
2 | (54/54) Accurately ripped
3 | (52/54) Accurately ripped
4 | (53/54) Accurately ripped
5 | (54/54) Accurately ripped
6 | (54/54) Accurately ripped
7 | (54/54) Accurately ripped
8 | (52/54) Accurately ripped
9 | (54/54) Accurately ripped
10 | (54/54) Accurately ripped
11 | (54/54) Accurately ripped
12 | (53/54) Accurately ripped
13 | (51/54) Accurately ripped, or (2/54) differs in 1661 samples @09:35:07,09:39:08-09:39:09,09:39:49,09:42:25-09:42:26,09:42:45-09:42:46,09:42:65-09:42:66,09:43:11,09:43:30,09:43:51,09:44:16-09:44:17,09:44:36-09:44:37,09:44:56-09:44:57,09:45:01-09:45:02,09:45:21-09:45:22,09:45:41-09:45:42,09:45:62-09:45:63,09:46:07-09:46:08,09:46:27-09:46:28,09:46:47-09:46:48,09:46:67-09:46:68,09:47:13,09:47:32-09:47:33,09:47:53,09:47:73,09:48:58-09:48:59,09:49:24,09:50:70,09:51:35,09:52:00,09:52:20,09:52:40-09:52:41,09:53:06,09:54:52,09:55:17,09:55:37,09:56:03,09:56:43,09:56:63,09:57:29,09:58:14,09:58:34,10:00:05,10:00:25-10:00:26,10:00:46,10:00:66
14 | (54/54) Accurately ripped
[AccurateRip ID: 001b615d-0127ac44-a40df10e] found.
Track [ CRC | V2 ] Status
01 [b39a8a4c|d939d47d] (041+047/114) Accurately ripped
02 [bfd67833|cdf13958] (042+048/118) Accurately ripped
03 [16d45733|d24ad910] (042+047/116) Accurately ripped
04 [c30abe83|e251f189] (040+048/117) Accurately ripped
05 [722ec62c|22f2619a] (042+046/116) Accurately ripped
06 [95206da1|400ffb0e] (041+047/116) Accurately ripped
07 [23dc8913|5fc07405] (041+046/115) Accurately ripped
08 [8f44e4bc|dfbd71a6] (041+047/116) Accurately ripped
09 [1921c817|65df195a] (042+047/117) Accurately ripped
10 [494b635c|ec60199a] (042+047/117) Accurately ripped
11 [5937d4be|058ba095] (042+047/117) Accurately ripped
12 [b2fd2760|db38310c] (041+046/115) Accurately ripped
13 [80c74f17|c3be5c95] (040+044/112) Accurately ripped
14 [ea814056|3bf2a10e] (041+046/115) Accurately ripped
Offsetted by -676:
01 [b93f676c] (009/114) Accurately ripped
02 [b280dc1b] (009/118) Accurately ripped
03 [7631db2f] (008/116) Accurately ripped
04 [9932eaaf] (009/117) Accurately ripped
05 [6150bd34] (009/116) Accurately ripped
06 [81677225] (009/116) Accurately ripped
07 [b6092fa7] (009/115) Accurately ripped
08 [a7e78f54] (009/116) Accurately ripped
09 [ce355483] (009/117) Accurately ripped
10 [de3062e4] (009/117) Accurately ripped
11 [b98f45b2] (009/117) Accurately ripped
12 [36dc4860] (009/115) Accurately ripped
13 [5bb4c25f] (009/112) Accurately ripped
14 [b95cf776] (009/115) Accurately ripped
Offsetted by -217:
01 [36ee2314] (007/114) Accurately ripped
02 [db5e350d] (007/118) Accurately ripped
03 [c00bbb82] (007/116) Accurately ripped
04 [b171c51e] (007/117) Accurately ripped
05 [1488114e] (007/116) Accurately ripped
06 [19c72172] (007/116) Accurately ripped
07 [5e253028] (007/115) Accurately ripped
08 [5dfe6982] (007/116) Accurately ripped
09 [06c2f1c2] (007/117) Accurately ripped
10 [0cc8669e] (007/117) Accurately ripped
11 [3e3416eb] (007/117) Accurately ripped
12 [a0599ba0] (007/115) Accurately ripped
13 [92cb9449] (007/112) Accurately ripped
14 [af2e079e] (006/115) Accurately ripped
Offsetted by -712:
01 [faaf308c] (000/114) No match
02 [09a6b703] (002/118) Accurately ripped
03 [4339ddab] (002/116) Accurately ripped
04 [23d8a75b] (002/117) Accurately ripped
05 [4e3d573c] (002/116) Accurately ripped
06 [98972829] (002/116) Accurately ripped
07 [26574dbb] (002/115) Accurately ripped
08 [4e5432ec] (002/116) Accurately ripped
09 [7e7a896f] (002/117) Accurately ripped
10 [34e3356c] (002/117) Accurately ripped
11 [c33c1226] (002/117) Accurately ripped
12 [c027c960] (002/115) Accurately ripped
13 [202b70a7] (000/112) No match (V2 was not tested)
14 [a6155a96] (002/115) Accurately ripped

Track Peak [ CRC32 ] [W/O NULL] [ LOG ]
– 100,0 [1C43422D] [C97090B3] CRC32
01 100,0 [4FC8B8B3] [971FAE8E]
02 98,0 [209F16A4] [925A8F70]
03 88,3 [B7121850] [4F40E163]
04 79,9 [0423BF90] [8FE2D9B4]
05 99,6 [30BAE6E2] [F945B5A3]
06 93,0 [606F3BFB] [2ACAE37B]
07 52,6 [F719AEB7] [4FE424E1]
08 100,0 [99D1E834] [961B2BAF]
09 100,0 [A7FACE3F] [676046A6]
10 95,3 [EA92C9E0] [4015A7BE]
11 69,8 [1B00B72F] [E425F425]
12 99,5 [01FEE64D] [956EE743]
13 93,3 [E0E5A83A] [55AD3B64]
14 99,2 [B67FE2EB] [E63D608F]


Paul McCartney, Wings: Remastered CD Collection (1971 - 1989)

Tracklist CD9 - Tug Of War - 1982:
Parlophone 0 7 777 89266 2 7, Holland

01. Tug Of War
02. Take It Away
03. Somebody Who Cares
04. What's That You're Doing?
05. Here Today
06. Ballroom Dancing
07. The Pound Is Sinking
08. Wanderlust
09. Get It
10. Be What You See (Link)
11. Dress Me Up As A Robber
12. Ebony And Ivory

Exact Audio Copy V0.99 prebeta 5 from 4. May 2009

Отчёт EAC об извлечении, выполненном 12. марта 2011, 14:19

Paul McCartney / Tug Of War

Дисковод: Optiarc DVD RW AD-7240S Adapter: 1 ID: 0

Режим чтения : Достоверность
Использование точного потока : Да
Отключение кэша аудио : Да
Использование указателей C2 : Нет

Коррекция смещения при чтении : 48
Способность читать области Lead-in и Lead-out : Нет
Заполнение пропущенных сэмплов тишиной : Да
Удаление блоков с тишиной в начале и конце : Нет
При вычислениях CRC использовались нулевые сэмплы : Да
Интерфейс : Встроенный Win32-интерфейс для Win NT/2000

Выходной формат : Пользовательский кодировщик
Выбранный битрейт : 768 kBit/s
Качество : Высокий
Добавление ID3-тэга : Нет
Утилита сжатия : C:\Program Files\Exact Audio Copy\FLAC\FLAC.EXE
Дополнительные параметры : -6 -V -T "ARTIST=%a" -T "TITLE=%t" -T "ALBUM=%g" -T "DATE=%y" -T "TRACKNUMBER=%n" -T "GENRE=%m" -T "COMMENT=%e" %s -o %d


TOC извлечённого CD

Трек | Старт | Длительность | Начальный сектор | Конечный сектор
––––––––––––––––––––––––––––––––––-
1 | 0:00.33 | 4:22.25 | 33 | 19707
2 | 4:22.58 | 4:15.62 | 19708 | 38894
3 | 8:38.45 | 3:19.20 | 38895 | 53839
4 | 11:57.65 | 6:22.43 | 53840 | 82532
5 | 18:20.33 | 2:28.70 | 82533 | 93702
6 | 20:49.28 | 4:08.27 | 93703 | 112329
7 | 24:57.55 | 2:55.23 | 112330 | 125477
8 | 27:53.03 | 3:49.57 | 125478 | 142709
9 | 31:42.60 | 2:28.60 | 142710 | 153869
10 | 34:11.45 | 0:33.68 | 153870 | 156412
11 | 34:45.38 | 2:42.12 | 156413 | 168574
12 | 37:27.50 | 3:42.58 | 168575 | 185282


Характеристики диапазона извлечения и сообщения об ошибках

Выбранный диапазон

Имя файла E:\Paul McCartney\1982.Tug of War (Remaster)\Paul McCartney - Tug Of War.wav

Пиковый уровень 100.0 %
Качество диапазона 100.0 %
CRC теста D0725280
CRC копии D0725280
Копирование… OK

Ошибок не произошло


AccurateRip: сводка

Трек 1 точное извлечение (доверие 50) [4AD72232]
Трек 2 точное извлечение (доверие 49) [0D658450]
Трек 3 точное извлечение (доверие 50) [947080B5]
Трек 4 точное извлечение (доверие 48) [1FFD668B]
Трек 5 точное извлечение (доверие 49) [674D6A29]
Трек 6 точное извлечение (доверие 49) [329EF40B]
Трек 7 точное извлечение (доверие 50) [ECC4341B]
Трек 8 точное извлечение (доверие 50) [9508E98C]
Трек 9 точное извлечение (доверие 50) [D709BF18]
Трек 10 точное извлечение (доверие 49) [F0E3FE18]
Трек 11 точное извлечение (доверие 49) [170386FB]
Трек 12 точное извлечение (доверие 49) [4DB9F8C0]

Все треки извлечены точно

Конец отчёта


[CUETools log; Date: 06.12.2017 20:10:51; Version: 2.1.5]
Pregap length 00:00:33.
[CTDB TOCID: wZ2hSZFL0Z3opE3Z5y.bK1UHVrg-] found.
Track | CTDB Status
1 | (72/76) Accurately ripped
2 | (73/76) Accurately ripped
3 | (73/76) Accurately ripped
4 | (72/76) Accurately ripped
5 | (72/76) Accurately ripped
6 | (72/76) Accurately ripped
7 | (72/76) Accurately ripped
8 | (72/76) Accurately ripped
9 | (72/76) Accurately ripped
10 | (73/76) Accurately ripped
11 | (72/76) Accurately ripped
12 | (72/76) Accurately ripped
[AccurateRip ID: 0014587b-00b8cf6b-9709a60c] found.
Track [ CRC | V2 ] Status
01 [4ad72232|552ac599] (063+057/155) Accurately ripped
02 [0d658450|d330efbc] (062+057/154) Accurately ripped
03 [947080b5|e1ddb847] (063+057/154) Accurately ripped
04 [1ffd668b|15e2920a] (061+057/152) Accurately ripped
05 [674d6a29|ed459bcc] (062+057/154) Accurately ripped
06 [329ef40b|4153fa6a] (062+057/153) Accurately ripped
07 [ecc4341b|b93452fb] (064+057/155) Accurately ripped
08 [9508e98c|d363b2c8] (063+056/153) Accurately ripped
09 [d709bf18|539634d5] (063+057/153) Accurately ripped
10 [f0e3fe18|8d26d240] (062+057/152) Accurately ripped
11 [170386fb|692ed925] (062+056/151) Accurately ripped
12 [4db9f8c0|36e4355b] (062+057/154) Accurately ripped
Offsetted by -676:
01 [8bee1271] (002/155) Accurately ripped
02 [f0f07b61] (002/154) Accurately ripped
03 [169207f5] (002/154) Accurately ripped
04 [0c419c37] (002/152) Accurately ripped
05 [b972607d] (002/154) Accurately ripped
06 [e594495f] (002/153) Accurately ripped
07 [c033a683] (002/155) Accurately ripped
08 [a47385ec] (002/153) Accurately ripped
09 [36af6aa0] (002/153) Accurately ripped
10 [eadbd225] (002/152) Accurately ripped
11 [54a95cbe] (002/151) Accurately ripped
12 [21f02104] (002/154) Accurately ripped
Offsetted by 422:
01 [baa3448a] (014/155) Accurately ripped
02 [37ec607e] (014/154) Accurately ripped
03 [08207ed5] (014/154) Accurately ripped
04 [9f6ed7f9] (014/152) Accurately ripped
05 [075626bb] (014/154) Accurately ripped
06 [68c62e1d] (014/153) Accurately ripped
07 [2cf0ff9f] (014/155) Accurately ripped
08 [6ddf5a7c] (014/153) Accurately ripped
09 [54d80e3b] (013/153) Accurately ripped
10 [75b11556] (013/152) Accurately ripped
11 [6e4cebf4] (013/151) Accurately ripped
12 [10724b2a] (014/154) Accurately ripped

Track Peak [ CRC32 ] [W/O NULL] [ LOG ]
– 100,0 [D0725280] [C9060214] CRC32
01 100,0 [ADB1939E] [539FDA04]
02 100,0 [E739C1EA] [F378429F]
03 91,3 [3E23B80F] [13F76238]
04 100,0 [17EDFC27] [A9AA5FF7]
05 45,8 [0C5DB8C2] [59CDF373]
06 100,0 [DD47C3E4] [D1CA4059]
07 100,0 [A68912A7] [122FEAC0]
08 100,0 [FD196790] [711EB107]
09 88,2 [7CF15C2C] [08FC1DB5]
10 44,8 [32EBB76C] [A4CFE848]
11 96,4 [7560C425] [A4A24003]
12 100,0 [149BF408] [3DCFDA15]


Paul McCartney, Wings: Remastered CD Collection (1971 - 1989)

Tracklist CD10 - Pipes Of Peace - 1983:
Parlophone 0 7 777 89267 2 6, Holland

01. Pipes Of Peace
02. Say Say Say
03. The Other Me
04. Keep Under Cover
05. So Bad
06. The Man
07. Sweetest Little Show
08. Average Person
09. Hey Hey
10. Tug Of Peace
11. Through Our Love
12. Twice In A Lifetime
13. We All Stand Together
14. Simple As That

Exact Audio Copy V0.99 prebeta 5 from 4. May 2009

Отчёт EAC об извлечении, выполненном 19. февраля 2011, 15:26

Paul McCartney / Pipes Of Peace

Дисковод: Optiarc DVD RW AD-7240S Adapter: 1 ID: 0

Режим чтения : Достоверность
Использование точного потока : Да
Отключение кэша аудио : Да
Использование указателей C2 : Нет

Коррекция смещения при чтении : 48
Способность читать области Lead-in и Lead-out : Нет
Заполнение пропущенных сэмплов тишиной : Да
Удаление блоков с тишиной в начале и конце : Нет
При вычислениях CRC использовались нулевые сэмплы : Да
Интерфейс : Встроенный Win32-интерфейс для Win NT/2000

Выходной формат : Пользовательский кодировщик
Выбранный битрейт : 768 kBit/s
Качество : Высокий
Добавление ID3-тэга : Нет
Утилита сжатия : C:\Program Files\Exact Audio Copy\FLAC\FLAC.EXE
Дополнительные параметры : -6 -V -T "ARTIST=%a" -T "TITLE=%t" -T "ALBUM=%g" -T "DATE=%y" -T "TRACKNUMBER=%n" -T "GENRE=%m" -T "COMMENT=%e" %s -o %d


TOC извлечённого CD

Трек | Старт | Длительность | Начальный сектор | Конечный сектор
––––––––––––––––––––––––––––––––––-
1 | 0:00.33 | 3:56.10 | 33 | 17742
2 | 3:56.43 | 3:56.02 | 17743 | 35444
3 | 7:52.45 | 3:59.00 | 35445 | 53369
4 | 11:51.45 | 3:05.40 | 53370 | 67284
5 | 14:57.10 | 3:20.65 | 67285 | 82349
6 | 18:18.00 | 3:55.73 | 82350 | 100047
7 | 22:13.73 | 2:53.37 | 100048 | 113059
8 | 25:07.35 | 4:33.10 | 113060 | 133544
9 | 29:40.45 | 2:54.35 | 133545 | 146629
10 | 32:35.05 | 2:55.28 | 146630 | 159782
11 | 35:30.33 | 3:39.02 | 159783 | 176209
12 | 39:09.35 | 3:02.28 | 176210 | 189887
13 | 42:11.63 | 4:25.55 | 189888 | 209817
14 | 46:37.43 | 4:17.15 | 209818 | 229107


Характеристики диапазона извлечения и сообщения об ошибках

Выбранный диапазон

Имя файла E:\Paul McCartney\1983 Pipes Of Peace\Paul McCartney - Pipes Of Peace.wav

Пиковый уровень 99.6 %
Качество диапазона 100.0 %
CRC теста F3EF426F
CRC копии F3EF426F
Копирование… OK

Ошибок не произошло


AccurateRip: сводка

Трек 1 точное извлечение (доверие 38) [1E840640]
Трек 2 точное извлечение (доверие 39) [DEBF079C]
Трек 3 точное извлечение (доверие 39) [987556BC]
Трек 4 точное извлечение (доверие 38) [F32AE513]
Трек 5 точное извлечение (доверие 38) [026077D7]
Трек 6 точное извлечение (доверие 38) [FA6B4145]
Трек 7 точное извлечение (доверие 38) [A3D45E6E]
Трек 8 точное извлечение (доверие 38) [C6B9A6CE]
Трек 9 точное извлечение (доверие 38) [5812E6BE]
Трек 10 точное извлечение (доверие 38) [075FBA8E]
Трек 11 точное извлечение (доверие 38) [17D94563]
Трек 12 точное извлечение (доверие 38) [3F1D8629]
Трек 13 точное извлечение (доверие 38) [7DFB59B6]
Трек 14 точное извлечение (доверие 38) [5CFCA6AC]

Все треки извлечены точно

Конец отчёта


[CUETools log; Date: 06.12.2017 20:11:18; Version: 2.1.5]
Pregap length 00:00:33.
[CTDB TOCID: 8d0VNwEsZBVj63w62GhZw0h8HWs-] found.
Track | CTDB Status
1 | (80/83) Accurately ripped
2 | (83/83) Accurately ripped
3 | (83/83) Accurately ripped
4 | (82/83) Accurately ripped
5 | (82/83) Accurately ripped
6 | (82/83) Accurately ripped
7 | (81/83) Accurately ripped
8 | (81/83) Accurately ripped
9 | (83/83) Accurately ripped
10 | (83/83) Accurately ripped
11 | (82/83) Accurately ripped
12 | (82/83) Accurately ripped
13 | (82/83) Accurately ripped
14 | (79/83) Accurately ripped, or (2/83) differs in 2143 samples @00:08:54-00:08:63,00:09:59,00:10:21-00:10:22
[AccurateRip ID: 001a288c-01154ebd-c30bee0e] found.
Track [ CRC | V2 ] Status
01 [1e840640|dacf36c6] (051+060/153) Accurately ripped
02 [debf079c|ac73cd3c] (053+060/156) Accurately ripped
03 [987556bc|e02c922a] (052+056/152) Accurately ripped
04 [f32ae513|d38b63d4] (051+057/152) Accurately ripped
05 [026077d7|3da715f1] (051+058/152) Accurately ripped
06 [fa6b4145|794064ad] (052+058/153) Accurately ripped
07 [a3d45e6e|ca1ef4d1] (051+057/152) Accurately ripped
08 [c6b9a6ce|0679d52f] (051+056/151) Accurately ripped
09 [5812e6be|503f23a5] (051+058/152) Accurately ripped
10 [075fba8e|a1f71012] (051+057/151) Accurately ripped
11 [17d94563|b870c662] (051+057/152) Accurately ripped
12 [3f1d8629|0c69bc2d] (050+057/150) Accurately ripped
13 [7dfb59b6|75d7c174] (050+058/151) Accurately ripped
14 [5cfca6ac|3fec7f2e] (048+058/150) Accurately ripped
Offsetted by -676:
01 [595ded27] (009/153) Accurately ripped
02 [38ce4891] (008/156) Accurately ripped
03 [76ac42a4] (009/152) Accurately ripped
04 [fb0486a7] (009/152) Accurately ripped
05 [13bda5eb] (008/152) Accurately ripped
06 [9ab37805] (008/153) Accurately ripped
07 [5e899b56] (009/152) Accurately ripped
08 [b64977e6] (009/151) Accurately ripped
09 [92e23d0e] (008/152) Accurately ripped
10 [f4feb326] (008/151) Accurately ripped
11 [8e1981bb] (009/152) Accurately ripped
12 [5eea1e3d] (008/150) Accurately ripped
13 [66bd864e] (008/151) Accurately ripped
14 [20b67e10] (008/150) Accurately ripped
Offsetted by 320:
01 [b0cb31ea] (015/153) Accurately ripped
02 [4d8bb272] (015/156) Accurately ripped
03 [4c0c923c] (015/152) Accurately ripped
04 [124ab0d3] (015/152) Accurately ripped
05 [5b1a9b97] (015/152) Accurately ripped
06 [68dd8545] (015/153) Accurately ripped
07 [3b3769fa] (015/152) Accurately ripped
08 [0a9e3de2] (015/151) Accurately ripped
09 [6e3915be] (015/152) Accurately ripped
10 [29d3570e] (015/151) Accurately ripped
11 [40d195e3] (015/152) Accurately ripped
12 [c17b89e9] (015/150) Accurately ripped
13 [f488b636] (015/151) Accurately ripped
14 [42fc896c] (015/150) Accurately ripped
Offsetted by -6:
01 [7b815d60] (000/153) No match (V2 was not tested)
02 [3d90bcfa] (000/156) No match (V2 was not tested)
03 [ceb0e738] (000/152) No match (V2 was not tested)
04 [542f1941] (000/152) No match (V2 was not tested)
05 [4d8360c5] (000/152) No match (V2 was not tested)
06 [39f2b665] (000/153) No match (V2 was not tested)
07 [1b2ed1cd] (000/152) No match (V2 was not tested)
08 [8dd3bccf] (000/151) No match (V2 was not tested)
09 [69422f76] (000/152) No match (V2 was not tested)
10 [e520c2d2] (000/151) No match (V2 was not tested)
11 [63e16a47] (000/152) No match (V2 was not tested)
12 [efdef617] (000/150) No match (V2 was not tested)
13 [f6f57ffa] (000/151) No match (V2 was not tested)
14 [4a4640d2] (000/150) No match (V2 was not tested)
Offsetted by 6:
01 [c1f2af20] (000/153) No match
02 [7f81523e] (000/156) No match
03 [6239c640] (000/152) No match
04 [9226b0e5] (000/152) No match
05 [b73d8ee9] (000/152) No match
06 [bae3cc25] (000/153) No match (V2 was not tested)
07 [ef4a1ea8] (000/152) No match
08 [49a5e7b4] (000/151) No match
09 [46e39e06] (000/152) No match
10 [299eb24a] (000/151) No match
11 [cbd1207f] (000/152) No match
12 [8e5c163b] (000/150) No match
13 [05013372] (000/151) No match
14 [6fb30c86] (000/150) No match

Track Peak [ CRC32 ] [W/O NULL] [ LOG ]
– 99,6 [F3EF426F] [4FE50C78] CRC32
01 96,1 [F54E6071] [C222EDC9]
02 93,2 [A8528886] [9013295A]
03 68,3 [B4859477] [413DB9CB]
04 70,8 [003FB957] [9B59F2CC]
05 70,3 [BA5B3F34] [3750CA46]
06 77,3 [64DD8072] [DF268B2F]
07 72,6 [2A1F6A3D] [F716A55B]
08 81,6 [379BC220] [B81D0896]
09 99,6 [7E7F5915] [A7D6F009]
10 96,8 [149DA158] [D0FE33B2]
11 58,9 [753CCD18] [03C72E9D]
12 79,4 [76933C54] [C8FE2882]
13 78,7 [C27CFED0] [65143482]
14 93,2 [5538C0DC] [1EE2B126]


Paul McCartney, Wings: Remastered CD Collection (1971 - 1989)

Tracklist CD11 - Give My Regards To Broad Street - 1984:
Parlophone 0 7 777 89268 2 5, Holland

01. No More Lonely Nights (Ballad)
02. Good Day Sunshine/Corridor Music
03. Yesterday
04. Here, There And Everywhere
05. Wanderlust
06. Ballrooom Dancing
07. Silly Love Songs/Reprise
08. Not Such A Bad Boy
09. So Bad
10. No Values/No More Lonely Nights (Ballad Reprise)
11. For No One
12. Eleanor Rigby/Eleanor's Dream
13. The Long And Winding Road
14. No More Lonely Nights (Playout Version)
15. Goodnight Princess
16. No More Lonely Nights (Extended Version)
17. No More Lonely Nights (Special Dance Mix)

Exact Audio Copy V0.99 prebeta 5 from 4. May 2009

Отчёт EAC об извлечении, выполненном 28. февраля 2011, 13:50

Paul McCartney / Give My Regards To Broad Street

Дисковод: Optiarc DVD RW AD-7240S Adapter: 1 ID: 0

Режим чтения : Достоверность
Использование точного потока : Да
Отключение кэша аудио : Да
Использование указателей C2 : Нет

Коррекция смещения при чтении : 48
Способность читать области Lead-in и Lead-out : Нет
Заполнение пропущенных сэмплов тишиной : Да
Удаление блоков с тишиной в начале и конце : Нет
При вычислениях CRC использовались нулевые сэмплы : Да
Интерфейс : Встроенный Win32-интерфейс для Win NT/2000

Выходной формат : Пользовательский кодировщик
Выбранный битрейт : 768 kBit/s
Качество : Высокий
Добавление ID3-тэга : Нет
Утилита сжатия : C:\Program Files\Exact Audio Copy\FLAC\FLAC.EXE
Дополнительные параметры : -6 -V -T "ARTIST=%a" -T "TITLE=%t" -T "ALBUM=%g" -T "DATE=%y" -T "TRACKNUMBER=%n" -T "GENRE=%m" -T "COMMENT=%e" %s -o %d


TOC извлечённого CD

Трек | Старт | Длительность | Начальный сектор | Конечный сектор
––––––––––––––––––––––––––––––––––-
1 | 0:00.33 | 5:12.57 | 33 | 23489
2 | 5:13.15 | 2:33.18 | 23490 | 34982
3 | 7:46.33 | 1:42.47 | 34983 | 42679
4 | 9:29.05 | 1:43.10 | 42680 | 50414
5 | 11:12.15 | 4:07.05 | 50415 | 68944
6 | 15:19.20 | 4:51.00 | 68945 | 90769
7 | 20:10.20 | 5:27.25 | 90770 | 115319
8 | 25:37.45 | 3:28.68 | 115320 | 130987
9 | 29:06.38 | 3:24.42 | 130988 | 146329
10 | 32:31.05 | 4:12.05 | 146330 | 165234
11 | 36:43.10 | 2:12.35 | 165235 | 175169
12 | 38:55.45 | 9:12.03 | 175170 | 216572
13 | 48:07.48 | 3:56.67 | 216573 | 234339
14 | 52:04.40 | 5:07.15 | 234340 | 257379
15 | 57:11.55 | 4:07.65 | 257380 | 275969
16 | 61:19.45 | 8:11.15 | 275970 | 312809
17 | 69:30.60 | 4:21.20 | 312810 | 332404


Характеристики диапазона извлечения и сообщения об ошибках

Выбранный диапазон

Имя файла E:\Paul McCartney\1984 Give My Regards To Broad Street\Paul McCartney - Give My Regards To Broad Street.wav

Пиковый уровень 97.7 %
Качество диапазона 99.9 %
CRC теста 4E7CE6AC
CRC копии 4E7CE6AC
Копирование… OK

Ошибок не произошло


AccurateRip: сводка

Трек 1 точное извлечение (доверие 16) [07CD6228]
Трек 2 точное извлечение (доверие 15) [5D8F68F8]
Трек 3 точное извлечение (доверие 15) [DE3B62AA]
Трек 4 точное извлечение (доверие 15) [EE0EFB2C]
Трек 5 точное извлечение (доверие 15) [A5AD3BE1]
Трек 6 точное извлечение (доверие 14) [1CD33CEF]
Трек 7 точное извлечение (доверие 14) [4D0706BF]
Трек 8 точное извлечение (доверие 16) [B8A1D8EB]
Трек 9 точное извлечение (доверие 15) [B722BE9B]
Трек 10 точное извлечение (доверие 14) [4BE3FD9B]
Трек 11 точное извлечение (доверие 14) [3FB35CED]
Трек 12 точное извлечение (доверие 15) [C019C600]
Трек 13 точное извлечение (доверие 15) [856C706A]
Трек 14 точное извлечение (доверие 14) [6A8B0CF6]
Трек 15 точное извлечение (доверие 14) [1CC99B81]
Трек 16 точное извлечение (доверие 12) [34BC8C51]
Трек 17 точное извлечение (доверие 14) [7373482D]

Все треки извлечены точно

Конец отчёта


[CUETools log; Date: 06.12.2017 20:11:49; Version: 2.1.5]
Pregap length 00:00:33.
[CTDB TOCID: WyX9MMVgzERzjJ6ShKm83YKg0RY-] found.
Track | CTDB Status
1 | (63/65) Accurately ripped
2 | (64/65) Accurately ripped
3 | (63/65) Accurately ripped
4 | (63/65) Accurately ripped
5 | (63/65) Accurately ripped
6 | (64/65) Accurately ripped
7 | (64/65) Accurately ripped
8 | (65/65) Accurately ripped
9 | (65/65) Accurately ripped
10 | (65/65) Accurately ripped
11 | (65/65) Accurately ripped
12 | (61/65) Accurately ripped
13 | (65/65) Accurately ripped
14 | (64/65) Accurately ripped
15 | (65/65) Accurately ripped
16 | (56/65) Accurately ripped, or (5/65) differs in 1 samples @01:30:39
17 | (60/65) Accurately ripped, or (1/65) differs in 29 samples @02:19:18, or (2/65) differs in 1546 samples @00:51:41-00:51:43
[AccurateRip ID: 0028ccad-0212b9f3-f1115011] found.
Track [ CRC | V2 ] Status
01 [07cd6228|d219704a] (021+021/116) Accurately ripped
02 [5d8f68f8|ec47e5ae] (019+020/112) Accurately ripped
03 [de3b62aa|60a34b3e] (019+020/112) Accurately ripped
04 [ee0efb2c|8010bdaf] (019+020/114) Accurately ripped
05 [a5ad3be1|517e11bc] (018+020/111) Accurately ripped
06 [1cd33cef|5432a3cf] (018+020/110) Accurately ripped
07 [4d0706bf|1ccbad59] (018+019/111) Accurately ripped
08 [b8a1d8eb|24c558af] (021+019/114) Accurately ripped
09 [b722be9b|0013766d] (019+021/113) Accurately ripped
10 [4be3fd9b|76f6897a] (018+020/112) Accurately ripped
11 [3fb35ced|f766a051] (018+020/111) Accurately ripped
12 [c019c600|24eef589] (019+018/107) Accurately ripped
13 [856c706a|d3e09e19] (019+018/111) Accurately ripped
14 [6a8b0cf6|49f27b04] (018+019/111) Accurately ripped
15 [1cc99b81|135e160b] (018+019/109) Accurately ripped
16 [34bc8c51|96783fe4] (016+020/108) Accurately ripped
17 [7373482d|fdb79f8b] (017+021/109) Accurately ripped
Offsetted by -923:
01 [9a340355] (003/116) Accurately ripped
02 [4ce34eff] (003/112) Accurately ripped
03 [a696be2c] (003/112) Accurately ripped
04 [4ac43945] (003/114) Accurately ripped
05 [b89d26f1] (003/111) Accurately ripped
06 [68ce5bdd] (003/110) Accurately ripped
07 [09c5e7a4] (003/111) Accurately ripped
08 [9dc99071] (003/114) Accurately ripped
09 [dfb23b0c] (003/113) Accurately ripped
10 [0d4d39e4] (003/112) Accurately ripped
11 [bc08c3ad] (002/111) Accurately ripped
12 [2437e4dd] (003/107) Accurately ripped
13 [ec89ca4b] (003/111) Accurately ripped
14 [e5c4d6b2] (003/111) Accurately ripped
15 [16d1894f] (003/109) Accurately ripped
16 [69e1c7e6] (003/108) Accurately ripped
17 [3958d8ed] (003/109) Accurately ripped
Offsetted by -917:
01 [5016a234] (021/116) Accurately ripped
02 [de4636d2] (021/112) Accurately ripped
03 [356b825e] (021/112) Accurately ripped
04 [74a96230] (022/114) Accurately ripped
05 [245c788c] (020/111) Accurately ripped
06 [d26baa78] (020/110) Accurately ripped
07 [25a7c783] (021/111) Accurately ripped
08 [519b9194] (021/114) Accurately ripped
09 [d2561d59] (020/113) Accurately ripped
10 [85cffadf] (021/112) Accurately ripped
11 [958db8be] (021/111) Accurately ripped
12 [4e7385df] (019/107) Accurately ripped
13 [564b451c] (021/111) Accurately ripped
14 [20a50b87] (020/111) Accurately ripped
15 [14a37193] (021/109) Accurately ripped
16 [936ad48c] (020/108) Accurately ripped
17 [c22f236d] (019/109) Accurately ripped
Offsetted by 1028:
01 [cacb117b] (004/116) Accurately ripped
02 [39c0b768] (004/112) Accurately ripped
03 [ba3c562a] (003/112) Accurately ripped
04 [c02d97cc] (004/114) Accurately ripped
05 [c161ebfc] (004/111) Accurately ripped
06 [71fc6ff0] (003/110) Accurately ripped
07 [b8ab1c91] (004/111) Accurately ripped
08 [a5e21e45] (004/114) Accurately ripped
09 [6f87996c] (004/113) Accurately ripped
10 [3bcb5973] (004/112) Accurately ripped
11 [e34a4350] (004/111) Accurately ripped
12 [32cac455] (004/107) Accurately ripped
13 [62711c13] (004/111) Accurately ripped
14 [d9205fad] (004/111) Accurately ripped
15 [fc9b0e59] (003/109) Accurately ripped
16 [5675ae15] (003/108) Accurately ripped
17 [0833cf2d] (004/109) Accurately ripped
Offsetted by 369:
01 [02c3e471] (000/116) No match (V2 was not tested)
02 [eb0ba8e7] (000/112) No match (V2 was not tested)
03 [f57eb8e2] (000/112) No match (V2 was not tested)
04 [e918173e] (000/114) No match (V2 was not tested)
05 [dc99034b] (000/111) No match (V2 was not tested)
06 [3ebfcc83] (000/110) No match (V2 was not tested)
07 [b6ba2129] (000/111) No match (V2 was not tested)
08 [93681b65] (000/114) No match (V2 was not tested)
09 [e7cde0f9] (000/113) No match (V2 was not tested)
10 [0d5d6b18] (000/112) No match (V2 was not tested)
11 [1bb383b8] (000/111) No match (V2 was not tested)
12 [7eeb4b05] (000/107) No match (V2 was not tested)
13 [8dad2d9b] (000/111) No match (V2 was not tested)
14 [78846cee] (000/111) No match (V2 was not tested)
15 [96b6e7d7] (000/109) No match (V2 was not tested)
16 [af291632] (000/108) No match (V2 was not tested)
17 [52ee2ded] (000/109) No match (V2 was not tested)

Track Peak [ CRC32 ] [W/O NULL] [ LOG ]
– 97,7 [4E7CE6AC] [135B3B9A] CRC32
01 97,2 [223C8ADE] [A5EA80CE]
02 70,5 [A80BDF41] [9D37D6DF]
03 63,5 [5F3957A2] [6888D0CA]
04 56,3 [801845A1] [A2DE3F09]
05 88,4 [EFF3EDB8] [47BF85E2]
06 95,0 [652DB640] [D0C2A86F]
07 97,7 [4EE58A04] [47428BC0]
08 95,6 [FA973BF1] [9E3C3C60]
09 97,7 [E4CF0E19] [AFB828AF]
10 97,4 [57E2D6BC] [5DC35B08]
11 57,5 [2DC2F726] [C42C4A0E]
12 79,9 [018449EE] [753EC09B]
13 87,3 [8570EB9B] [DC1D738D]
14 97,0 [87B2A098] [D833329D]
15 46,0 [55E77CAC] [E481B3D3]
16 97,7 [869F19DD] [7739991A]
17 83,6 [07063A2B] [A5D09A33]


Paul McCartney, Wings: Remastered CD Collection (1971 - 1989)

Tracklist CD12 - Press To Play - 1986:
Parlophone 0 7 777 89269 2 4, Holland

01. Stranglehold
02. Good Times Coming:Feel The Sun
03. Talk More Talk
04. Footprints
05. Only Love Remains
06. Press
07. Pretty Little Head
08. Move Over Busker
09. Angry
10. However Absurd
11. Write Away
12. It's Not True
13. Tough On A Tightrope
14. Spies Like Us
15. Once Upon A Long Ago [long version]

Exact Audio Copy V0.99 prebeta 5 from 4. May 2009

Отчёт EAC об извлечении, выполненном 19. октября 2009, 15:09

Paul McCartney / Press To Play

Дисковод: MATSHITADVD-RAM UJ-850S Adapter: 1 ID: 0

Режим чтения : Достоверность
Использование точного потока : Да
Отключение кэша аудио : Да
Использование указателей C2 : Нет

Коррекция смещения при чтении : 102
Способность читать области Lead-in и Lead-out : Нет
Заполнение пропущенных сэмплов тишиной : Да
Удаление блоков с тишиной в начале и конце : Нет
При вычислениях CRC использовались нулевые сэмплы : Да
Интерфейс : Встроенный Win32-интерфейс для Win NT/2000

Выходной формат : Пользовательский кодировщик
Выбранный битрейт : 1024 kBit/s
Качество : Высокий
Добавление ID3-тэга : Нет
Утилита сжатия : C:\Program Files\Exact Audio Copy\Flac\flac.exe
Дополнительные параметры : -8 -V -T "ARTIST=%a" -T "TITLE=%t" -T "ALBUM=%g" -T "DATE=%y" -T "TRACKNUMBER=%n" -T "TOTALTRACKS=%x" -T "GENRE=%m" -T "ALBUM ARTIST=%v" -T "ALBUMARTIST=%v" -T "COMMENT=EAC V0.99 prebeta 5, Secure Mode, AccurateRip, FLAC -8" %s


TOC извлечённого CD

Трек | Старт | Длительность | Начальный сектор | Конечный сектор
––––––––––––––––––––––––––––––––––-
1 | 0:00.33 | 3:36.57 | 33 | 16289
2 | 3:37.15 | 4:56.23 | 16290 | 38512
3 | 8:33.38 | 5:17.67 | 38513 | 62354
4 | 13:51.30 | 4:32.25 | 62355 | 82779
5 | 18:23.55 | 4:16.28 | 82780 | 102007
6 | 22:40.08 | 4:43.10 | 102008 | 123242
7 | 27:23.18 | 5:13.35 | 123243 | 146752
8 | 32:36.53 | 4:05.35 | 146753 | 165162
9 | 36:42.13 | 3:36.10 | 165163 | 181372
10 | 40:18.23 | 4:58.50 | 181373 | 203772
11 | 45:16.73 | 3:01.30 | 203773 | 217377
12 | 48:18.28 | 5:53.00 | 217378 | 243852
13 | 54:11.28 | 4:51.55 | 243853 | 265732
14 | 59:03.08 | 4:48.02 | 265733 | 287334
15 | 63:51.10 | 4:36.05 | 287335 | 308039


Характеристики диапазона извлечения и сообщения об ошибках

Выбранный диапазон

Имя файла H:\MP3\Paul McCartney discography\1986.Press To Play\1986.Press To Play [Remastered]\Paul McCartney - Press To Play.wav

Пиковый уровень 100.0 %
Качество диапазона 100.0 %
CRC теста 93D25F07
CRC копии 93D25F07
Копирование… OK

Ошибок не произошло


AccurateRip: сводка

Трек 1 точное извлечение (доверие 14) [BFCD88A9]
Трек 2 точное извлечение (доверие 14) [D428EA67]
Трек 3 точное извлечение (доверие 14) [431FD26E]
Трек 4 точное извлечение (доверие 14) [E48550E4]
Трек 5 точное извлечение (доверие 15) [3C2B9EBA]
Трек 6 точное извлечение (доверие 14) [F4B6DDC8]
Трек 7 точное извлечение (доверие 15) [18D0534A]
Трек 8 точное извлечение (доверие 15) [592A6F36]
Трек 9 точное извлечение (доверие 15) [8A314C96]
Трек 10 точное извлечение (доверие 16) [4880346C]
Трек 11 точное извлечение (доверие 15) [032DB10F]
Трек 12 точное извлечение (доверие 15) [82EF8384]
Трек 13 точное извлечение (доверие 14) [BDF40F86]
Трек 14 точное извлечение (доверие 14) [47B71656]
Трек 15 точное извлечение (доверие 14) [0C7B3E3E]

Все треки извлечены точно

Конец отчёта


[CUETools log; Date: 06.12.2017 20:12:12; Version: 2.1.5]
Pregap length 00:00:33.
[CTDB TOCID: rQToE8wj6T.PaGabF1i36FXt54c-] found.
Track | CTDB Status
1 | (58/59) Accurately ripped
2 | (59/59) Accurately ripped
3 | (59/59) Accurately ripped
4 | (59/59) Accurately ripped
5 | (59/59) Accurately ripped
6 | (59/59) Accurately ripped
7 | (59/59) Accurately ripped
8 | (59/59) Accurately ripped
9 | (57/59) Accurately ripped
10 | (57/59) Accurately ripped
11 | (59/59) Accurately ripped
12 | (58/59) Accurately ripped
13 | (59/59) Accurately ripped
14 | (58/59) Accurately ripped
15 | (58/59) Accurately ripped
[AccurateRip ID: 00254d4f-01a74569-bd100b0f] found.
Track [ CRC | V2 ] Status
01 [bfcd88a9|23aa1dd2] (032+041/099) Accurately ripped
02 [d428ea67|5d4bda08] (034+042/101) Accurately ripped
03 [431fd26e|eb9263f4] (032+042/099) Accurately ripped
04 [e48550e4|ba46a421] (031+042/099) Accurately ripped
05 [3c2b9eba|d3200e93] (034+042/102) Accurately ripped
06 [f4b6ddc8|2047a715] (033+042/101) Accurately ripped
07 [18d0534a|a9245ab2] (034+042/102) Accurately ripped
08 [592a6f36|ca6d63fe] (033+042/100) Accurately ripped
09 [8a314c96|e186241c] (033+041/099) Accurately ripped
10 [4880346c|294830a1] (034+041/100) Accurately ripped
11 [032db10f|c6d8135e] (033+043/100) Accurately ripped
12 [82ef8384|8f101798] (033+041/099) Accurately ripped
13 [bdf40f86|35446d96] (030+043/097) Accurately ripped
14 [47b71656|2a9aaeef] (034+042/101) Accurately ripped
15 [0c7b3e3e|5db32e5a] (034+041/100) Accurately ripped
Offsetted by -670:
01 [2a7a5cde] (004/099) Accurately ripped
02 [19608bbc] (004/101) Accurately ripped
03 [f6340856] (004/099) Accurately ripped
04 [7184912c] (004/099) Accurately ripped
05 [e0f6ebaa] (004/102) Accurately ripped
06 [09784c2d] (004/101) Accurately ripped
07 [3c68d6ad] (004/102) Accurately ripped
08 [871a4241] (004/100) Accurately ripped
09 [fa1efe7b] (004/099) Accurately ripped
10 [2e5ec9cc] (004/100) Accurately ripped
11 [9ad86b7d] (004/100) Accurately ripped
12 [fd0df8a0] (004/099) Accurately ripped
13 [9e2fd394] (004/097) Accurately ripped
14 [759bde20] (004/101) Accurately ripped
15 [baa37048] (004/100) Accurately ripped
Offsetted by -414:
01 [b36e3b06] (009/099) Accurately ripped
02 [d5794530] (009/101) Accurately ripped
03 [f4433c56] (009/099) Accurately ripped
04 [da97f52c] (009/099) Accurately ripped
05 [1f52e3aa] (009/102) Accurately ripped
06 [3d34b2fe] (009/101) Accurately ripped
07 [e45f1a48] (009/102) Accurately ripped
08 [083aed29] (009/100) Accurately ripped
09 [53f3fe33] (009/099) Accurately ripped
10 [4b405efc] (009/100) Accurately ripped
11 [2ffcd27d] (009/100) Accurately ripped
12 [a520e6a0] (009/099) Accurately ripped
13 [cd7a0a94] (009/097) Accurately ripped
14 [b9a95320] (009/101) Accurately ripped
15 [ec400548] (009/100) Accurately ripped

Track Peak [ CRC32 ] [W/O NULL] [ LOG ]
– 100,0 [93D25F07] [0F34379B] CRC32
01 97,4 [BD05E581] [82B129BE]
02 100,0 [415FB75B] [E6748B6F]
03 92,7 [644F8859] [EE1E330B]
04 82,0 [84D4F78B] [ECBB205C]
05 89,0 [4CE0F8C4] [90F50FE7]
06 94,5 [DAB1F1DF] [8916E708]
07 85,9 [582B8C9A] [37FEF1D8]
08 100,0 [4539BCD3] [980851BD]
09 96,8 [15E6BB85] [696B544A]
10 86,7 [BB209A3F] [1213C0C8]
11 95,1 [3B8B43AE] [806FD5B7]
12 91,1 [524FAA81] [896BDBAB]
13 91,7 [14AFA230] [AEFD9D61]
14 100,0 [E3A87C08] [26C2FD8F]
15 92,4 [6B75BE8D] [86038010]


Paul McCartney, Wings: Remastered CD Collection (1971 - 1989)

Tracklist CD13 - Flowers In The Dirt - 1989:
Parlophone 0 7 777 89138 2 5, Holland

01. My Brave Face
02. Rough Ride
03. You Want Her Too
04. Distractions
05. We Got Married
06. Put It There
07. Figure Of Eight
08. This One
09. Don't Be Careless Love
10. That Day Is Done
11. How Many People
12. Motor Of Love
13. Ou Est Le Soleil
15. Flying To My Home
16. Loveliest Thing

Exact Audio Copy V0.99 prebeta 4 from 23. January 2008

Отчёт EAC об извлечении, выполненном 20. апреля 2009, 9:58

Paul McCartney / Flowers In The Dirt

Дисковод: MATSHITADVD-RAM UJ-850S Adapter: 1 ID: 0

Режим чтения : Достоверность
Использование точного потока : Да
Отключение кэша аудио : Да
Использование указателей C2 : Нет

Коррекция смещения при чтении : 102
Способность читать области Lead-in и Lead-out : Нет
Заполнение пропущенных сэмплов тишиной : Да
Удаление блоков с тишиной в начале и конце : Нет
При вычислениях CRC использовались нулевые сэмплы : Да
Интерфейс : Встроенный Win32-интерфейс для Win NT/2000

Выходной формат : Пользовательский кодировщик
Выбранный битрейт : 1024 kBit/s
Качество : Высокий
Добавление ID3-тэга : Нет
Утилита сжатия : C:\Program Files\Exact Audio Copy\Flac\flac.exe
Дополнительные параметры : -V -8 -T "artist=%a" -T "title=%t" -T "album=%g" -T "date=%y" -T "tracknumber=%n" -T "genre=%m" %s


TOC извлечённого CD

Трек | Старт | Длительность | Начальный сектор | Конечный сектор
––––––––––––––––––––––––––––––––––-
1 | 0:00.33 | 3:18.42 | 33 | 14924
2 | 3:19.00 | 4:43.33 | 14925 | 36182
3 | 8:02.33 | 3:12.45 | 36183 | 50627
4 | 11:15.03 | 4:40.50 | 50628 | 71677
5 | 15:55.53 | 4:56.70 | 71678 | 93947
6 | 20:52.48 | 2:10.17 | 93948 | 103714
7 | 23:02.65 | 3:24.73 | 103715 | 119087
8 | 26:27.63 | 4:10.15 | 119088 | 137852
9 | 30:38.03 | 3:19.22 | 137853 | 152799
10 | 33:57.25 | 4:20.25 | 152800 | 172324
11 | 38:17.50 | 4:14.73 | 172325 | 191447
12 | 42:32.48 | 6:24.70 | 191448 | 220317
13 | 48:57.43 | 4:53.70 | 220318 | 242362
14 | 53:51.38 | 4:24.07 | 242363 | 262169
15 | 58:15.45 | 4:15.25 | 262170 | 281319
16 | 62:30.70 | 3:58.50 | 281320 | 299219


Характеристики диапазона извлечения и сообщения об ошибках

Выбранный диапазон

Имя файла C:\Users\Al\Desktop\New Folder (13)\Paul McCartney - Flowers In The Dirt.wav

Пиковый уровень 100.0 %
Качество диапазона 100.0 %
CRC теста DD3D1F43
CRC копии DD3D1F43
Копирование… OK

Ошибок не произошло


AccurateRip: сводка

Трек 1 точное извлечение (доверие 6) [953B7F9A]
Трек 2 точное извлечение (доверие 6) [D7A73B43]
Трек 3 точное извлечение (доверие 6) [0C9EF1A6]
Трек 4 точное извлечение (доверие 6) [789F1395]
Трек 5 точное извлечение (доверие 6) [4CACCB9B]
Трек 6 точное извлечение (доверие 6) [84EDA0F6]
Трек 7 точное извлечение (доверие 6) [9D7FADA3]
Трек 8 точное извлечение (доверие 6) [A8969199]
Трек 9 точное извлечение (доверие 6) [9A8B9402]
Трек 10 точное извлечение (доверие 6) [0FD581E4]
Трек 11 точное извлечение (доверие 6) [506A331B]
Трек 12 точное извлечение (доверие 6) [4187E42B]
Трек 13 точное извлечение (доверие 6) [51DC7085]
Трек 14 точное извлечение (доверие 6) [0528C118]
Трек 15 точное извлечение (доверие 6) [21249E24]
Трек 16 точное извлечение (доверие 6) [26AF6B7E]

Все треки извлечены точно

Конец отчёта


[CUETools log; Date: 06.12.2017 20:12:36; Version: 2.1.5]
Pregap length 00:00:33.
[CTDB TOCID: TNHLRqD60awNHaALuRowQ8rvF90-] found.
Track | CTDB Status
1 | (81/84) Accurately ripped
2 | (81/84) Accurately ripped
3 | (82/84) Accurately ripped
4 | (81/84) Accurately ripped
5 | (82/84) Accurately ripped
6 | (82/84) Accurately ripped
7 | (82/84) Accurately ripped
8 | (81/84) Accurately ripped
9 | (82/84) Accurately ripped
10 | (82/84) Accurately ripped
11 | (81/84) Accurately ripped
12 | (81/84) Accurately ripped
13 | (81/84) Accurately ripped
14 | (82/84) Accurately ripped
15 | (82/84) Accurately ripped
16 | (82/84) Accurately ripped
[AccurateRip ID: 0025625f-01c4e559-fc0f9510] found.
Track [ CRC | V2 ] Status
01 [953b7f9a|6a7d3ea1] (028+028/134) Accurately ripped
02 [d7a73b43|53c603cc] (029+029/135) Accurately ripped
03 [0c9ef1a6|e4b75084] (028+029/134) Accurately ripped
04 [789f1395|e63bdd25] (028+028/134) Accurately ripped
05 [4caccb9b|0822e081] (029+028/134) Accurately ripped
06 [84eda0f6|27c7784b] (028+028/135) Accurately ripped
07 [9d7fada3|fab99063] (028+029/135) Accurately ripped
08 [a8969199|5b7438a4] (029+029/138) Accurately ripped
09 [9a8b9402|bfe2bf3f] (028+028/133) Accurately ripped
10 [0fd581e4|d2bbef48] (027+029/133) Accurately ripped
11 [506a331b|bd969426] (028+029/134) Accurately ripped
12 [4187e42b|23548bc8] (027+028/132) Accurately ripped
13 [51dc7085|c030205b] (027+028/137) Accurately ripped
14 [0528c118|73d2be11] (029+027/137) Accurately ripped
15 [21249e24|03153e0d] (029+025/135) Accurately ripped
16 [26af6b7e|d10ab309] (027+027/132) Accurately ripped
Offsetted by -905:
01 [bc2eddcf] (010/134) Accurately ripped
02 [bf92de48] (010/135) Accurately ripped
03 [48de9d4a] (010/134) Accurately ripped
04 [78b9fc07] (010/134) Accurately ripped
05 [0b79a44b] (010/134) Accurately ripped
06 [2c956c2f] (010/135) Accurately ripped
07 [f8992aa3] (010/135) Accurately ripped
08 [3c6ff773] (010/138) Accurately ripped
09 [b12005c1] (010/133) Accurately ripped
10 [bba34c68] (010/133) Accurately ripped
11 [5fc4ceb5] (010/134) Accurately ripped
12 [24c40fe2] (010/132) Accurately ripped
13 [7124d657] (010/137) Accurately ripped
14 [4673055e] (010/137) Accurately ripped
15 [a4ff1cce] (010/135) Accurately ripped
16 [b37e7cb6] (010/132) Accurately ripped
Offsetted by -241:
01 [3d2a4617] (024/134) Accurately ripped
02 [caa91568] (024/135) Accurately ripped
03 [fb56d3fa] (025/134) Accurately ripped
04 [73d72dd7] (025/134) Accurately ripped
05 [3a5a43e4] (025/134) Accurately ripped
06 [b7e9be5e] (025/135) Accurately ripped
07 [34c4b2a3] (024/135) Accurately ripped
08 [ee3a4183] (026/138) Accurately ripped
09 [aabddb99] (024/133) Accurately ripped
10 [0502b108] (025/133) Accurately ripped
11 [7c637ec5] (024/134) Accurately ripped
12 [0937747a] (024/132) Accurately ripped
13 [38879f27] (026/137) Accurately ripped
14 [6699504e] (025/137) Accurately ripped
15 [e6e8475e] (026/135) Accurately ripped
16 [1505ad76] (025/132) Accurately ripped
Offsetted by 675:
01 [cba0da93] (010/134) Accurately ripped
02 [01f29061] (010/135) Accurately ripped
03 [5c150745] (009/134) Accurately ripped
04 [6ea4772f] (010/134) Accurately ripped
05 [61eb1e0e] (009/134) Accurately ripped
06 [ccd0c130] (010/135) Accurately ripped
07 [04b08ea3] (010/135) Accurately ripped
08 [a5ce3bbb] (010/138) Accurately ripped
09 [1723ee8d] (010/133) Accurately ripped
10 [0c283738] (009/133) Accurately ripped
11 [c4417dfd] (010/134) Accurately ripped
12 [7a582f0e] (010/132) Accurately ripped
13 [f53988ff] (010/137) Accurately ripped
14 [0fdd8f96] (010/137) Accurately ripped
15 [58f70b56] (009/135) Accurately ripped
16 [6a36ec16] (009/132) Accurately ripped

Track Peak [ CRC32 ] [W/O NULL] [ LOG ]
– 100,0 [8009C451] [DD3D1F43] W/O NULL
01 99,4 [2FB97C7B] [DFA6051B]
02 96,1 [82E0F2C8] [7C88EAE6]
03 100,0 [BD838361] [558DE5A7]
04 61,4 [8F26C566] [86572234]
05 97,9 [3B402A5F] [984AFC74]
06 60,4 [19FCFC8F] [9A302522]
07 99,8 [831BA86E] [D00A63C5]
08 100,0 [7864FD14] [42C66CCB]
09 100,0 [03AE2179] [758B3760]
10 73,6 [659D4F9B] [A224FEE2]
11 78,1 [0152BB4C] [129404FC]
12 81,7 [9F1F6062] [25D393E2]
13 95,7 [6305C197] [DB5FD432]
14 93,8 [C9D40661] [ABCE5B07]
15 97,5 [830B6A40] [CAEB6DDA]
16 97,2 [8648CE7E] [8F832398]


All thanks go to alonzo

Paul McCartney or Paul McCartney in my Blog

Download Paul McCartney, Wings: Remastered CD Collection (1971 - 1989):