Subcategories

Paul McCartney & Wings - Band On The Run (1973) [25th Anniversary Edition]

Posted By: v3122
Paul McCartney & Wings - Band On The Run (1973) [25th Anniversary Edition]

Paul McCartney & Wings - Band On The Run (1973)
EAC | Flac(Image) + Cue + Log & MP3 CBR 320Kbps
2CD | 1999 | Capitol, CDP 7243 4 99176 2 0 | ~ 558 or 227 Mb | Scans(jpg) -> 236 Mb
Classic Rock / Pop Rock

Band on the Run is generally considered Paul McCartney's strongest solo effort. The album was also his most commercially successful, selling well and spawning two hit singles, the multi-part pop suite of the title track and the roaring rocker "Jet." On these cuts and elsewhere, McCartney's penchant for sophisticated, nuanced arrangements and irrepressibly catchy melodic hooks is up to the caliber he displayed in the Beatles, far surpassing the first two Wings releases Wild Life and Red Rose Speedway. The focus found in Band on the Run may have to do with the circumstances of its creation: two former members quit the band prior to recording, leaving McCartney, wife Linda, and guitarist Denny Laine to complete the album alone (with Paul writing, producing, and playing most of the instruments himself). The album has the majestic, orchestral sweep of McCartney's Abbey Road-era ambition, with a wide range of style-dabbling, from the swaying, acoustic jazz-pop of "Bluebird" and the appealing, straightforward rock of "Helen Wheels," to the wiry blues of "Let Me Roll It" and the swaying, one-off pub singalong "Picasso's Last Words (Drink to Me)." Though it lacks the emotional resonance of contemporaneous releases by John Lennon and George Harrison, McCartney's infallible instinct for popcraft overflows on this excellent release.

by Al Campbell, AMG
Paul McCartney & Wings - Band On The Run (1973) [25th Anniversary Edition]


Paul McCartney & Wings - Band On The Run (1973):

Paul McCartney & Wings - Band On The Run (1973) [25th Anniversary Edition]

Tracklist CD1:

01. Band On The Run 5:13
02. Jet 4:09
03. Bluebird 3:24
04. Mrs Vandebilt 4:41
05. Let Me Roll It 4:50
06. Mamunia 4:50
07. No Words 2:34
08. Helen Wheels 3:47
09. Picasso's Last Words (Drink To Me) 5:49
10. Nineteen Hundred And Eighty Five 5:29

Exact Audio Copy V1.3 from 2. September 2016

EAC extraction logfile from 1. April 2017, 10:26

Paul McCartney & Wings / Band On The Run (Disc 1) (7243 4 99177 2 9)

Used drive : PLEXTOR DVDR PX-891SA Adapter: 1 ID: 0

Read mode : Secure
Utilize accurate stream : Yes
Defeat audio cache : Yes
Make use of C2 pointers : No

Read offset correction : 6
Overread into Lead-In and Lead-Out : No
Fill up missing offset samples with silence : Yes
Delete leading and trailing silent blocks : No
Null samples used in CRC calculations : Yes
Used interface : Native Win32 interface for Win NT & 2000

Used output format : User Defined Encoder
Selected bitrate : 128 kBit/s
Quality : High
Add ID3 tag : No
Command line compressor : C:\Program Files (x86)\Exact Audio Copy\Flac\flac.exe
Additional command line options : -V -8 -T "Genre=%genre%" -T "Artist=%artist%" -T "Title=%title%" -T "Album=%albumtitle%" -T "Date=%year%" -T "Tracknumber=%tracknr%" -T "Comment=%comment%" %source%


TOC of the extracted CD

Track | Start | Length | Start sector | End sector
––––––––––––––––––––––––––––-
1 | 0:00.00 | 5:13.07 | 0 | 23481
2 | 5:13.07 | 4:08.55 | 23482 | 42136
3 | 9:21.62 | 3:23.73 | 42137 | 57434
4 | 12:45.60 | 4:41.32 | 57435 | 78541
5 | 17:27.17 | 4:50.05 | 78542 | 100296
6 | 22:17.22 | 4:50.28 | 100297 | 122074
7 | 27:07.50 | 2:34.35 | 122075 | 133659
8 | 29:42.10 | 3:47.05 | 133660 | 150689
9 | 33:29.15 | 5:49.00 | 150690 | 176864
10 | 39:18.15 | 5:28.57 | 176865 | 201521


Range status and errors

Selected range

Filename H:\dafnaplus\Paul McCartney & Wings - Band On The Run\Disc 1\Paul McCartney & Wings - Band On The Run (Disc 1) (7243 4 99177 2 9).wav

Peak level 99.9 %
Extraction speed 6.6 X
Range quality 99.9 %
Test CRC 2FFD4321
Copy CRC 2FFD4321
Copy OK

No errors occurred


AccurateRip summary

Track 1 accurately ripped (confidence 65) [A20EB352] (AR v2)
Track 2 accurately ripped (confidence 65) [0C7743F2] (AR v2)
Track 3 accurately ripped (confidence 65) [0D06380D] (AR v2)
Track 4 accurately ripped (confidence 65) [791C321E] (AR v2)
Track 5 accurately ripped (confidence 64) [1B6B3DF0] (AR v2)
Track 6 accurately ripped (confidence 64) [513CAE68] (AR v2)
Track 7 accurately ripped (confidence 64) [402EFA52] (AR v2)
Track 8 accurately ripped (confidence 66) [A5CE4EED] (AR v2)
Track 9 accurately ripped (confidence 65) [7C3A0F19] (AR v2)
Track 10 accurately ripped (confidence 63) [4B3114A1] (AR v2)

All tracks accurately ripped

End of status report

–– CUETools DB Plugin V2.1.6

[CTDB TOCID: mBSvJVwKQQ_JrYdpvQXrGL8lUWQ-] found
Submit result: already submitted
Track | CTDB Status
1 | (106/118) Accurately ripped, or (10/118) differs in 13752 samples @00:00:10-00:00:26
2 | (118/118) Accurately ripped
3 | (118/118) Accurately ripped
4 | (118/118) Accurately ripped
5 | (117/118) Accurately ripped
6 | (117/118) Accurately ripped
7 | (114/118) Accurately ripped
8 | (118/118) Accurately ripped
9 | (117/118) Accurately ripped
10 | (115/118) Accurately ripped


==== Log checksum 97EDDE3362538D60645DC3689E6FAE113C65B364E3B758C813522593929D1081 ====

foobar2000 1.2.9 / Dynamic Range Meter 1.1.1
log date: 2017-04-01 19:10:31

––––––––––––––––––––––––––––––––––––––––
Analyzed: Paul McCartney & Wings / Band On The Run (Disc 1) (7243 4 99177 2 9)
––––––––––––––––––––––––––––––––––––––––

DR Peak RMS Duration Track
––––––––––––––––––––––––––––––––––––––––
DR10 -0.01 dB -11.97 dB 5:13 01-Band On The Run
DR8 -0.01 dB -9.76 dB 4:09 02-Jet
DR11 -0.01 dB -13.26 dB 3:24 03-Bluebird
DR8 -0.01 dB -9.94 dB 4:41 04-Mrs Vandebilt
DR9 -0.01 dB -10.91 dB 4:50 05-Let Me Roll It
DR11 -0.01 dB -12.36 dB 4:50 06-Mamunia
DR9 -0.01 dB -10.84 dB 2:34 07-No Words
DR8 -0.01 dB -9.56 dB 3:47 08-Helen Wheels
DR10 -0.01 dB -12.55 dB 5:49 09-Picasso's Last Words (Drink To Me)
DR8 -0.01 dB -10.39 dB 5:29 10-Nineteen Hundred And Eighty Five
––––––––––––––––––––––––––––––––––––––––

Number of tracks: 10
Official DR value: DR9

Samplerate: 44100 Hz
Channels: 2
Bits per sample: 16
Bitrate: 888 kbps
Codec: FLAC

[CUETools log; Date: 01.04.2017 19:01:39; Version: 2.1.4]
[CTDB TOCID: mBSvJVwKQQ_JrYdpvQXrGL8lUWQ-] found.
Track | CTDB Status
1 | (106/118) Accurately ripped, or (10/118) differs in 13752 samples @00:00:10-00:00:26
2 | (118/118) Accurately ripped
3 | (118/118) Accurately ripped
4 | (118/118) Accurately ripped
5 | (117/118) Accurately ripped
6 | (117/118) Accurately ripped
7 | (114/118) Accurately ripped
8 | (118/118) Accurately ripped
9 | (117/118) Accurately ripped
10 | (115/118) Accurately ripped
[AccurateRip ID: 001094f1-00842fe7-800a7e0a] found.
Track [ CRC | V2 ] Status
01 [5e4ff04c|a20eb352] (100+065/236) Accurately ripped
02 [fc4539be|0c7743f2] (101+065/236) Accurately ripped
03 [17ffb592|0d06380d] (100+065/235) Accurately ripped
04 [21844d22|791c321e] (101+065/236) Accurately ripped
05 [8b3fb9ae|1b6b3df0] (099+064/233) Accurately ripped
06 [bf910bff|513cae68] (100+064/234) Accurately ripped
07 [6a6a2997|402efa52] (098+064/232) Accurately ripped
08 [de14ba55|a5ce4eed] (100+066/236) Accurately ripped
09 [63289ab2|7c3a0f19] (097+065/234) Accurately ripped
10 [e536e6dd|4b3114a1] (098+063/232) Accurately ripped
Offsetted by -669:
01 [4cf664c2] (030/236) Accurately ripped
02 [393bad06] (029/236) Accurately ripped
03 [d167f75b] (030/235) Accurately ripped
04 [5d5598dc] (030/236) Accurately ripped
05 [7e8037d8] (030/233) Accurately ripped
06 [d54f7ef4] (030/234) Accurately ripped
07 [2e137eaf] (030/232) Accurately ripped
08 [7b2082dc] (030/236) Accurately ripped
09 [c4a23731] (030/234) Accurately ripped
10 [14e1731d] (029/232) Accurately ripped
Offsetted by -664:
01 [4ceca8f9] (005/236) Accurately ripped
02 [d0a14aba] (005/236) Accurately ripped
03 [0bdcc538] (005/235) Accurately ripped
04 [5ea1c581] (005/236) Accurately ripped
05 [013b3e52] (005/233) Accurately ripped
06 [87b0f576] (005/234) Accurately ripped
07 [8056f152] (005/232) Accurately ripped
08 [0115f495] (005/236) Accurately ripped
09 [0f2fef2f] (005/234) Accurately ripped
10 [393db17b] (005/232) Accurately ripped
Offsetted by -456:
01 [77d4de2b] (000/236) No match (V2 was not tested)
02 [ca3aeaf8] (000/236) No match (V2 was not tested)
03 [9b798381] (000/235) No match (V2 was not tested)
04 [c66ad536] (000/236) No match (V2 was not tested)
05 [b7e3ff9d] (000/233) No match (V2 was not tested)
06 [ad1cce5b] (000/234) No match (V2 was not tested)
07 [6ff2fd04] (000/232) No match (V2 was not tested)
08 [6a9b313b] (000/236) No match (V2 was not tested)
09 [784bc7b7] (000/234) No match (V2 was not tested)
10 [e8bb9df4] (000/232) No match (V2 was not tested)
Offsetted by 6:
01 [8b9a17ca] (000/236) No match (V2 was not tested)
02 [5c5c7748] (000/236) No match
03 [01a4a943] (000/235) No match
04 [6b7a9f00] (000/236) No match
05 [0959f89a] (000/233) No match
06 [a308074b] (000/234) No match
07 [e5ceed42] (000/232) No match
08 [c50c5d2a] (000/236) No match
09 [a1ed434b] (002/234) Accurately ripped
10 [af372baf] (002/232) Accurately ripped
Offsetted by 563:
01 [ef46a770] (000/236) No match (V2 was not tested)
02 [af3cf9df] (002/236) Accurately ripped
03 [d7c8a8ef] (002/235) Accurately ripped
04 [94f3fe6a] (002/236) Accurately ripped
05 [f0923c6a] (002/233) Accurately ripped
06 [c50d948c] (002/234) Accurately ripped
07 [de3339e6] (002/232) Accurately ripped
08 [107ee416] (002/236) Accurately ripped
09 [d2b6b33a] (002/234) Accurately ripped
10 [f1532e15] (000/232) No match (V2 was not tested)

Track Peak [ CRC32 ] [W/O NULL] [ LOG ]
– 99,9 [2FFD4321] [F5FCD82C] CRC32
01 99,9 [9B91DDD5] [61872362]
02 99,9 [66500C39] [71B41226]
03 99,9 [EDD3A710] [DE39F634]
04 99,9 [C84B6C1C] [01420CF6]
05 99,8 [D9ED22C8] [0141314A]
06 99,9 [C3073074] [DD7A5CD7]
07 99,9 [047D5E93] [B96A3565]
08 99,9 [D1DF881E] [8775442C]
09 99,9 [A41D1E1C] [24B9BEB7]
10 99,9 [07005FB1] [5FBAFF04]

Paul McCartney & Wings - Band On The Run (1973) [25th Anniversary Edition]

Tracklist CD2:

01. Paul McCartney (Dialogue Intro) / Band On The Run (Nicely Toasted Mix) 1:13
02. Band On The Run (Original) (Background) / Paul McCartney (Dialogue Link 1) 2:17
03. Band On The Run (Barn Rehearsal - 21st July 1989) 4:59
04. Paul McCartney (Dialogue Link 2) / Mamunia (Original) (Background) / Denny Laine (Dialogue) / Mamunia (Original) (Background) / Linda McCartney (Dialogue) / Paul McCartney (Dialogue Link 3) 4:22
05. Bluebird (Live-Version - Australia 1975) 0:55
06. Bluebird (Original) (Background) / Paul McCartney (Dialogue Link 4) 0:23
07. Paul McCartney (Dialogue Link 5) / No Words (Original) (Background) / Geoff Emerick (Dialogue) 1:24
08. No Words (Original) / Paul McCartney (Dialogue Link 6) / Tony Visconti (Dialogue) / Band On The Run (Original) (Illustration) / Tony Visconti (Dialogue) 1:47
09. Jet (Original From Picasso's Last Words) (Background) / Paul McCartney (Dialogue Link 7) / Jet (Original From Picasso's Last Words) (Background) / Al Coury (Dialogue) 2:55
10. Jet (Berlin Soundcheck - 3rd September 1993) 3:51
11. Paul McCartney (Dialogue Link 8) / Clive Arrowsmith (Dialogue) 1:44
12. Nineteen Hundred And Eighty Five (Original) (Background) / Paul McCartney (Dialogue Link 9) / James Coburn (Dialogue) / Paul McCartney (Dialogue Link 10) / John Conteh (Dialogue) 2:24
13. Mrs Vandebilt (Original) (Background) / Paul McCartney (Dialogue Link 11) / Kenny Lynch (Dialogue) 2:10
14. Let Me Roll It (Cardington Rehearsal - 5th February 1993) / Paul McCartney (Dialogue Link 12) 3:52
15. Paul McCartney (Dialogue Link 13) / Mrs Vandebilt (Background) / Michael Parkinson (Dialogue) / Linda McCartney (Band On The Run Photo Shoot) (Dialogue) / Michael Parkinson (Dialogue) 2:25
16. Helen Wheels (Crazed) / Paul McCartney (Dialogue Link 14) / Christopher Lee (Dialogue) 5:32
Engineer [Helen Wheels (Crazed)] – Geoff Emerick
17. Band On The Run (Strum Bit) / Paul McCartney (Dialogue Link 15) / Clement Freud (Dialogue) 1:01
Engineer [Band On The Run (Strum Bit)] – Geoff Emerick
18. Picasso's Last Words (Original) (Background) / Paul McCartney (Dialogue Link 16) / Dustin Hoffman (Dialogue) 4:22
19. Picasso's Last Words (Drink To Me) (Acoustic Version) 1:11
Engineer – Eddie Klein
20. Band On The Run (Nicely Toasted Mix) / Paul McCartney (Dialogue Link 17) 0:42
Engineer [Band On The Run (Nicely Toasted Mix)] – Geoff Emerick
21. Band On The Run (Northern Comic Version) 0:36
Engineer – Geoff Emerick

Exact Audio Copy V1.3 from 2. September 2016

EAC extraction logfile from 1. April 2017, 10:48

Paul McCartney & Wings / Band On The Run (Disc 2) (7243 4 99178 2 8)

Used drive : PLEXTOR DVDR PX-891SA Adapter: 1 ID: 0

Read mode : Secure
Utilize accurate stream : Yes
Defeat audio cache : Yes
Make use of C2 pointers : No

Read offset correction : 6
Overread into Lead-In and Lead-Out : No
Fill up missing offset samples with silence : Yes
Delete leading and trailing silent blocks : No
Null samples used in CRC calculations : Yes
Used interface : Native Win32 interface for Win NT & 2000

Used output format : User Defined Encoder
Selected bitrate : 128 kBit/s
Quality : High
Add ID3 tag : No
Command line compressor : C:\Program Files (x86)\Exact Audio Copy\Flac\flac.exe
Additional command line options : -V -8 -T "Genre=%genre%" -T "Artist=%artist%" -T "Title=%title%" -T "Album=%albumtitle%" -T "Date=%year%" -T "Tracknumber=%tracknr%" -T "Comment=%comment%" %source%


TOC of the extracted CD

Track | Start | Length | Start sector | End sector
––––––––––––––––––––––––––––-
1 | 0:00.00 | 1:11.47 | 0 | 5371
2 | 1:11.47 | 2:16.60 | 5372 | 15631
3 | 3:28.32 | 4:59.30 | 15632 | 38086
4 | 8:27.62 | 4:22.35 | 38087 | 57771
5 | 12:50.22 | 0:54.53 | 57772 | 61874
6 | 13:45.00 | 0:23.05 | 61875 | 63604
7 | 14:08.05 | 1:24.30 | 63605 | 69934
8 | 15:32.35 | 1:47.05 | 69935 | 77964
9 | 17:19.40 | 2:55.07 | 77965 | 91096
10 | 20:14.47 | 3:51.68 | 91097 | 108489
11 | 24:06.40 | 1:44.12 | 108490 | 116301
12 | 25:50.52 | 3:24.18 | 116302 | 131619
13 | 29:14.70 | 2:10.37 | 131620 | 141406
14 | 31:25.32 | 3:51.73 | 141407 | 158804
15 | 35:17.30 | 2:25.37 | 158805 | 169716
16 | 37:42.67 | 5:32.35 | 169717 | 194651
17 | 43:15.27 | 1:00.55 | 194652 | 199206
18 | 44:16.07 | 4:21.58 | 199207 | 218839
19 | 48:37.65 | 1:10.67 | 218840 | 224156
20 | 49:48.57 | 0:41.73 | 224157 | 227304
21 | 50:30.55 | 0:36.27 | 227305 | 230031


Range status and errors

Selected range

Filename H:\dafnaplus\Paul McCartney & Wings - Band On The Run\Disc 2\Paul McCartney & Wings - Band On The Run (Disc 2) (7243 4 99178 2 8).wav

Peak level 98.8 %
Extraction speed 6.1 X
Range quality 99.9 %
Test CRC 867528F2
Copy CRC 867528F2
Copy OK

No errors occurred


AccurateRip summary

Track 1 accurately ripped (confidence 58) [0577E7F4] (AR v2)
Track 2 accurately ripped (confidence 58) [A0C1EBF0] (AR v2)
Track 3 accurately ripped (confidence 60) [27929882] (AR v2)
Track 4 accurately ripped (confidence 59) [99BA9A88] (AR v2)
Track 5 accurately ripped (confidence 60) [D419267A] (AR v2)
Track 6 accurately ripped (confidence 59) [100C57AB] (AR v2)
Track 7 accurately ripped (confidence 58) [146E592E] (AR v2)
Track 8 accurately ripped (confidence 58) [B74705C3] (AR v2)
Track 9 accurately ripped (confidence 59) [4929709E] (AR v2)
Track 10 accurately ripped (confidence 59) [28DC231C] (AR v2)
Track 11 accurately ripped (confidence 58) [FCA85D74] (AR v2)
Track 12 accurately ripped (confidence 58) [0980E6B4] (AR v2)
Track 13 accurately ripped (confidence 58) [CAB44AC9] (AR v2)
Track 14 accurately ripped (confidence 58) [2AB65A97] (AR v2)
Track 15 accurately ripped (confidence 58) [A0CE8CB2] (AR v2)
Track 16 accurately ripped (confidence 58) [5F0CCA59] (AR v2)
Track 17 accurately ripped (confidence 59) [8A5293F4] (AR v2)
Track 18 accurately ripped (confidence 58) [2909723B] (AR v2)
Track 19 accurately ripped (confidence 58) [DC7B2FDC] (AR v2)
Track 20 accurately ripped (confidence 58) [7EA3C0AF] (AR v2)
Track 21 accurately ripped (confidence 59) [7B16E4B2] (AR v2)

All tracks accurately ripped

End of status report

–– CUETools DB Plugin V2.1.6

[CTDB TOCID: pnnp1LvCiJcYSxFVsgER4TOw9f4-] found
Submit result: already submitted
Track | CTDB Status
1 | ( 85/134) Accurately ripped
2 | ( 86/134) Accurately ripped
3 | ( 86/134) Accurately ripped
4 | ( 85/134) Accurately ripped
5 | ( 86/134) Accurately ripped
6 | ( 86/134) Accurately ripped
7 | ( 86/134) Accurately ripped
8 | ( 86/134) Accurately ripped
9 | ( 86/134) Accurately ripped
10 | (134/134) Accurately ripped
11 | ( 86/134) Accurately ripped
12 | ( 86/134) Accurately ripped
13 | ( 86/134) Accurately ripped
14 | ( 81/134) Accurately ripped
15 | ( 86/134) Accurately ripped
16 | ( 86/134) Accurately ripped
17 | ( 86/134) Accurately ripped
18 | ( 86/134) Accurately ripped
19 | ( 86/134) Accurately ripped
20 | ( 86/134) Accurately ripped
21 | ( 86/134) Accurately ripped


==== Log checksum 36902D43F31B073CE3910F7EE866A0416B703F89CB65FFE7BD78F77FAEB3EDD2 ====

foobar2000 1.2.9 / Dynamic Range Meter 1.1.1
log date: 2017-04-01 19:10:05

––––––––––––––––––––––––––––––––––––––––
Analyzed: Paul McCartney & Wings / Band On The Run (Disc 2) (7243 4 99178 2 8)
––––––––––––––––––––––––––––––––––––––––

DR Peak RMS Duration Track
––––––––––––––––––––––––––––––––––––––––
DR14 -1.59 dB -20.85 dB 1:12 01-Paul McCartney (Dialogue Intro) / Band On The Run (Nicely Toasted Mix)
DR14 -2.67 dB -22.43 dB 2:17 02-Band On The Run (Original) (Background) / Paul McCartney (Dialogue Link 1)
DR10 -0.10 dB -11.56 dB 4:59 03-Band On The Run (Barn Rehearsal - 21st July 1989)
DR12 -0.10 dB -15.72 dB 0:55 05-Bluebird (Live-Version - Australia 1975)
DR9 -6.81 dB -21.63 dB 0:23 06-Bluebird (Original) (Background) / Paul McCartney (Dialogue Link 4)
DR11 -9.70 dB -22.79 dB 1:24 07-Paul McCartney (Dialogue Link 5) / No Words (Original) (Background) / Geoff E…
DR11 -1.35 dB -19.14 dB 1:47 08-No Words (Original) / Paul McCartney (Dialogue Link 6) / Tony Visconti (Dialo…
DR15 -4.13 dB -22.58 dB 2:55 09-Jet (Original From Picasso's Last Words) (Background) / Paul McCartney (Dialo…
DR9 -0.24 dB -10.46 dB 3:52 10-Jet (Berlin Soundcheck - 3rd September 1993)
DR11 -9.95 dB -23.68 dB 1:44 11-Paul McCartney (Dialogue Link 8) / Clive Arrowsmith (Dialogue)
DR16 -2.94 dB -22.53 dB 3:24 12-Nineteen Hundred And Eighty Five (Original) (Background) / Paul McCartney (Di…
DR13 -4.08 dB -22.02 dB 2:10 13-Mrs Vandebilt (Original) (Background) / Paul McCartney (Dialogue Link 11) / K…
DR10 -0.27 dB -12.47 dB 3:52 14-Let Me Roll It (Cardington Rehearsal - 5th February 1993) / Paul McCartney (D…
DR13 -4.06 dB -21.93 dB 2:25 15-Paul McCartney (Dialogue Link 13) / Mrs Vandebilt (Background) / Michael Park…
DR9 -0.26 dB -12.15 dB 5:32 16-Helen Wheels (Crazed) / Paul McCartney (Dialogue Link 14) / Christopher Lee (…
DR11 -9.21 dB -24.45 dB 1:01 17-Band On The Run (Strum Bit) / Paul McCartney (Dialogue Link 15) / Clement Fre…
DR13 -2.35 dB -21.02 dB 4:22 18-Picasso's Last Words (Original) (Background) / Paul McCartney (Dialogue Link …
DR12 -3.02 dB -18.71 dB 1:11 19-Picasso's Last Words (Drink To Me) (Acoustic Version)
DR13 -0.10 dB -19.37 dB 0:42 20-Band On The Run (Nicely Toasted Mix) / Paul McCartney (Dialogue Link 17)
DR11 -5.66 dB -20.04 dB 0:36 21-Band On The Run (Northern Comic Version)
––––––––––––––––––––––––––––––––––––––––

Number of tracks: 20
Official DR value: DR12

Samplerate: 44100 Hz
Channels: 2
Bits per sample: 16
Bitrate: 704 kbps
Codec: FLAC
================================================================================

––––––––––––––––––––––––––––––––––––––––
Statistics for: 04-Paul McCartney (Dialogue Link 2) / Mamunia (Original) (Background) / Denny La…
Number of samples: 11574780
Duration: 4:22
––––––––––––––––––––––––––––––––––––––––

Left Right

Peak Value: -4.34 dB –- -6.30 dB
Avg RMS: -22.30 dB –- -22.66 dB
DR channel: 14.39 dB –- 12.63 dB
––––––––––––––––––––––––––––––––––––––––

Official DR Value: DR14

Samplerate: 44100 Hz
Channels: 2
Bits per sample: 16
Bitrate: 704 kbps
Codec: FLAC

[CUETools log; Date: 01.04.2017 19:03:55; Version: 2.1.4]
[CTDB TOCID: pnnp1LvCiJcYSxFVsgER4TOw9f4-] found.
Track | CTDB Status
1 | ( 85/134) Accurately ripped
2 | ( 86/134) Accurately ripped
3 | ( 86/134) Accurately ripped
4 | ( 85/134) Accurately ripped
5 | ( 86/134) Accurately ripped
6 | ( 86/134) Accurately ripped
7 | ( 86/134) Accurately ripped
8 | ( 86/134) Accurately ripped
9 | ( 86/134) Accurately ripped
10 | (134/134) Accurately ripped
11 | ( 86/134) Accurately ripped
12 | ( 86/134) Accurately ripped
13 | ( 86/134) Accurately ripped
14 | ( 81/134) Accurately ripped
15 | ( 86/134) Accurately ripped
16 | ( 86/134) Accurately ripped
17 | ( 86/134) Accurately ripped
18 | ( 86/134) Accurately ripped
19 | ( 86/134) Accurately ripped
20 | ( 86/134) Accurately ripped
21 | ( 86/134) Accurately ripped
[AccurateRip ID: 0027b392-0265ef37-2d0bfb15] found.
Track [ CRC | V2 ] Status
01 [6b89412b|0577e7f4] (070+058/280) Accurately ripped
02 [0be3382f|a0c1ebf0] (069+058/281) Accurately ripped
03 [cf125fd4|27929882] (070+060/286) Accurately ripped
04 [938615d8|99ba9a88] (067+059/281) Accurately ripped
05 [24858668|d419267a] (069+060/286) Accurately ripped
06 [bca78c20|100c57ab] (068+059/283) Accurately ripped
07 [18239d17|146e592e] (067+058/281) Accurately ripped
08 [0b4f8edc|b74705c3] (067+058/281) Accurately ripped
09 [d53eff98|4929709e] (067+059/280) Accurately ripped
10 [69697acf|28dc231c] (069+059/284) Accurately ripped
11 [1247175e|fca85d74] (068+058/281) Accurately ripped
12 [4303eecc|0980e6b4] (067+058/280) Accurately ripped
13 [2f06ee52|cab44ac9] (068+058/280) Accurately ripped
14 [79b61ba2|2ab65a97] (068+058/268) Accurately ripped
15 [1be03159|a0ce8cb2] (064+058/277) Accurately ripped
16 [177e7ebf|5f0cca59] (065+058/275) Accurately ripped
17 [aa8b32ac|8a5293f4] (063+059/278) Accurately ripped
18 [0547c496|2909723b] (064+058/278) Accurately ripped
19 [70e9d26a|dc7b2fdc] (065+058/280) Accurately ripped
20 [8457cfa0|7ea3c0af] (065+058/278) Accurately ripped
21 [d0f3a47f|7b16e4b2] (065+059/278) Accurately ripped
Offsetted by -667:
01 [64b5a008] (033/280) Accurately ripped
02 [8ef7f3cc] (033/281) Accurately ripped
03 [795c79f7] (034/286) Accurately ripped
04 [4d6d2994] (034/281) Accurately ripped
05 [085840c2] (034/286) Accurately ripped
06 [1c9b6f5a] (034/283) Accurately ripped
07 [abafd8e8] (034/281) Accurately ripped
08 [9b56db4f] (034/281) Accurately ripped
09 [28fab47f] (034/280) Accurately ripped
10 [2d439c1e] (034/284) Accurately ripped
11 [a6eaa721] (034/281) Accurately ripped
12 [27a1d59f] (034/280) Accurately ripped
13 [9518494b] (034/280) Accurately ripped
14 [bf78a340] (022/268) Accurately ripped
15 [0b36fadc] (034/277) Accurately ripped
16 [a0c9fc73] (033/275) Accurately ripped
17 [754d86c2] (033/278) Accurately ripped
18 [e4df0e97] (033/278) Accurately ripped
19 [95a22dc8] (034/280) Accurately ripped
20 [e36a90e9] (034/278) Accurately ripped
21 [f4eaa3a8] (033/278) Accurately ripped
Offsetted by -664:
01 [e9c15053] (002/280) Accurately ripped
02 [164771c9] (002/281) Accurately ripped
03 [e29e9a54] (002/286) Accurately ripped
04 [a894ee19] (002/281) Accurately ripped
05 [1be271f6] (002/286) Accurately ripped
06 [9efa865c] (002/283) Accurately ripped
07 [48f5fd3c] (002/281) Accurately ripped
08 [55f52b4d] (002/281) Accurately ripped
09 [5d639025] (002/280) Accurately ripped
10 [f67ce604] (002/284) Accurately ripped
11 [9ca53cc8] (002/281) Accurately ripped
12 [a8422d58] (002/280) Accurately ripped
13 [37e93554] (002/280) Accurately ripped
14 [4559a820] (002/268) Accurately ripped
15 [5414d133] (002/277) Accurately ripped
16 [31ca2703] (002/275) Accurately ripped
17 [188c9dd2] (002/278) Accurately ripped
18 [1efbab61] (002/278) Accurately ripped
19 [ff25c6f3] (002/280) Accurately ripped
20 [d86ec2c1] (002/278) Accurately ripped
21 [cbaff507] (002/278) Accurately ripped
Offsetted by 6:
01 [895f1d5b] (000/280) No match
02 [4e37b45b] (000/281) No match
03 [03f99d4b] (000/286) No match
04 [1b2d306f] (000/281) No match
05 [d14f81ad] (000/286) No match
06 [7d00179d] (000/283) No match
07 [2bdf9644] (000/281) No match
08 [2545f68a] (000/281) No match
09 [13bfd963] (000/280) No match
10 [989730f3] (000/284) No match
11 [5a2f568a] (000/281) No match
12 [f628bd0a] (000/280) No match
13 [80ffa480] (000/280) No match
14 [1d5b7832] (000/268) No match
15 [c7cf4f90] (000/277) No match
16 [8f81eb8f] (000/275) No match
17 [70800e78] (002/278) Accurately ripped
18 [54d9a071] (002/278) Accurately ripped
19 [ab1d2fc0] (002/280) Accurately ripped
20 [44fcac74] (002/278) Accurately ripped
21 [7e7e473d] (000/278) No match
Offsetted by 613:
01 [0a8504e9] (000/280) No match (V2 was not tested)
02 [fdf15fb8] (000/281) No match (V2 was not tested)
03 [593e17f6] (000/286) No match (V2 was not tested)
04 [283af959] (000/281) No match (V2 was not tested)
05 [f57c98f9] (000/286) No match (V2 was not tested)
06 [80a26411] (000/283) No match (V2 was not tested)
07 [8cdc08b2] (000/281) No match (V2 was not tested)
08 [bd9d34bc] (000/281) No match (V2 was not tested)
09 [a1e62090] (000/280) No match (V2 was not tested)
10 [4dcc93b6] (044/284) Accurately ripped
11 [322f890f] (000/281) No match (V2 was not tested)
12 [ab7a4a3d] (000/280) No match (V2 was not tested)
13 [5bdb6882] (000/280) No match (V2 was not tested)
14 [1ac1e9ed] (000/268) No match (V2 was not tested)
15 [4d29c3ec] (000/277) No match (V2 was not tested)
16 [32591130] (000/275) No match (V2 was not tested)
17 [951490ec] (000/278) No match (V2 was not tested)
18 [32915866] (000/278) No match (V2 was not tested)
19 [b7c33d84] (000/280) No match (V2 was not tested)
20 [e46d9318] (000/278) No match (V2 was not tested)
21 [89f18580] (000/278) No match (V2 was not tested)

Track Peak [ CRC32 ] [W/O NULL] [ LOG ]
– 98,8 [867528F2] [7809F7CB] CRC32
01 83,2 [49701A57] [64BB6D92]
02 73,5 [917F7170] [58CA22B2]
03 98,8 [3197939F] [CF0215F7]
04 60,7 [5071DAC4] [EDDC8D4F]
05 98,8 [6030AE9E] [20749B7C]
06 45,6 [F8148E48] [E211E90D]
07 32,7 [A42C5765] [0ABBD264]
08 85,6 [999E55D3] [83A5AF35]
09 62,1 [76B7F46A] [BF7AF6D7]
10 97,2 [3391BF32] [968DA4E7]
11 31,8 [C9BF33F2] [6B2D9FEC]
12 71,2 [6C7B79DE] [41FD97D5]
13 62,5 [B9AB7A6C] [6C0C07B5]
14 96,9 [B17BFA3A] [00CDB372]
15 62,6 [906B4755] [29C1F64F]
16 97,0 [B5345A8E] [50A2C8B8]
17 34,6 [4621600D] [95049054]
18 76,2 [ADD10BEF] [E63A65A3]
19 70,6 [348AAB5E] [A29DD4D3]
20 98,8 [25B389EA] [24E8A4B0]
21 52,1 [0CFB3D34] [7EF94F1C]

Paul McCartney & Wings - Band On The Run (1973) [25th Anniversary Edition]

All thanks go to dafnaplus

Paul McCartney in my Blog

Download Paul McCartney & Wings - Band On The Run (1973):