Subcategories

Paul van Nevel, Huelgas Ensemble - Firminus Caron: Twilight of the Middle Ages (2016)

Posted By: ArlegZ
Paul van Nevel, Huelgas Ensemble - Firminus Caron: Twilight of the Middle Ages (2016)

Paul van Nevel, Huelgas Ensemble - Firminus Caron: Twilight of the Middle Ages (2016)
EAC | FLAC | Image (Cue & Log) ~ 247 Mb | Total time: 54:39 | Digital booklet
Classical | Label: Deutsche Harmonia Mundi | # 88875143472 | Recorded: 2014

"There are two things on which listeners can invariably rely with Paul Van Nevel: whatever he unearths, it is without exception wonderful music; and what he offers with his Huelgas Ensemble is always on the very highest level” (BR Klassik). For more than forty years the Huelgas Ensemble has been one of the world’s finest vocal ensembles.
Paul Van Nevel’s original and well researched programmes revolve in particular around the fascinating polyphonic tradition of the Middle Ages and the Renaissance.
The life of the Franco-Flemish polyphonist Firminus Caron is shrouded in mystery, and we know little about him except that he was probably born in Amiens in around 1440. And yet his works were already famous during his own lifetime and have survived in some of the most important music manuscripts of the second half of the 15th century, including a number of the Vatican’s principal choirbooks. The Huelgas Ensemble compares and contrasts five movements from the composer’s four-part cantus firmus Masses with four secular chansons and in that way provides an impressive demonstration of his exceptional individuality, to say nothing of the imagination and variety that make Caron one of the most exciting composers of the late Middle Ages.

Performer:
Huelgas Ensemble
Paul van Nevel, conductor

Track List:
01. L'homme armè: Kyrie
02. Jesus autem transiens: Gloria
03. Sanguis Sanctorum: Credo
04. Clemens et venigna: Sanctus
05. Accueilly m'a la belle: Agnus Dei
06. Accueilly m'a la belle (Chanson)
07. Le despourveu infortuné
08. Corps contre corps
09. Hélas que pourra devenir mon cueur


Exact Audio Copy V1.2 from 12. August 2016

EAC extraction logfile from 10. December 2018, 1:43

Paul Van Nevel, Huelgas Ensemble / Twilight of the Middle Ages

Used drive : MATSHITADVD-RAM UJ8G6 Adapter: 1 ID: 0

Read mode : Secure
Utilize accurate stream : Yes
Defeat audio cache : Yes
Make use of C2 pointers : No

Read offset correction : 103
Overread into Lead-In and Lead-Out : No
Fill up missing offset samples with silence : Yes
Delete leading and trailing silent blocks : No
Null samples used in CRC calculations : Yes
Used interface : Native Win32 interface for Win NT & 2000

Used output format : User Defined Encoder
Selected bitrate : 768 kBit/s
Quality : High
Add ID3 tag : No
Command line compressor : C:\Program Files (x86)\Exact Audio Copy\Flac\flac.exe
Additional command line options : -6 -V -T "ARTIST=%artist%" -T "TITLE=%title%" -T "ALBUM=%albumtitle%" -T "DATE=%year%" -T "TRACKNUMBER=%tracknr%" -T "GENRE=%genre%" -T "COMMENT=%comment%" -T "BAND=%albuminterpret%" -T "ALBUMARTIST=%albuminterpret%" -T "COMPOSER=%composer%" %haslyrics%–tag-from-file=LYRICS="%lyricsfile%"%haslyrics% -T "DISCNUMBER=%cdnumber%" -T "TOTALDISCS=%totalcds%" -T "TOTALTRACKS=%numtracks%" %hascover%–picture="%coverfile%"%hascover% %source% -o %dest%


TOC of the extracted CD

Track | Start | Length | Start sector | End sector
––––––––––––––––––––––––––––-
1 | 0:00.00 | 2:50.51 | 0 | 12800
2 | 2:50.51 | 6:12.31 | 12801 | 40731
3 | 9:03.07 | 8:14.72 | 40732 | 77853
4 | 17:18.04 | 4:14.46 | 77854 | 96949
5 | 21:32.50 | 7:41.68 | 96950 | 131592
6 | 29:14.43 | 6:26.24 | 131593 | 160566
7 | 35:40.67 | 6:43.23 | 160567 | 190814
8 | 42:24.15 | 3:00.60 | 190815 | 204374
9 | 45:25.00 | 9:14.01 | 204375 | 245925


Range status and errors

Selected range

Filename C:\Users\Roy\Music\FIRMINUS CARON - Twilight of the Middle Ages (2015) [Paul Van Nevel; Deutsche Harmonia Mundi]\CD (FLAC + CUE)\Firminus Caron - Twilight of the Middle Ages.wav

Peak level 94.7 %
Extraction speed 4.1 X
Range quality 100.0 %
Test CRC 34DB7F7C
Copy CRC 34DB7F7C
Copy OK

No errors occurred


AccurateRip summary

Track 1 accurately ripped (confidence 11) [A5A5CB35] (AR v2)
Track 2 accurately ripped (confidence 11) [5E30C40B] (AR v2)
Track 3 accurately ripped (confidence 11) [8DF045B6] (AR v2)
Track 4 accurately ripped (confidence 11) [AD0AC66B] (AR v2)
Track 5 accurately ripped (confidence 11) [289F7542] (AR v2)
Track 6 accurately ripped (confidence 11) [5BDBF27B] (AR v2)
Track 7 accurately ripped (confidence 11) [8BEEF9C2] (AR v2)
Track 8 accurately ripped (confidence 11) [7A374F9E] (AR v2)
Track 9 accurately ripped (confidence 11) [D305AB5C] (AR v2)

All tracks accurately ripped

End of status report

–– CUETools DB Plugin V2.1.6

[CTDB TOCID: AKJigu5sd3JORLmwadOYaHndvBQ-] found
Submit result: AKJigu5sd3JORLmwadOYaHndvBQ- has been confirmed
Track | CTDB Status
1 | (22/22) Accurately ripped
2 | (22/22) Accurately ripped
3 | (22/22) Accurately ripped
4 | (22/22) Accurately ripped
5 | (22/22) Accurately ripped
6 | (22/22) Accurately ripped
7 | (22/22) Accurately ripped
8 | (22/22) Accurately ripped
9 | (22/22) Accurately ripped


==== Log checksum 70792FFEDB080FA03CB1AE3891E6F60EC327E7597CD33E2F6DD30C787313F20D ====

Paul van Nevel, Huelgas Ensemble - Firminus Caron: Twilight of the Middle Ages (2016)

Thanks to the original releaser