Peabo Bryson - I'm So Into You: The Passion Of Peabo Bryson (1997)

Posted By: BlondStyle
Peabo Bryson - I'm So Into You: The Passion Of Peabo Bryson (1997)

Peabo Bryson - I'm So Into You: The Passion Of Peabo Bryson (1997)
R&B, Soul, Quiet Storm | EAC Rip | FLAC, Img+CUE+LOG+Full Scans-600dpi (PNG) | 71:11 | 636,45 Mb
Label: EMI Records (USA) | Released: 1997-07-01
Peabo Bryson - I'm So Into You: The Passion Of Peabo Bryson (1997)

"I'm So Into You: The Passion of Peabo Bryson" is a terrific overview of the smooth soul singer's late-'70s and early-'80s hits, featuring the majority of his Top Ten R&B hits for Capitol Records ("Reaching for the Sky," "I'm So Into You," "Let the Feeling Flow," "Gimme Some Time"), plus his hit duets with Roberta Flack ("Tonight I Celebrate My Love for You") and Natalie Cole ("Love Will Find You," "Let's Fall in Love/You Send Me"). ~Review by Stephen Thomas Erlewine~
Peabo Bryson - I'm So Into You: The Passion Of Peabo Bryson (1997)

Peabo Bryson - I'm So Into You: The Passion Of Peabo Bryson (1997)


Release of this CD-Set: 1997, July, 1 [CDs EMI Records, Cat.# CDP 557182 / UPC: 02083121252622]
This compilation ℗ © 1997 EMI Records
Printed in the USA.
Manufactured by Columbia House under license


Tracklist:

01. "Feel The Fire" - 05:03
(Peabo Bryson)
02. "I'm So Into You" - 05:48
(Peabo Bryson)
03. "Reaching For The Sky" - 04:53
(Peabo Bryson)
04. "Love Walked Out On Me" - 05:31
(Peabo Bryson)
05. "Crosswinds" - 06:23
(Peabo Bryson)
06. "Don't Touch Me" - 05:02
(Peabo Bryson)
07. "Love Will Find You" (Duet with Natalie Cole) - 06:06
(Peabo Bryson)
08. "Let's Fall In Love / You Send Me" (Duet with Natalie Cole) - 04:08
(Harold Arlen / Sam Cooke / Ted Koehler)
09. "I Love The Way You Love" - 05:07
(Peabo Bryson)
10. "Let The Feeling Flow" - 04:11
(Peabo Bryson)
11. "Give Me Your Love" - 04:23
(Peabo Bryson)
12. "I Believe In You" - 06:26
(Peabo Bryson)
13. "Turn The Hands Of Time" - 03:48
(Peabo Bryson)
14. "Born To Love" (Duet with Roberta Flack) - 04:23
(Peabo Bryson)

Exact Audio Copy V0.99 prebeta 4 from 23. January 2008

EAC extraction logfile from 19. May 2011, 21:26

Peabo Bryson / I'm So Into You - The Passion Of Peabo Bryson

Used drive : ATAPI DVD DW 8X16X8X16 Adapter: 0 ID: 2

Read mode : Secure
Utilize accurate stream : Yes
Defeat audio cache : Yes
Make use of C2 pointers : No

Read offset correction : 618
Overread into Lead-In and Lead-Out : No
Fill up missing offset samples with silence : Yes
Delete leading and trailing silent blocks : No
Null samples used in CRC calculations : Yes
Used interface : Installed external ASPI interface

Used output format : Internal WAV Routines
Sample format : 44.100 Hz; 16 Bit; Stereo


TOC of the extracted CD

Track | Start | Length | Start sector | End sector
––––––––––––––––––––––––––––-
1 | 0:00.00 | 5:02.50 | 0 | 22699
2 | 5:02.50 | 5:47.65 | 22700 | 48789
3 | 10:50.40 | 4:52.70 | 48790 | 70759
4 | 15:43.35 | 5:31.07 | 70760 | 95591
5 | 21:14.42 | 6:22.53 | 95592 | 124294
6 | 27:37.20 | 5:01.70 | 124295 | 146939
7 | 32:39.15 | 6:05.62 | 146940 | 174376
8 | 38:45.02 | 4:08.03 | 174377 | 192979
9 | 42:53.05 | 5:06.60 | 192980 | 215989
10 | 47:59.65 | 4:11.15 | 215990 | 234829
11 | 52:11.05 | 4:23.02 | 234830 | 254556
12 | 56:34.07 | 6:26.05 | 254557 | 283511
13 | 63:00.12 | 3:48.25 | 283512 | 300636
14 | 66:48.37 | 4:23.15 | 300637 | 320376


Range status and errors

Selected range

Filename C:\BlondStyle\I'm So Into You - The Passion Of Peabo Bryson.wav

Peak level 98.8 %
Range quality 99.9 %
Test CRC D3E72721
Copy CRC D3E72721
Copy OK

No errors occurred


AccurateRip summary

Track 1 accurately ripped (confidence 1) [975DA0F0]
Track 2 accurately ripped (confidence 1) [25E8717D]
Track 3 accurately ripped (confidence 1) [6299A0EF]
Track 4 accurately ripped (confidence 1) [C5207809]
Track 5 accurately ripped (confidence 1) [BA62FA64]
Track 6 accurately ripped (confidence 1) [398DC7FC]
Track 7 accurately ripped (confidence 1) [3B35C3AF]
Track 8 accurately ripped (confidence 1) [8825D682]
Track 9 accurately ripped (confidence 1) [B5316A9F]
Track 10 accurately ripped (confidence 1) [32D613BF]
Track 11 accurately ripped (confidence 1) [33DBADFF]
Track 12 accurately ripped (confidence 1) [3E4ED4E0]
Track 13 accurately ripped (confidence 1) [AB4F604F]
Track 14 accurately ripped (confidence 1) [FB17E1BE]

All tracks accurately ripped

End of status report

[Disc ID: 0025f041-01922ca4-ca10af0e]
Track [ CRC ] Status
01 [975da0f0] (01/01) Accurately ripped as in pressing(s) #1
02 [25e8717d] (01/01) Accurately ripped as in pressing(s) #1
03 [6299a0ef] (01/01) Accurately ripped as in pressing(s) #1
04 [c5207809] (01/01) Accurately ripped as in pressing(s) #1
05 [ba62fa64] (01/01) Accurately ripped as in pressing(s) #1
06 [398dc7fc] (01/01) Accurately ripped as in pressing(s) #1
07 [3b35c3af] (01/01) Accurately ripped as in pressing(s) #1
08 [8825d682] (01/01) Accurately ripped as in pressing(s) #1
09 [b5316a9f] (01/01) Accurately ripped as in pressing(s) #1
10 [32d613bf] (01/01) Accurately ripped as in pressing(s) #1
11 [33dbadff] (01/01) Accurately ripped as in pressing(s) #1
12 [3e4ed4e0] (01/01) Accurately ripped as in pressing(s) #1
13 [ab4f604f] (01/01) Accurately ripped as in pressing(s) #1
14 [fb17e1be] (01/01) Accurately ripped as in pressing(s) #1

foobar2000 1.3.12 beta 4 / Dynamic Range Meter 1.1.1
log date: 2016-10-01 20:57:06

––––––––––––––––––––––––––––––––––––––––
Analyzed: Peabo Bryson / I'm So Into You - The Passion Of Peabo Bryson
––––––––––––––––––––––––––––––––––––––––

DR Peak RMS Duration Track
––––––––––––––––––––––––––––––––––––––––
DR9 -0.50 dB -12.06 dB 5:03 01-Feel The Fire
DR7 -0.10 dB -10.21 dB 5:48 02-I'm So Into You
DR9 -0.60 dB -11.98 dB 4:53 03-Reaching For The Sky
DR8 -0.57 dB -11.82 dB 5:31 04-Love Walked Out On Me
DR6 -0.34 dB -9.55 dB 6:23 05-Crosswinds
DR9 -0.13 dB -11.75 dB 5:02 06-Don't Touch Me
DR7 -0.10 dB -9.42 dB 6:06 07-Love Will Find You (Duet With Natalie Cole)
DR7 -0.12 dB -10.54 dB 4:08 08-Let's Fall In Love / You Send Me (Duet With Natalie Cole)
DR7 -0.53 dB -10.14 dB 5:07 09-I Love The Way You Love
DR8 -0.73 dB -11.43 dB 4:11 10-Let The Feeling Flow
DR7 -0.10 dB -9.18 dB 4:23 11-Give Me Your Love
DR7 -0.28 dB -10.83 dB 6:26 12-I Believe In You
DR10 -0.63 dB -12.62 dB 3:48 13-Turn The Hands Of Time
DR8 -0.17 dB -11.00 dB 4:23 14-Born To Love (Duet With Roberta Flack)
––––––––––––––––––––––––––––––––––––––––

Number of tracks: 14
Official DR value: DR8

Samplerate: 44100 Hz
Channels: 2
Bits per sample: 16
Bitrate: 939 kbps
Codec: FLAC
================================================================================

See also:
Peabo Bryson - Take No Prisoners (1985)
Peabo Bryson - Quiet Storm (1986) [2007, Remastered Reissue]
Nitroflare
password: BlondStyle