Subcategories

Pearl Jam - Backspacer (2009)

Posted By: Designol
Pearl Jam - Backspacer (2009)

Pearl Jam - Backspacer (2009)
EAC | FLAC | Tracks (Cue&Log) ~ 251 Mb | Mp3 (CBR320) ~ 84 Mb | Data ~ 159 Mb | Scans ~ 47 Mb
Alternative Rock, Hard Rock | Monkeywrench | # 2716317 | Time: 00:36:38

Pearl Jam made peace with their hard rock past on their eponymous eighth album, but its 2009 sequel, Backspacer, is where the group really gets back to basics, bringing in old cohort Brendan O'Brien to produce for the first time since 1998's Yield. To a certain extent, the band has reached the point in its career where every move, every cranked amp, every short tough song is heralded as a return to form – call it the Stones syndrome – and so it is with Backspacer, whose meaty riffs have no less vigor than those of Pearl Jam; they're just channeled into a brighter, cheerier package. Despite this lighter spirit, Pearl Jam remain the antithesis of lighthearted good-time rock & roll – they're convinced rock & roll is a calling, not a diversion – but there's a tonal shift from the clenched anger that's marked their music of the new millennium, a transition from the global toward the personal. Ironically, by looking within the music opens up, as the group isn't fighting against the dying light but embracing how this most classicist of alt-rock bands is an anachronism in 2009. Of course, Pearl Jam were an anachronism even back in 1992, worshiping the Who instead of the Stooges, but this odd out-of-phase devotion to the ideals of post-hippie, pre-punk rock is better suited to bandmembers in their forties than in their twenties; fashion has passed them by several times over, leaving Pearl Jam just to be who they are, comfortable in their weathering skin. Pearl Jam battled their success for so long, intent on whittling their audience down to the devout, that it often felt like a chore to keep pace with the band because no matter the merit of the records, they always felt like heavy lifting, but that's no longer the case: here, as on the self-titled 2006 album, it sounds as if they enjoy being in a band, intoxicated by the noise they make. This means, all things considered, Backspacer is a party record for Pearl Jam – a party that might consist of nothing but philosophical debates till the wee hours, but a party nonetheless – and if 18 years is a long, long wait for a band to finally throw a party, it's also true that, prior to Backspacer, Pearl Jam wouldn't or couldn't have made music this unfettered, unapologetically assured, casual, and, yes, fun.

Review by Stephen Thomas Erlewine, Allmusic.com

Pearl Jam - Backspacer (2009)



Tracklist:

01. Gonna See My Friend (2:48)
02. Got Some (3:03)
03. The Fixer (2:58)
04. Johnny Guitar (2:51)
05. Just Breathe (3:36)
06. Amongst The Waves (3:59)
07. Unthought Known (4:09)
08. Supersonic (2:40)
09. Speed Of Sound (3:34)
10. Force Of Nature (4:05)
11. The End (2:57)


Exact Audio Copy V0.99 prebeta 5 from 4. May 2009

EAC extraction logfile from 28. December 2009, 6:59

Pearl Jam / Backspacer

Used drive : TSSTcorpCDDVDW SH-S222A Adapter: 0 ID: 0

Read mode : Secure
Utilize accurate stream : Yes
Defeat audio cache : Yes
Make use of C2 pointers : No

Read offset correction : 6
Overread into Lead-In and Lead-Out : No
Fill up missing offset samples with silence : Yes
Delete leading and trailing silent blocks : No
Null samples used in CRC calculations : Yes
Used interface : Native Win32 interface for Win NT & 2000
Gap handling : Appended to previous track

Used output format : User Defined Encoder
Selected bitrate : 1024 kBit/s
Quality : High
Add ID3 tag : No
Command line compressor : C:\Program Files (x86)\Exact Audio Copy\FLAC\FLAC.EXE
Additional command line options : -8 -V -T "ARTIST=%a" -T "TITLE=%t" -T "ALBUM=%g" -T "DATE=%y" -T "TRACKNUMBER=%n" -T "GENRE=%m" -T "COMMENT=EAC FLAC -8" %s


TOC of the extracted CD

Track | Start | Length | Start sector | End sector
––––––––––––––––––––––––––––-
1 | 0:00.00 | 2:48.22 | 0 | 12621
2 | 2:48.22 | 3:02.40 | 12622 | 26311
3 | 5:50.62 | 2:57.42 | 26312 | 39628
4 | 8:48.29 | 2:50.43 | 39629 | 52421
5 | 11:38.72 | 3:35.64 | 52422 | 68610
6 | 15:14.61 | 3:58.66 | 68611 | 86526
7 | 19:13.52 | 4:08.50 | 86527 | 105176
8 | 23:22.27 | 2:40.02 | 105177 | 117178
9 | 26:02.29 | 3:34.03 | 117179 | 133231
10 | 29:36.32 | 4:04.42 | 133232 | 151573
11 | 33:40.74 | 2:57.30 | 151574 | 164878
12 | 39:10.29 | 21:13.52 | 176279 | 271805


Track 1

Filename D:\Audio\Music\Pearl Jam\2009-Backspacer\01 - Gonna See My Friend.wav

Pre-gap length 0:00:02.00

Peak level 99.2 %
Track quality 100.0 %
Test CRC 5C70F8CB
Copy CRC 5C70F8CB
Accurately ripped (confidence 65) [3CFB9A82]
Copy OK

Track 2

Filename D:\Audio\Music\Pearl Jam\2009-Backspacer\02 - Got Some.wav

Peak level 98.7 %
Track quality 100.0 %
Test CRC 690827AA
Copy CRC 690827AA
Accurately ripped (confidence 67) [E3C7FDF1]
Copy OK

Track 3

Filename D:\Audio\Music\Pearl Jam\2009-Backspacer\03 - The Fixer.wav

Peak level 98.7 %
Track quality 100.0 %
Test CRC 121FDE64
Copy CRC 121FDE64
Accurately ripped (confidence 67) [EC588592]
Copy OK

Track 4

Filename D:\Audio\Music\Pearl Jam\2009-Backspacer\04 - Johnny Guitar.wav

Peak level 91.6 %
Track quality 100.0 %
Test CRC 27A91848
Copy CRC 27A91848
Accurately ripped (confidence 67) [F3E78A66]
Copy OK

Track 5

Filename D:\Audio\Music\Pearl Jam\2009-Backspacer\05 - Just Breathe.wav

Pre-gap length 0:00:00.84

Peak level 99.9 %
Track quality 99.9 %
Test CRC 91502B26
Copy CRC 91502B26
Accurately ripped (confidence 67) [93D0562D]
Copy OK

Track 6

Filename D:\Audio\Music\Pearl Jam\2009-Backspacer\06 - Amongst The Waves.wav

Pre-gap length 0:00:01.33

Peak level 98.7 %
Track quality 100.0 %
Test CRC B202E472
Copy CRC B202E472
Accurately ripped (confidence 67) [CBCD4A3C]
Copy OK

Track 7

Filename D:\Audio\Music\Pearl Jam\2009-Backspacer\07 - Unthought Known.wav

Peak level 99.3 %
Track quality 100.0 %
Test CRC 172319D2
Copy CRC 172319D2
Accurately ripped (confidence 67) [AAB30A91]
Copy OK

Track 8

Filename D:\Audio\Music\Pearl Jam\2009-Backspacer\08 - Supersonic.wav

Peak level 99.3 %
Track quality 100.0 %
Test CRC 0B3E12A8
Copy CRC 0B3E12A8
Accurately ripped (confidence 67) [36D8FFE5]
Copy OK

Track 9

Filename D:\Audio\Music\Pearl Jam\2009-Backspacer\09 - Speed Of Sound.wav

Pre-gap length 0:00:01.37

Peak level 97.0 %
Track quality 100.0 %
Test CRC 3705E4C1
Copy CRC 3705E4C1
Accurately ripped (confidence 67) [ED6093B9]
Copy OK

Track 10

Filename D:\Audio\Music\Pearl Jam\2009-Backspacer\10 - Force Of Nature.wav

Peak level 96.3 %
Track quality 100.0 %
Test CRC BAFA6414
Copy CRC BAFA6414
Accurately ripped (confidence 67) [D42DE247]
Copy OK

Track 11

Filename D:\Audio\Music\Pearl Jam\2009-Backspacer\11 - The End.wav

Pre-gap length 0:00:01.00

Peak level 99.9 %
Track quality 100.0 %
Test CRC 797CF586
Copy CRC 797CF586
Accurately ripped (confidence 66) [0FAFB193]
Copy OK


All tracks accurately ripped

No errors occurred

End of status report

[CUETools log; Date: 14.06.2017 2:09:35; Version: 2.1.4]
CD-Extra data track length 21:13:52.
[CTDB TOCID: RfzZe6cHZCCdAO8zCF_3ThWQzRg-] found.
Track | CTDB Status
1 | (877/887) Accurately ripped
2 | (881/887) Accurately ripped
3 | (880/887) Accurately ripped
4 | (880/887) Accurately ripped
5 | (880/887) Accurately ripped
6 | (880/887) Accurately ripped
7 | (879/887) Accurately ripped
8 | (879/887) Accurately ripped
9 | (879/887) Accurately ripped
10 | (875/887) Accurately ripped
11 | (877/887) Accurately ripped
[AccurateRip ID: 00104083-009400a7-810e280c] found.
Track [ CRC | V2 ] Status
01 [3cfb9a82|1466be2a] (200+200/404) Accurately ripped
02 [e3c7fdf1|6c3045b3] (200+200/406) Accurately ripped
03 [ec588592|6e47af2e] (200+200/406) Accurately ripped
04 [f3e78a66|b8e60aa8] (200+200/406) Accurately ripped
05 [93d0562d|8443c237] (200+200/406) Accurately ripped
06 [cbcd4a3c|538ea6d7] (200+200/406) Accurately ripped
07 [aab30a91|f2f75597] (200+200/406) Accurately ripped
08 [36d8ffe5|4e4d4080] (200+200/406) Accurately ripped
09 [ed6093b9|c852aac0] (200+200/406) Accurately ripped
10 [d42de247|6537d626] (200+200/404) Accurately ripped
11 [0fafb193|c1ecca97] (200+200/406) Accurately ripped
Offsetted by -676:
01 [8895f6a8] (002/404) Accurately ripped
02 [7e25f519] (002/406) Accurately ripped
03 [2e5a5d9c] (002/406) Accurately ripped
04 [1cdae4ca] (002/406) Accurately ripped
05 [b68693cc] (002/406) Accurately ripped
06 [d852b7f6] (002/406) Accurately ripped
07 [afedaa08] (002/406) Accurately ripped
08 [b4207811] (002/406) Accurately ripped
09 [cf9b152f] (002/406) Accurately ripped
10 [600605c6] (000/404) No match
11 [7a1058f4] (002/406) Accurately ripped
Offsetted by -667:
01 [6fe9cdc7] (000/404) No match (V2 was not tested)
02 [14b3ad5b] (000/406) No match (V2 was not tested)
03 [361b4f2e] (000/406) No match (V2 was not tested)
04 [90bc7507] (000/406) No match (V2 was not tested)
05 [8bbcf347] (000/406) No match (V2 was not tested)
06 [3061730c] (000/406) No match (V2 was not tested)
07 [d71d55ef] (000/406) No match (V2 was not tested)
08 [4cfa299b] (000/406) No match (V2 was not tested)
09 [a5c1a7d5] (000/406) No match (V2 was not tested)
10 [0a983580] (000/404) No match (V2 was not tested)
11 [1dce1970] (000/406) No match (V2 was not tested)
Offsetted by -66:
01 [e648cb5c] (000/404) No match (V2 was not tested)
02 [78094f14] (000/406) No match (V2 was not tested)
03 [644ecd0b] (000/406) No match (V2 was not tested)
04 [884c1b67] (000/406) No match (V2 was not tested)
05 [ba274286] (000/406) No match (V2 was not tested)
06 [d1363955] (000/406) No match (V2 was not tested)
07 [2d0e2ff1] (000/406) No match (V2 was not tested)
08 [2bb3bb3e] (000/406) No match (V2 was not tested)
09 [aa447c6c] (000/406) No match (V2 was not tested)
10 [dde1b2a8] (000/404) No match (V2 was not tested)
11 [c80f9978] (000/406) No match (V2 was not tested)

Track Peak [ CRC32 ] [W/O NULL] [ LOG ]
– 99,9 [18ACD2B2] [3E2DB25E]
01 99,2 [5C70F8CB] [14DB252C] CRC32
02 98,7 [690827AA] [35A38C52] CRC32
03 98,7 [121FDE64] [A38DAA48] CRC32
04 91,6 [27A91848] [4A154C0B] CRC32
05 99,9 [91502B26] [D81E73BC] CRC32
06 98,7 [B202E472] [07829D7C] CRC32
07 99,3 [172319D2] [1352DD11] CRC32
08 99,3 [0B3E12A8] [998C87AF] CRC32
09 97,0 [3705E4C1] [56575399] CRC32
10 96,3 [BAFA6414] [105B9153] CRC32
11 99,9 [797CF586] [0F3BF691] CRC32

foobar2000 1.2 / Dynamic Range Meter 1.1.1
log date: 2017-06-14 02:05:33

––––––––––––––––––––––––––––––––––––––––
Analyzed: Pearl Jam / Backspacer
––––––––––––––––––––––––––––––––––––––––

DR Peak RMS Duration Track
––––––––––––––––––––––––––––––––––––––––
DR7 -0.06 dB -7.81 dB 2:48 01-Gonna See My Friend
DR7 -0.11 dB -8.18 dB 3:03 02-Got Some
DR7 -0.11 dB -8.65 dB 2:58 03-The Fixer
DR6 -0.76 dB -8.33 dB 2:51 04-Johnny Guitar
DR10 0.00 dB -12.23 dB 3:36 05-Just Breathe
DR7 -0.11 dB -8.68 dB 3:59 06-Amongst The Waves
DR7 -0.06 dB -9.57 dB 4:09 07-Unthought Known
DR7 -0.06 dB -8.12 dB 2:40 08-Supersonic
DR6 -0.26 dB -8.26 dB 3:34 09-Speed Of Sound
DR6 -0.32 dB -7.52 dB 4:05 10-Force Of Nature
DR11 0.00 dB -12.90 dB 2:57 11-The End
––––––––––––––––––––––––––––––––––––––––

Number of tracks: 11
Official DR value: DR7

Samplerate: 44100 Hz
Channels: 2
Bits per sample: 16
Bitrate: 755 kbps
Codec: FLAC
================================================================================

Pearl Jam - Backspacer (2009)

Pearl Jam - Backspacer (2009)