Subcategories

Pete Bardens - Big Sky (1994)

Posted By: Andi_Deris
Pete Bardens - Big Sky (1994)

Pete Bardens - Big Sky (1994)
EAC Rip | FLAC: Image+Cue+Log | 296 Mb | MP3 CBR 320 kbps | 105 Mb | Scans | Time: 42:36
Sin-Drome Records, Ltd. | SD 8902
New Age, Progressive Electronic

Keyboardist Pete Bardens continued his string of largely instrumental new age and atmospheric rock albums with 1994's Big Sky. The Camel alumnus' previous album, 1993's Further Than You Know, was a little heavier on the vocals, so this is a bit more like his superb Seen One Earth from 1987 and Speed of Light from 1988. Unfortunately, the songs aren't quite as strong here. Longtime vocalist Neil Lockwood, guitarist Neale Heywood, and drummer Jethro DeFries are still along for the Big Sky flight, and Fleetwood Mac drummer and longtime Bardens friend Mick Fleetwood makes another guest appearance. The lilting, lazy (in a good way) "China Blue" is relaxing. Bardens' more eclectic influences are evident on "Puerto Rico" due to its percussion- and horn-like keyboard riffs. "Big Sky" is one of Bardens' trademark hypnotic, flowing pieces. The lively instrumental "Gunblasters" is the best song here; the artist's repetitively catchy keyboard lick and Heywood's rhythm guitar chords and slicing solo are the highlights. "A Brave New World" starts out slow, smooth, and watery before exploding and receding back to a gentle ending. Bardens' former Camel bandmate Andy Latimer contributes backing vocals to "On a Roll," a percussion-heavy bit of light Caribbean funk. Bardens' short solo piano piece "Scarletti" wraps up Big Sky. ~ Review by Bret Adams

Pete Bardens - Big Sky (1994)




Track Listing

01. China Blue (04:56)
02. Puerto Rico (05:40)
03. Big Sky (05:00)
04. Gunblasters (03:41)
05. On the Air Tonight (04:33)
06. You Got It (03:40)
07. A Brave New World (04:55)
08. On a Roll (04:21)
09. The Last Waltz (02:12)
10. For Old Times Sake (01:53)
11. Scarletti (01:45)

Produced by Pete Bardens

Personnel

• Pete Bardens - keyboards, vocals
• Neale Heywood - guitars, mixing
• James Manley - guitar
• Steve Adams - guitar (3, 6)
• Mike Nile - bass
Mick Fleetwood - drums (1, 6)
• Andy Latimer - backing vocals (8)
• Neil Lockwood - backing vocals
• Jethro Defries - backing vocals
• Mychal Lomas - backing vocals
• Mendy Lee - backing vocals
• Suzanne Paris - backing vocals
• James Whitney - backing vocals

Exact Audio Copy V0.99 prebeta 4 from 23. January 2008

Отчёт EAC об извлечении, выполненном 29. мая 2008, 11:00

Pete Bardens / Big Sky

Дисковод: HL-DT-STDVDRAM GSA-E10L Adapter: 4 ID: 1

Режим чтения : Достоверность
Использование точного потока : Да
Отключение кэша аудио : Да
Использование указателей C2 : Нет

Коррекция смещения при чтении : 667
Способность читать области Lead-in и Lead-out : Нет
Заполнение пропущенных сэмплов тишиной : Да
Удаление блоков с тишиной в начале и конце : Нет
При вычислениях CRC использовались нулевые сэмплы : Да
Интерфейс : Установленный внешний ASPI-интерфейс

Выходной формат : Внутренние WAV-операции
Формат сэмплов : 44.100 Гц; 16 бит; стерео


TOC извлечённого CD

Трек | Старт | Длительность | Начальный сектор | Конечный сектор
––––––––––––––––––––––––––––––––––-
1 | 0:00.12 | 4:56.05 | 12 | 22216
2 | 4:56.17 | 5:40.15 | 22217 | 47731
3 | 10:36.32 | 4:59.53 | 47732 | 70209
4 | 15:36.10 | 3:40.60 | 70210 | 86769
5 | 19:16.70 | 4:33.27 | 86770 | 107271
6 | 23:50.22 | 3:39.35 | 107272 | 123731
7 | 27:29.57 | 4:54.38 | 123732 | 145819
8 | 32:24.20 | 4:21.10 | 145820 | 165404
9 | 36:45.30 | 2:11.52 | 165405 | 175281
10 | 38:57.07 | 1:52.70 | 175282 | 183751
11 | 40:50.02 | 1:45.25 | 183752 | 191651


Характеристики диапазона извлечения и сообщения об ошибках

Выбранный диапазон

Имя файла D:\IMAGE\NEW\REC2\Pete Bardens - Big Sky.wav

Пиковый уровень 96.2 %
Качество диапазона 100.0 %
CRC теста F4913DC7
CRC копии F4913DC7
Копирование… OK

Ошибок не произошло


AccurateRip: сводка

Трек 1 нет в базе данных
Трек 2 нет в базе данных
Трек 3 нет в базе данных
Трек 4 нет в базе данных
Трек 5 нет в базе данных
Трек 6 нет в базе данных
Трек 7 нет в базе данных
Трек 8 нет в базе данных
Трек 9 нет в базе данных
Трек 10 нет в базе данных
Трек 11 нет в базе данных

Ни одного трека нет в базе AccurateRip

Конец отчёта


Many thanks to the original uploader: german_Z





Password: pass