Subcategories

Pete Namlook & Mixmaster Morris - Dreamfish 1-2 (1993-1995) (Repost)

Posted By: gribovar
Pete Namlook & Mixmaster Morris - Dreamfish 1-2 (1993-1995) (Repost)

Pete Namlook & Mixmaster Morris - Dreamfish 1-2 (1993-1995)
EAC Rip | FLAC (image+.cue+log) - 613 MB | MP3 CBR 320 kbps (LAME 3.93) - 309 MB | Covers - 54 MB
Genre: Electronic, Ambient | RAR 3% Rec. | Label: Fax +49-69/450464

Dreamfish (1993). Galactic tides of white noise usher in an expansive trip from Pete Namlook with the UK's silver-suited Ambient space cadet, Mixmaster Morris, whose eclectic DJing graced many a comedown party at the time. If Dreamfish now feels anchored in its era, it's still one of the best surviving examples of a moment when new Ambient lived a utopian dream of a technologically enlightened borderless society, sharing immersive virtual experiences around the world wide web's global campfire. There's a minty freshness and optimism about “School of Fish," while the shorter (nine minute) “Fishology” features the synthetically treated voice of Terrence McKenna, Hawaii-based futurologist and author of Food of the Gods, whose shamanistic theories of techno-paganism and extraterrestrial ancestry fit right in with the stew of ideas and New Age psychedelics which fertilized much of the early '90s Ambient scene.

Dreamfish 2 (1995). Two years after the first Dreamfish album Pete Namlook and Mixmaster Morris return for a second aquatic ambient adventure. In its own way this cold, barren seascape is no less attractive than the schools of fish near the surface and is all the more dramatic for charting vast oceans of the unknown. Whilst this perhaps isn't as euphoric as the first Dreamfish record, Dreamfish 2 is another (slightly darker) classic that should not be overlooked.

Pete Namlook & Mixmaster Morris - Dreamfish 1-2 (1993-1995) (Repost)

Pete Namlook & Mixmaster Morris - Dreamfish (1993)
EAC Rip | FLAC (image+.cue+log) - 350 MB | MP3 CBR 320 kbps (LAME 3.93) - 166 MB | Covers - 25 MB
Genre: Electronic, Ambient | RAR 3% Rec. | Label: Fax +49-69/450464 (PW 02)

Tracklist:
01. School Of Fish
02. Hymn
03. Fishology
04. Under Water

Total time: 01:10:50

Exact Audio Copy V0.99 prebeta 5 from 4. May 2009

EAC extraction logfile from 6. February 2010, 23:36

Pete Namlook & Mixmaster Morris / Dreamfish

Used drive : ASUS CRW-4816A Adapter: 3 ID: 1

Read mode : Secure
Utilize accurate stream : Yes
Defeat audio cache : Yes
Make use of C2 pointers : No

Read offset correction : 12
Overread into Lead-In and Lead-Out : No
Fill up missing offset samples with silence : Yes
Delete leading and trailing silent blocks : No
Null samples used in CRC calculations : Yes
Used interface : Installed external ASPI interface

Used output format : User Defined Encoder
Selected bitrate : 1024 kBit/s
Quality : High
Add ID3 tag : No
Command line compressor : C:\Program Files\Exact Audio Copy\Flac\flac.exe
Additional command line options : -8 -V -T "ARTIST=%a" -T "ALBUM=%g" -T "DATE=%y" -T "GENRE=%m" %s -o %d


TOC of the extracted CD

Track | Start | Length | Start sector | End sector
––––––––––––––––––––––––––––-
1 | 0:00.00 | 18:21.18 | 0 | 82592
2 | 18:21.18 | 27:54.70 | 82593 | 208212
3 | 46:16.13 | 9:21.10 | 208213 | 250297
4 | 55:37.23 | 15:12.47 | 250298 | 318744


Range status and errors

Selected range

Filename F:\temp\nnm\Pete Namlook & Mixmaster Morris - Dreamfish.wav

Peak level 100.0 %
Range quality 100.0 %
Test CRC 6BFEBD76
Copy CRC 6BFEBD76
Copy OK

No errors occurred


AccurateRip summary

Track 1 cannot be verified as accurate (confidence 2) [1617C770], AccurateRip returned [4A38D2DF]
Track 2 cannot be verified as accurate (confidence 2) [9D9BB54A], AccurateRip returned [3BC9AA2C]
Track 3 cannot be verified as accurate (confidence 2) [12A3844C], AccurateRip returned [57F51384]
Track 4 cannot be verified as accurate (confidence 2) [1EC87D35], AccurateRip returned [7A1827D2]

No tracks could be verified as accurate
You may have a different pressing from the one(s) in the database

End of status report

[CUETools log; Date: 24.02.2017 1:34:18; Version: 2.1.4]
[CTDB TOCID: glZ61WbpFp.KUig0av6nw9FtZws-] found.
Track | CTDB Status
1 | (11/11) Accurately ripped
2 | (11/11) Accurately ripped
3 | (11/11) Accurately ripped
4 | (11/11) Accurately ripped
[AccurateRip ID: 000d1ec9-0033a5a7-31109904] found.
Track [ CRC | V2 ] Status
01 [1617c770|da62744a] (03+06/13) Accurately ripped
02 [9d9bb54a|98697d17] (03+05/12) Accurately ripped
03 [12a3844c|67915a4e] (03+06/13) Accurately ripped
04 [1ec87d35|e674e750] (03+06/13) Accurately ripped
Offsetted by -667:
01 [4a38d2df] (04/13) Accurately ripped
02 [3bc9aa2c] (04/12) Accurately ripped
03 [57f51384] (04/13) Accurately ripped
04 [7a1827d2] (04/13) Accurately ripped

Track Peak [ CRC32 ] [W/O NULL] [ LOG ]
– 100,0 [6BFEBD76] [0C5AB2DC] CRC32
01 100,0 [B6395863] [C22071AC]
02 100,0 [BF0A2788] [5F1305AC]
03 99,6 [9FB3E107] [B97B1E1F]
04 100,0 [43227F94] [B7C15BEB]

Pete Namlook & Mixmaster Morris - Dreamfish 1-2 (1993-1995) (Repost)

Pete Namlook & Mixmaster Morris - Dreamfish 2 (1995)
EAC Rip | FLAC (image+.cue+log) - 263 MB | MP3 CBR 320 kbps (LAME 3.93) - 143 MB | Covers - 29 MB
Genre: Electronic, Ambient | RAR 3% Rec. | Label: Fax +49-69/450464 (PW 16)

Tracklist:
01. Aquarium
02. Caviar
03. Submerge

Total time: 01:01:00

Exact Audio Copy V0.99 prebeta 5 from 4. May 2009

EAC extraction logfile from 6. February 2010, 23:17

Pete Namlook & Mixmaster Morris / Dreamfish 2

Used drive : ASUS CRW-4816A Adapter: 3 ID: 1

Read mode : Secure
Utilize accurate stream : Yes
Defeat audio cache : Yes
Make use of C2 pointers : No

Read offset correction : 12
Overread into Lead-In and Lead-Out : No
Fill up missing offset samples with silence : Yes
Delete leading and trailing silent blocks : No
Null samples used in CRC calculations : Yes
Used interface : Installed external ASPI interface

Used output format : User Defined Encoder
Selected bitrate : 1024 kBit/s
Quality : High
Add ID3 tag : No
Command line compressor : C:\Program Files\Exact Audio Copy\Flac\flac.exe
Additional command line options : -8 -V -T "ARTIST=%a" -T "ALBUM=%g" -T "DATE=%y" -T "GENRE=%m" %s -o %d


TOC of the extracted CD

Track | Start | Length | Start sector | End sector
––––––––––––––––––––––––––––-
1 | 0:00.30 | 24:33.35 | 30 | 110539
2 | 24:33.65 | 12:02.71 | 110540 | 164760
3 | 36:36.61 | 24:22.59 | 164761 | 274469


Range status and errors

Selected range

Filename F:\temp\nnm\Pete Namlook & Mixmaster Morris - Dreamfish 2.wav

Peak level 100.0 %
Range quality 100.0 %
Test CRC 3625727F
Copy CRC 3625727F
Copy OK

No errors occurred


AccurateRip summary

Track 1 accurately ripped (confidence 3) [BB10A45C]
Track 2 accurately ripped (confidence 3) [7B2E05BA]
Track 3 accurately ripped (confidence 2) [10BD6DD4]

All tracks accurately ripped

End of status report

[CUETools log; Date: 24.02.2017 1:34:44; Version: 2.1.4]
Pregap length 00:00:30.
[CTDB TOCID: F7BJ0sUA6O5sZsD6DhO1zpgFo7s-] found.
Track | CTDB Status
1 | (8/8) Accurately ripped
2 | (8/8) Accurately ripped
3 | (8/8) Accurately ripped
[AccurateRip ID: 000863a9-001bab19-270e4b03] found.
Track [ CRC | V2 ] Status
01 [bb10a45c|952442aa] (06+03/18) Accurately ripped
02 [7b2e05ba|779966a7] (06+03/18) Accurately ripped
03 [10bd6dd4|76a58061] (04+03/16) Accurately ripped
Offsetted by -667:
01 [44282db8] (07/18) Accurately ripped
02 [37181904] (07/18) Accurately ripped
03 [ab7fe382] (07/16) Accurately ripped

Track Peak [ CRC32 ] [W/O NULL] [ LOG ]
– 100,0 [3625727F] [5C5E612B] CRC32
01 82,9 [7CB43048] [298C6B75]
02 100,0 [4013154F] [D7FDB268]
03 88,5 [3E2D2012] [8998D0AC]

Thanks to _ok

See also:
Pete Namlook - Air I-V (1993-2006)
Pete Namlook & Tetsu Inoue - Shades Of Orion 1-3 (1993-1996)
Pete Namlook & Tetsu Inoue - 2350 Broadway 1-4 (1993-2007)
Pete Namlook & Dr. Atmo - Silence I-V (1992-2001)