Subcategories

Peter Gabriel - SW Live EP (1994) Repost

Posted By: Oksana_m
Peter Gabriel - SW Live EP (1994) Repost

Peter Gabriel - SW Live EP (1994)
EAC | Flac(Image) + Cue + Log > 219 Mb | Mp3 CBR 320Kpbs > 89 Mb
Prog Rock | TT - 30:01 | Label: Virgin/Realworld | Cat. # 7243 8 92582 2 6, PGSDF 11 | EU
Scans (Jpg) Included | NitroFlare, FileFactory

'Red Rain' and 'Come Talk to Me' are the versions from 'Secret World Live', but the real prize here are the live versions of 'San Jacinto' and 'Mercy Street'.
The latter is here reinvented into a long, hypnotic groove, gradually building to a climax resembling nothing so much as the self-titled track from his 'Passion' album, with an extremely expressive and uninhibited vocal performance from Gabriel. A great live EP, if you can find it.

by morningside, rateyourmusic.com

*********


Peter Gabriel - SW Live EP (1994) Repost

Tracklist:

1. Red Rain 6:15
2. Come Talk To Me 6:13
3. San Jacinto 8:27
4. Mercy Street 9:17

Exact Audio Copy V1.0 beta 3 from 29. August 2011

EAC extraction logfile from 6. January 2012, 15:25

Gabriel, Peter / Secret World Live [EP]

Used drive : MATSHITABD-MLT UJ240ES Adapter: 0 ID: 1

Read mode : Secure
Utilize accurate stream : Yes
Defeat audio cache : Yes
Make use of C2 pointers : No

Read offset correction : 103
Overread into Lead-In and Lead-Out : No
Fill up missing offset samples with silence : Yes
Delete leading and trailing silent blocks : No
Null samples used in CRC calculations : Yes
Used interface : Native Win32 interface for Win NT & 2000

Used output format : User Defined Encoder
Selected bitrate : 768 kBit/s
Quality : High
Add ID3 tag : No
Command line compressor : C:\Program Files (x86)\Exact Audio Copy\FLAC\FLAC.EXE
Additional command line options : -V -8 %source%


TOC of the extracted CD

Track | Start | Length | Start sector | End sector
––––––––––––––––––––––––––––-
1 | 0:00.00 | 6:12.35 | 0 | 27934
2 | 6:12.35 | 6:09.40 | 27935 | 55649
3 | 12:22.00 | 8:23.00 | 55650 | 93374
4 | 20:45.00 | 9:16.00 | 93375 | 135074


Range status and errors

Selected range

Filename C:\Peter Gabriel - SW Live EP (CDS) - 1994 - [Virgin, PGSDF 11]\Gabriel, Peter - Secret World Live [EP].wav

Peak level 99.2 %
Extraction speed 3.5 X
Range quality 100.0 %
Test CRC A4F78235
Copy CRC A4F78235
Copy OK

No errors occurred


AccurateRip summary

Track 1 accurately ripped (confidence 21) [4517F234] (AR v1)
Track 2 accurately ripped (confidence 20) [DEAFCD64] (AR v1)
Track 3 accurately ripped (confidence 20) [4FD907D0] (AR v1)
Track 4 accurately ripped (confidence 22) [C1201B50] (AR v1)

All tracks accurately ripped

End of status report

==== Log checksum 3A288CA7DB5DC2F0E80F547EEECC4CD67446F27975E0FC42129E8D6DD8E123CC ====

foobar2000 1.2.9 / Dynamic Range Meter 1.1.1
log date: 2016-11-02 09:23:26

––––––––––––––––––––––––––––––––––––––––
Analyzed: Gabriel, Peter / Secret World Live [EP]
––––––––––––––––––––––––––––––––––––––––

DR Peak RMS Duration Track
––––––––––––––––––––––––––––––––––––––––
DR10 -0.41 dB -12.11 dB 6:12 01-Red Rain
DR10 -0.41 dB -12.08 dB 6:10 02-Come Talk to Me
DR11 -0.07 dB -14.74 dB 8:23 03-San Jacinto
DR8 -0.07 dB -10.74 dB 9:16 04-Mercy Street
––––––––––––––––––––––––––––––––––––––––

Number of tracks: 4
Official DR value: DR9

Samplerate: 44100 Hz
Channels: 2
Bits per sample: 16
Bitrate: 907 kbps
Codec: FLAC

Peter Gabriel - SW Live EP (1994) Repost

All thanks go to original releaser Olaf der Weisse