Subcategories

Peter Gabriel - So (2012)

Posted By: v3122
Peter Gabriel - So (2012)

Peter Gabriel - So (2012)
Blu-ray: MPEG-4 AVC 23537 kbps, 1080i, 29.970 fps, 16:9, High Profile 4.1
LPCM Audio English 1536 kbps, 2.0, 48 kHz, 1536 kbps, 16-bit
Documentary / Art Rock | Scans | 00:58:40+00:35:33 | ~ 18.77 Gb

The latest addition to the acclaimed & award winning Classic Albums series tells the story behind the making of Peter Gabriel's 1986 album So. It was Gabriel's fifth solo album and the first one to have a title (the others all having just been called Peter Gabriel ). The album spawned a number of hit singles on both sides of the Atlantic including Sledgehammer, Big Time, Don't Give Up (a duet with Kate Bush) and In Your Eyes which drove So to multi-platinum sales, the No.1 spot in the UK and No.2 in the US. So was very much an album of the MTV generation and the distinctive videos for tracks like Sledgehammer, Red Rain, Big Time and Don't Give Up were key factors in the album's success. The program features contributions from many of those involved in the making of the album and the videos including Peter Gabriel himself, co-producer Daniel Lanois, engineer Kevin Killen and musicians Jerry Marotta, Laurie Anderson, Tony Levin and Manu Katché amongst many. / Bonus Features: Over 30 minutes of additional material not included in the broadcast version.
Peter Gabriel - So (2012)

Disc Title: EVB334199
Disc Size: 19 551 695 468 bytes
Protection: AACS
BD-Java: No
BDInfo: 0.5.8

Notes:

BDINFO HOME:
Cinema Squid
http://www.cinemasquid.com/blu-ray/tools/bdinfo

INCLUDES FORUMS REPORT FOR:
AVS Forum Blu-ray Audio and Video Specifications Thread
http://www.avsforum.com/avs-vb/showthread.php?t=1155731

WARNING: Report is incomplete because: Scan has not been run.

********************
PLAYLIST: 00005.MPLS
********************

<–- BEGIN FORUMS PASTE –->
                                                                                                                Total   Video                                             
Title                                                           Codec   Length  Movie Size      Disc Size       Bitrate Bitrate Main Audio Track                          Secondary Audio Track
-----                                                           ------  ------- --------------  --------------  ------- ------- ------------------                        ---------------------
00005.MPLS                                                      AVC     0:58:40 0               19 551 695 468  0,00    0,00    LPCM 2.0 1536Kbps (48kHz/16-bit)          


DISC INFO:

Disc Title:     EVB334199
Disc Size:      19 551 695 468 bytes
Protection:     AACS
BD-Java:        No
BDInfo:         0.5.8

PLAYLIST REPORT:

Name:                   00005.MPLS
Length:                 0:58:40.149 (h:m:s.ms)
Size:                   0 bytes
Total Bitrate:          0,00 Mbps

VIDEO:

Codec                   Bitrate             Description     
-----                   -------             -----------     
MPEG-4 AVC Video        0 kbps              1080i / 29,970 fps / 16:9 / High Profile 4.1

AUDIO:

Codec                           Language        Bitrate         Description     
-----                           --------        -------         -----------     
LPCM Audio                      English         1536 kbps       2.0 / 48 kHz / 1536 kbps / 16-bit

SUBTITLES:

Codec                           Language        Bitrate         Description     
-----                           --------        -------         -----------     
Presentation Graphics           English         0,000 kbps                      
Presentation Graphics           German          0,000 kbps                      
Presentation Graphics           Spanish         0,000 kbps                      
Presentation Graphics           French          0,000 kbps                      

FILES:

Name            Time In         Length          Size            Total Bitrate   
----            -------         ------          ----            -------------   
00007.M2TS      0:00:00.000     0:58:40.149     0               0               

CHAPTERS:

Number          Time In         Length          Avg Video Rate  Max 1-Sec Rate  Max 1-Sec Time  Max 5-Sec Rate  Max 5-Sec Time  Max 10Sec Rate  Max 10Sec Time  Avg Frame Size  Max Frame Size  Max Frame Time  
------          -------         ------          --------------  --------------  --------------  --------------  --------------  --------------  --------------  --------------  --------------  --------------  
1               0:00:00.000     0:03:54.634     0 kbps          0 kbps          00:00:00.000    0 kbps          00:00:00.000    0 kbps          00:00:00.000    0 bytes         0 bytes         00:00:00.000    
2               0:03:54.634     0:06:34.594     0 kbps          0 kbps          00:00:00.000    0 kbps          00:00:00.000    0 kbps          00:00:00.000    0 bytes         0 bytes         00:00:00.000    
3               0:10:29.228     0:06:22.882     0 kbps          0 kbps          00:00:00.000    0 kbps          00:00:00.000    0 kbps          00:00:00.000    0 bytes         0 bytes         00:00:00.000    
4               0:16:52.111     0:11:02.528     0 kbps          0 kbps          00:00:00.000    0 kbps          00:00:00.000    0 kbps          00:00:00.000    0 bytes         0 bytes         00:00:00.000    
5               0:27:54.639     0:07:41.227     0 kbps          0 kbps          00:00:00.000    0 kbps          00:00:00.000    0 kbps          00:00:00.000    0 bytes         0 bytes         00:00:00.000    
6               0:35:35.867     0:06:41.968     0 kbps          0 kbps          00:00:00.000    0 kbps          00:00:00.000    0 kbps          00:00:00.000    0 bytes         0 bytes         00:00:00.000    
7               0:42:17.835     0:02:46.699     0 kbps          0 kbps          00:00:00.000    0 kbps          00:00:00.000    0 kbps          00:00:00.000    0 bytes         0 bytes         00:00:00.000    
8               0:45:04.535     0:03:34.414     0 kbps          0 kbps          00:00:00.000    0 kbps          00:00:00.000    0 kbps          00:00:00.000    0 bytes         0 bytes         00:00:00.000    
9               0:48:38.949     0:01:54.948     0 kbps          0 kbps          00:00:00.000    0 kbps          00:00:00.000    0 kbps          00:00:00.000    0 bytes         0 bytes         00:00:00.000    
10              0:50:33.897     0:08:06.252     0 kbps          0 kbps          00:00:00.000    0 kbps          00:00:00.000    0 kbps          00:00:00.000    0 bytes         0 bytes         00:00:00.000    

STREAM DIAGNOSTICS:

File            PID             Type            Codec           Language                Seconds                 Bitrate                 Bytes           Packets         
----            ---             ----            -----           --------                --------------          --------------          -------------   -----           
00007.M2TS      4113 (0x1011)   0x1B            AVC                                     0                       0                       0               0               
00007.M2TS      4352 (0x1100)   0x80            LPCM            eng (English)           0                       0                       0               0               
00007.M2TS      4608 (0x1200)   0x90            PGS             eng (English)           0                       0                       0               0               
00007.M2TS      4609 (0x1201)   0x90            PGS             deu (German)            0                       0                       0               0               
00007.M2TS      4610 (0x1202)   0x90            PGS             spa (Spanish)           0                       0                       0               0               
00007.M2TS      4611 (0x1203)   0x90            PGS             fra (French)            0                       0                       0               0               

<–– END FORUMS PASTE ––>

QUICK SUMMARY:

Disc Title: EVB334199
Disc Size: 19 551 695 468 bytes
Protection: AACS
BD-Java: No
Playlist: 00005.MPLS
Size: 0 bytes
Length: 0:58:40.149
Total Bitrate: 0,00 Mbps
Video: MPEG-4 AVC Video / 0 kbps / 1080i / 29,970 fps / 16:9 / High Profile 4.1
Audio: English / LPCM Audio / 2.0 / 48 kHz / 1536 kbps / 16-bit
Subtitle: English / 0,000 kbps
Subtitle: German / 0,000 kbps
Subtitle: Spanish / 0,000 kbps
Subtitle: French / 0,000 kbps


********************
PLAYLIST: 00003.MPLS
********************

<–- BEGIN FORUMS PASTE –->
                                                                                                                Total   Video                                             
Title                                                           Codec   Length  Movie Size      Disc Size       Bitrate Bitrate Main Audio Track                          Secondary Audio Track
-----                                                           ------  ------- --------------  --------------  ------- ------- ------------------                        ---------------------
00003.MPLS                                                      AVC     0:35:33 0               19 551 695 468  0,00    0,00    LPCM 2.0 1536Kbps (48kHz/16-bit)          


DISC INFO:

Disc Title:     EVB334199
Disc Size:      19 551 695 468 bytes
Protection:     AACS
BD-Java:        No
BDInfo:         0.5.8

PLAYLIST REPORT:

Name:                   00003.MPLS
Length:                 0:35:33.998 (h:m:s.ms)
Size:                   0 bytes
Total Bitrate:          0,00 Mbps

VIDEO:

Codec                   Bitrate             Description     
-----                   -------             -----------     
MPEG-4 AVC Video        0 kbps              1080i / 29,970 fps / 16:9 / High Profile 4.1

AUDIO:

Codec                           Language        Bitrate         Description     
-----                           --------        -------         -----------     
LPCM Audio                      English         1536 kbps       2.0 / 48 kHz / 1536 kbps / 16-bit

SUBTITLES:

Codec                           Language        Bitrate         Description     
-----                           --------        -------         -----------     
Presentation Graphics           English         0,000 kbps                      
Presentation Graphics           German          0,000 kbps                      
Presentation Graphics           Spanish         0,000 kbps                      
Presentation Graphics           French          0,000 kbps                      

FILES:

Name            Time In         Length          Size            Total Bitrate   
----            -------         ------          ----            -------------   
00005.M2TS      0:00:00.000     0:04:14.020     0               0               
00001.M2TS      0:04:14.020     0:08:18.998     0               0               
00008.M2TS      0:12:33.018     0:12:18.904     0               0               
00012.M2TS      0:24:51.923     0:10:42.074     0               0               

CHAPTERS:

Number          Time In         Length          Avg Video Rate  Max 1-Sec Rate  Max 1-Sec Time  Max 5-Sec Rate  Max 5-Sec Time  Max 10Sec Rate  Max 10Sec Time  Avg Frame Size  Max Frame Size  Max Frame Time  
------          -------         ------          --------------  --------------  --------------  --------------  --------------  --------------  --------------  --------------  --------------  --------------  
1               0:00:00.000     0:04:14.020     0 kbps          0 kbps          00:00:00.000    0 kbps          00:00:00.000    0 kbps          00:00:00.000    0 bytes         0 bytes         00:00:00.000    
2               0:04:14.020     0:08:18.998     0 kbps          0 kbps          00:00:00.000    0 kbps          00:00:00.000    0 kbps          00:00:00.000    0 bytes         0 bytes         00:00:00.000    
3               0:12:33.018     0:12:18.904     0 kbps          0 kbps          00:00:00.000    0 kbps          00:00:00.000    0 kbps          00:00:00.000    0 bytes         0 bytes         00:00:00.000    
4               0:24:51.923     0:10:42.074     0 kbps          0 kbps          00:00:00.000    0 kbps          00:00:00.000    0 kbps          00:00:00.000    0 bytes         0 bytes         00:00:00.000    

STREAM DIAGNOSTICS:

File            PID             Type            Codec           Language                Seconds                 Bitrate                 Bytes           Packets         
----            ---             ----            -----           --------                --------------          --------------          -------------   -----           
00005.M2TS      4113 (0x1011)   0x1B            AVC                                     0                       0                       0               0               
00005.M2TS      4352 (0x1100)   0x80            LPCM            eng (English)           0                       0                       0               0               
00005.M2TS      4608 (0x1200)   0x90            PGS             eng (English)           0                       0                       0               0               
00005.M2TS      4609 (0x1201)   0x90            PGS             deu (German)            0                       0                       0               0               
00005.M2TS      4610 (0x1202)   0x90            PGS             spa (Spanish)           0                       0                       0               0               
00005.M2TS      4611 (0x1203)   0x90            PGS             fra (French)            0                       0                       0               0               
00001.M2TS      4113 (0x1011)   0x1B            AVC                                     0                       0                       0               0               
00001.M2TS      4352 (0x1100)   0x80            LPCM            eng (English)           0                       0                       0               0               
00001.M2TS      4608 (0x1200)   0x90            PGS             eng (English)           0                       0                       0               0               
00001.M2TS      4609 (0x1201)   0x90            PGS             deu (German)            0                       0                       0               0               
00001.M2TS      4610 (0x1202)   0x90            PGS             spa (Spanish)           0                       0                       0               0               
00001.M2TS      4611 (0x1203)   0x90            PGS             fra (French)            0                       0                       0               0               
00008.M2TS      4113 (0x1011)   0x1B            AVC                                     0                       0                       0               0               
00008.M2TS      4352 (0x1100)   0x80            LPCM            eng (English)           0                       0                       0               0               
00008.M2TS      4608 (0x1200)   0x90            PGS             eng (English)           0                       0                       0               0               
00008.M2TS      4609 (0x1201)   0x90            PGS             deu (German)            0                       0                       0               0               
00008.M2TS      4610 (0x1202)   0x90            PGS             spa (Spanish)           0                       0                       0               0               
00008.M2TS      4611 (0x1203)   0x90            PGS             fra (French)            0                       0                       0               0               
00012.M2TS      4113 (0x1011)   0x1B            AVC                                     0                       0                       0               0               
00012.M2TS      4352 (0x1100)   0x80            LPCM            eng (English)           0                       0                       0               0               
00012.M2TS      4608 (0x1200)   0x90            PGS             eng (English)           0                       0                       0               0               
00012.M2TS      4609 (0x1201)   0x90            PGS             deu (German)            0                       0                       0               0               
00012.M2TS      4610 (0x1202)   0x90            PGS             spa (Spanish)           0                       0                       0               0               
00012.M2TS      4611 (0x1203)   0x90            PGS             fra (French)            0                       0                       0               0               

<–– END FORUMS PASTE ––>

QUICK SUMMARY:

Disc Title: EVB334199
Disc Size: 19 551 695 468 bytes
Protection: AACS
BD-Java: No
Playlist: 00003.MPLS
Size: 0 bytes
Length: 0:35:33.998
Total Bitrate: 0,00 Mbps
Video: MPEG-4 AVC Video / 0 kbps / 1080i / 29,970 fps / 16:9 / High Profile 4.1
Audio: English / LPCM Audio / 2.0 / 48 kHz / 1536 kbps / 16-bit
Subtitle: English / 0,000 kbps
Subtitle: German / 0,000 kbps
Subtitle: Spanish / 0,000 kbps
Subtitle: French / 0,000 kbps


********************
PLAYLIST: 00004.MPLS
********************

<–- BEGIN FORUMS PASTE –->
                                                                                                                Total   Video                                             
Title                                                           Codec   Length  Movie Size      Disc Size       Bitrate Bitrate Main Audio Track                          Secondary Audio Track
-----                                                           ------  ------- --------------  --------------  ------- ------- ------------------                        ---------------------
00004.MPLS                                                      AVC     0:00:21 0               19 551 695 468  0,00    0,00                                              


DISC INFO:

Disc Title:     EVB334199
Disc Size:      19 551 695 468 bytes
Protection:     AACS
BD-Java:        No
BDInfo:         0.5.8

PLAYLIST REPORT:

Name:                   00004.MPLS
Length:                 0:00:21.020 (h:m:s.ms)
Size:                   0 bytes
Total Bitrate:          0,00 Mbps

VIDEO:

Codec                   Bitrate             Description     
-----                   -------             -----------     
MPEG-4 AVC Video        0 kbps              1080i / 29,970 fps / 16:9 / High Profile 4.1

FILES:

Name            			  		 	 	  		 	    	 			   		   	  		 		   		  	   	 			   		  	   		 	 	  		      	 			   		  	   		  	   		 						 Time In         Length          Size            Total Bitrate   
----            -------         ------          ----            -------------   
00004.M2TS      0:00:00.000     0:00:10.510     0               0               
00003.M2TS      0:00:10.510     0:00:10.510     0               0               

CHAPTERS:

Number          Time In         Length          Avg Video Rate  Max 1-Sec Rate  Max 1-Sec Time  Max 5-Sec Rate  Max 5-Sec Time  Max 10Sec Rate  Max 10Sec Time  Avg Frame Size  Max Frame Size  Max Frame Time  
------          -------         ------          --------------  --------------  --------------  --------------  --------------  --------------  --------------  --------------  --------------  --------------  
1               0:00:00.000     0:00:21.020     0 kbps          0 kbps          00:00:00.000    0 kbps          00:00:00.000    0 kbps          00:00:00.000    0 bytes         0 bytes         00:00:00.000    

STREAM DIAGNOSTICS:

File            PID             Type            Codec           Language                Seconds                 Bitrate                 Bytes           Packets         
----            ---             ----            -----           --------                --------------          --------------          -------------   -----           
00004.M2TS      4113 (0x1011)   0x1B            AVC                                     0                       0                       0               0               
00003.M2TS      4113 (0x1011)   0x1B            AVC                                     0                       0                       0               0               

<–– END FORUMS PASTE ––>

QUICK SUMMARY:

Disc Title: EVB334199
Disc Size: 19 551 695 468 bytes
Protection: AACS
BD-Java: No
Playlist: 00004.MPLS
Size: 0 bytes
Length: 0:00:21.020
Total Bitrate: 0,00 Mbps
Video: MPEG-4 AVC Video / 0 kbps / 1080i / 29,970 fps / 16:9 / High Profile 4.1


********************
PLAYLIST: 00001.MPLS
********************

<–- BEGIN FORUMS PASTE –->
                                                                                                                Total   Video                                             
Title                                                           Codec   Length  Movie Size      Disc Size       Bitrate Bitrate Main Audio Track                          Secondary Audio Track
-----                                                           ------  ------- --------------  --------------  ------- ------- ------------------                        ---------------------
00001.MPLS                                                      AVC     0:00:20 0               19 551 695 468  0,00    0,00    DD AC3 5.1 448Kbps                        


DISC INFO:

Disc Title:     EVB334199
Disc Size:      19 551 695 468 bytes
Protection:     AACS
BD-Java:        No
BDInfo:         0.5.8

PLAYLIST REPORT:

Name:                   00001.MPLS
Length:                 0:00:20.053 (h:m:s.ms)
Size:                   0 bytes
Total Bitrate:          0,00 Mbps

VIDEO:

Codec                   Bitrate             Description     
-----                   -------             -----------     
MPEG-4 AVC Video        0 kbps              1080i / 29,970 fps / 16:9 / High Profile 4.1

AUDIO:

Codec                           Language        Bitrate         Description     
-----                           --------        -------         -----------     
Dolby Digital Audio             English         448 kbps        5.1 / 48 kHz / 448 kbps / DN -4dB

FILES:

Name            Time In         Length          Size            Total Bitrate   
----            -------         ------          ----            -------------   
00002.M2TS      0:00:00.000     0:00:20.053     0               0               

CHAPTERS:

Number          Time In         Length          Avg Video Rate  Max 1-Sec Rate  Max 1-Sec Time  Max 5-Sec Rate  Max 5-Sec Time  Max 10Sec Rate  Max 10Sec Time  Avg Frame Size  Max Frame Size  Max Frame Time  
------          -------         ------          --------------  --------------  --------------  --------------  --------------  --------------  --------------  --------------  --------------  --------------  
1               0:00:00.000     0:00:20.053     0 kbps          0 kbps          00:00:00.000    0 kbps          00:00:00.000    0 kbps          00:00:00.000    0 bytes         0 bytes         00:00:00.000    

STREAM DIAGNOSTICS:

File            PID             Type            Codec           Language                Seconds                 Bitrate                 Bytes           Packets         
----            ---             ----            -----           --------                --------------          --------------          -------------   -----           
00002.M2TS      4113 (0x1011)   0x1B            AVC                                     0                       0                       0               0               
00002.M2TS      4352 (0x1100)   0x81            AC3             eng (English)           0                       0                       0               0               

<–– END FORUMS PASTE ––>

QUICK SUMMARY:

Disc Title: EVB334199
Disc Size: 19 551 695 468 bytes
Protection: AACS
BD-Java: No
Playlist: 00001.MPLS
Size: 0 bytes
Length: 0:00:20.053
Total Bitrate: 0,00 Mbps
Video: MPEG-4 AVC Video / 0 kbps / 1080i / 29,970 fps / 16:9 / High Profile 4.1
Audio: English / Dolby Digital Audio / 5.1 / 48 kHz / 448 kbps / DN -4dB



Peter Gabriel - So (2012)

Peter Gabriel - So (2012)

Peter Gabriel - So (2012)

Peter Gabriel - So (2012)

Peter Gabriel - So (2012)

All thanks go to tatuk

Peter Gabriel in my Blog

Download Peter Gabriel - So (2012):