Subcategories

Peter Bardens - The Answer (1970) [Reissue 2010] (Repost)

Posted By: gribovar
Peter Bardens - The Answer (1970) [Reissue 2010] (Repost)

Peter Bardens - The Answer (1970) [Reissue 2010]
EAC Rip | FLAC (image+.cue+log) - 356 MB | MP3 CBR 320 kbps (LAME 3.93) - 141 MB | Covers (9 MB) included
Genre: Progressive/Psychedelic Rock | RAR 3% Rec. | Label: Esoteric Recordings (ECLEC 2221)

Esoteric Recordings are pleased to release a newly re-mastered and expanded edition of the classic 1970 album "The Answer" by the legendary keyboard player and Camel member Peter Bardens. Prior to Bardens joining Andrew Latimer and co. to form Camel, he recorded two excellent solo albums. The first of these was "The Answer". The album included the side long opus "Homage To The God Of Light", later performed by Camel in their live sets. The album is expanded with both sides of the only single released by Bardens' outfit Village, a group who also included future Elvis Costello band member Bruce Thomas and lasted just a few months in 1969.
Tracklist:
01. The Answer
02. Don`t Goof With A Spook
03. I Can`t Remember
04. I Don`t Want To Go Home
05. Let`s Get It On
06. Homage To The God Of Light

Bonus tracks:
Village
07. Man In The Moon
08. Long Time Coming

Total time: 55:47

Exact Audio Copy V0.99 prebeta 4 from 23. January 2008

Отчёт EAC об извлечении, выполненном 25. января 2011, 21:38

Peter Bardens / The Answer (Remaster 2010)

Дисковод: ASUS DRW-24B1ST Adapter: 3 ID: 0

Режим чтения : Достоверность
Использование точного потока : Да
Отключение кэша аудио : Да
Использование указателей C2 : Нет

Коррекция смещения при чтении : 6
Способность читать области Lead-in и Lead-out : Нет
Заполнение пропущенных сэмплов тишиной : Да
Удаление блоков с тишиной в начале и конце : Нет
При вычислениях CRC использовались нулевые сэмплы : Да
Интерфейс : Встроенный Win32-интерфейс для Win NT/2000

Выходной формат : Пользовательский кодировщик
Выбранный битрейт : 768 kBit/s
Качество : Высокий
Добавление ID3-тэга : Нет
Утилита сжатия : C:\Program Files\Exact Audio Copy\FLAC\FLAC.EXE
Дополнительные параметры : -6 -V -T "ARTIST=%a" -T "TITLE=%t" -T "ALBUM=%g" -T "DATE=%y" -T "TRACKNUMBER=%n" -T "GENRE=%m" -T "COMMENT=%e" %s -o %d


TOC извлечённого CD

Трек | Старт | Длительность | Начальный сектор | Конечный сектор
––––––––––––––––––––––––––––––––––-
1 | 0:00.00 | 5:25.58 | 0 | 24432
2 | 5:25.58 | 7:21.31 | 24433 | 57538
3 | 12:47.14 | 10:42.50 | 57539 | 105738
4 | 23:29.64 | 5:13.64 | 105739 | 129277
5 | 28:43.53 | 6:36.71 | 129278 | 159048
6 | 35:20.49 | 13:37.23 | 159049 | 220346
7 | 48:57.72 | 4:15.29 | 220347 | 239500
8 | 53:13.26 | 2:33.56 | 239501 | 251031


Характеристики диапазона извлечения и сообщения об ошибках

Выбранный диапазон

Имя файла C:\Torrent\purple\Peter Bardens - The Answer (Remaster 2010).wav

Пиковый уровень 98.8 %
Качество диапазона 100.0 %
CRC теста 93C5F06B
CRC копии 93C5F06B
Копирование… OK

Ошибок не произошло


AccurateRip: сводка

Трек 1 точное извлечение (доверие 1) [2770CF2A]
Трек 2 точное извлечение (доверие 1) [D51C6A48]
Трек 3 точное извлечение (доверие 1) [4BEB5913]
Трек 4 точное извлечение (доверие 1) [FACD7B6F]
Трек 5 точное извлечение (доверие 1) [A64E32FA]
Трек 6 точное извлечение (доверие 1) [37062A5D]
Трек 7 точное извлечение (доверие 1) [2C652634]
Трек 8 точное извлечение (доверие 1) [ED547F72]

Все треки извлечены точно

Конец отчёта

[CUETools log; Date: 15.06.2018 17:25:46; Version: 2.1.4]
[CTDB TOCID: ll72hjHdNgCW.LbQNeakhucfjy8-] found.
Track | CTDB Status
1 | (17/17) Accurately ripped
2 | (17/17) Accurately ripped
3 | (17/17) Accurately ripped
4 | (17/17) Accurately ripped
5 | (17/17) Accurately ripped
6 | (17/17) Accurately ripped
7 | (17/17) Accurately ripped
8 | (17/17) Accurately ripped
[AccurateRip ID: 00121c66-007980e1-6a0d1308] found.
Track [ CRC | V2 ] Status
01 [2770cf2a|0033a5d8] (04+06/10) Accurately ripped
02 [d51c6a48|1ea06b6b] (04+06/10) Accurately ripped
03 [4beb5913|c368a2ba] (04+06/10) Accurately ripped
04 [facd7b6f|3d16aa49] (04+06/10) Accurately ripped
05 [a64e32fa|25c97cdf] (04+06/10) Accurately ripped
06 [37062a5d|4be64a1d] (04+06/10) Accurately ripped
07 [2c652634|f231d8ad] (04+06/10) Accurately ripped
08 [ed547f72|31da84de] (04+06/10) Accurately ripped

Track Peak [ CRC32 ] [W/O NULL] [ LOG ]
– 98,8 [93C5F06B] [37B68F3E] CRC32
01 98,8 [D37A623E] [D41AB9E4]
02 98,8 [5E17EB3F] [BDCE9EA7]
03 98,8 [917348E0] [599E0B2A]
04 98,8 [0404F45F] [B3487E0F]
05 98,4 [71B9E436] [356B017F]
06 98,8 [EFBC0EBE] [E9BC5F93]
07 98,8 [EFE307AB] [853076D9]
08 96,8 [6BC222C7] [D189850F]

Thanks to kirill-purple

See also:
Peter Bardens - Peter Bardens (1971) [Reissue 2006]