Peter Silberman - Impermanence (2017)

Posted By: Pisulik
Peter Silberman - Impermanence (2017)

Peter Silberman - Impermanence (2017)
EAC Rip | FLAC (Tracks) +cue, log - 163 MB | MP3 CBR 320 kbps - 82 MB | 00:36:02
Indie, Acoustic | Label: Anti/Epitaph | Release Year: 2017

While Impermanence is Peter Silberman’s first solo album, it could easily be thought of as a continuation of the emotional-spiritual odyssey begun through his work in The Antlers over the past decade. It travels some of the thornier terrain of the trio’s previous albums Hospice, Burst Apart, and Familiars, while carrying the conversation further down the path. What distinguishes Impermanence from its forebears can be attributed to an unexpected injury, as Silberman developed a hearing impairment in his left ear that resulted in a temporarily total hearing loss, extraordinarily loud tinnitus, and an excruciating sensitivity to everyday noises. “Writing Impermanence became my effort to meditate on what had happened, and grasp what it had taught me: about my mortality, compassion, and change. There’s no remedy for the unpredictable, and I want this record to reflect that, to offer an alternative way to think about changing circumstances.”

TRACKLIST

01. Karuna
02. New York
03. Gone Beyond
04. Maya
05. Ahimsa
06. Impermanence

Exact Audio Copy V1.0 beta 4 from 7. December 2014

EAC extraction logfile from 27. February 2017, 17:37

Peter Silberman / Impermanence

Used drive : PIONEER DVD-RW DVR-116D Adapter: 1 ID: 0

Read mode : Secure
Utilize accurate stream : Yes
Defeat audio cache : Yes
Make use of C2 pointers : No

Read offset correction : 96
Overread into Lead-In and Lead-Out : No
Fill up missing offset samples with silence : Yes
Delete leading and trailing silent blocks : No
Null samples used in CRC calculations : Yes
Used interface : Native Win32 interface for Win NT & 2000
Gap handling : Appended to previous track

Used output format : User Defined Encoder
Selected bitrate : 1024 kBit/s
Quality : High
Add ID3 tag : No
Command line compressor : C:\Program Files (x86)\Exact Audio Copy\Flac\flac.exe
Additional command line options : -8 -V -T "ARTIST=%artist%" -T "TITLE=%title%" -T "ALBUM=%albumtitle%" -T "DATE=%year%" -T "TRACKNUMBER=%tracknr%" -T "GENRE=%genre%" -T "PERFORMER=%albuminterpret%" -T "COMPOSER=%composer%" %haslyrics%–tag-from-file=LYRICS="%lyricsfile%"%haslyrics% -T "ALBUMARTIST=%albumartist%" -T "DISCNUMBER=%cdnumber%" -T "TOTALDISCS=%totalcds%" -T "TOTALTRACKS=%numtracks%" -T "COMMENT=%comment%" %source% -o %dest%


TOC of the extracted CD

Track | Start | Length | Start sector | End sector
––––––––––––––––––––––––––––-
1 | 0:00.00 | 8:48.15 | 0 | 39614
2 | 8:48.15 | 3:28.38 | 39615 | 55252
3 | 12:16.53 | 8:18.11 | 55253 | 92613
4 | 20:34.64 | 5:12.33 | 92614 | 116046
5 | 25:47.22 | 6:57.00 | 116047 | 147321
6 | 32:44.22 | 3:20.44 | 147322 | 162365


Track 1

Filename C:\new flac rips\Peter Silberman - 2017 - Impermanence\01 Karuna.wav

Pre-gap length 0:00:02.00

Peak level 96.7 %
Extraction speed 4.6 X
Track quality 99.9 %
Test CRC 37737F60
Copy CRC 37737F60
Track not present in AccurateRip database
Copy OK

Track 2

Filename C:\new flac rips\Peter Silberman - 2017 - Impermanence\02 New York.wav

Peak level 96.6 %
Extraction speed 4.3 X
Track quality 99.9 %
Test CRC 71D7EACA
Copy CRC 71D7EACA
Track not present in AccurateRip database
Copy OK

Track 3

Filename C:\new flac rips\Peter Silberman - 2017 - Impermanence\03 Gone Beyond.wav

Peak level 97.2 %
Extraction speed 6.1 X
Track quality 100.0 %
Test CRC B11EF11A
Copy CRC B11EF11A
Track not present in AccurateRip database
Copy OK

Track 4

Filename C:\new flac rips\Peter Silberman - 2017 - Impermanence\04 Maya.wav

Peak level 96.6 %
Extraction speed 5.8 X
Track quality 99.9 %
Test CRC C251F8AC
Copy CRC C251F8AC
Track not present in AccurateRip database
Copy OK

Track 5

Filename C:\new flac rips\Peter Silberman - 2017 - Impermanence\05 Ahimsa.wav

Peak level 96.9 %
Extraction speed 6.4 X
Track quality 99.9 %
Test CRC C5630A85
Copy CRC C5630A85
Track not present in AccurateRip database
Copy OK

Track 6

Filename C:\new flac rips\Peter Silberman - 2017 - Impermanence\06 Impermanence.wav

Peak level 97.7 %
Extraction speed 6.7 X
Track quality 100.0 %
Test CRC 5E911BEA
Copy CRC 5E911BEA
Track not present in AccurateRip database
Copy OK


None of the tracks are present in the AccurateRip database

No errors occurred

End of status report

–– CUETools DB Plugin V2.1.4

[CTDB TOCID: g6I21cIHcQI.e5ND0CSMhcB4sYQ-] disk not present in database
Submit result: g6I21cIHcQI.e5ND0CSMhcB4sYQ- has been uploaded


==== Log checksum A27B04B11556C9246F041740D11580C0A070900F438F6655C104389E7319F3A8 ====


All thanks go to the original releaser