Subcategories

Phil Collins - No Jacket Required (1985) [Deluxe Edition, 2016] 2CD

Posted By: Andi_Deris
Phil Collins - No Jacket Required (1985) [Deluxe Edition, 2016] 2CD

Phil Collins - No Jacket Required (1985) [Deluxe Edition, 2016] 2CD
EAC Rip | FLAC: Image+Cue+Log | 861 Mb | MP3 CBR 320 kbps | 290 Mb | Scans | Time: 50:53 + 01:10:49
Genre: Pop Rock, Soft Rock | Label: Rhino/Warner Bros. | Cat.: 081227951900 PCCD85

Digitally remastered and expanded two CD edition includes a bonus disc containing live and demo recordings. Released in 1985, Collins' third album No Jacket Required topped the charts in the UK, US, and numerous other countries all over the world on a journey that would result in three Grammy Awards (for Best Album, Best Pop Vocal Performance, Male, and Producer of the Year for Collins and co-producer Hugh Padgham) and over 20 million sales.

Phil Collins - No Jacket Required (1985) [Deluxe Edition, 2016] 2CD




Phil Collins - No Jacket Required (1985) [Deluxe Edition, 2016] 2CD


CD1: No Jacket Required

01. Sussudio (4:24)
02. Only You Know And I Know (4:22)
03. Long Long Way To Go (4:23)
04. I Don't Wanna Know (4:15)
05. One More Night (4:51)
06. Don't Lose My Number (4:49)
07. Who Said I Would (4:02)
08. Doesn't Anybody Stay Together Anymore (4:19)
09. Inside Out (5:16)
10. Take Me Home (5:51)
11. We Said Hello Goodbye (4:21)

Phil Collins - No Jacket Required (1985) [Deluxe Edition, 2016] 2CD


CD2: Extra Large Jacket Required

01. Sussudio (Live) (7:18)
02. Don't Lose My Number (Live) (5:01)
03. Who Said I Know (Live) (4:32)
04. Long Long Way To Go (Live) (3:56)
05. Only You Know And I Know (Live) (4:53)
06. Easy Lover (Live) (5:03)
07. Inside Out (Live) (5:32)
08. Doesn't Anybody Stay Together Anymore (Live) (5:56)
09. One More Night (Live) (5:55)
10. Take Me Home (Live) (8:55)
11. Only You Know And I Know (Demo) (3:44)
12. One More Night (Demo) (4:41)
13. Take Me Home (Demo) (5:22)

Produced by Phil Collins and Hugh Padgham

Musicians

• Phil Collins - vocals, backing vocals, drums (2, 4, 6, 8-11), keyboards (2, 3, 5-11), Roland TR-808 (3, 5), Roland TR-909 (1, 10), LinnDrum (2, 6), Simmons drums (3, 7), vocoder (7), kalimba (7), synth bass (2)
• Daryl Stuermer - guitars (1-10), keyboards (4)
• David Frank - keyboards (1, 6, 7), Mini Moog bass (1, 7), Oberheim DMX (1)
• Lee Sklar - bass guitar (3-6, 8-11), Piccolo bass (3, 10)
• The Phenix Horns, arranged by Tom Tom 84 - horns (1, 2, 7)
• Gary Barnacle - saxophone (4, 7)
• Don Myrick - saxophone (5, 9)
• Arif Mardin - string arrangement (5), orchestral introduction (11)
• Sting - backing vocals (3, 10)
• Peter Gabriel - backing vocals (10)
• Helen Terry - backing vocals (10)
• Nick Glennie-Smith - keyboards (11)

Exact Audio Copy V1.1 from 23. June 2015

EAC extraction logfile from 14. April 2016, 17:30

Phil Collins / No Jacket Required (Remastered)

Used drive : PIONEER DVD-RW DVR-221L Adapter: 1 ID: 1

Read mode : Secure
Utilize accurate stream : Yes
Defeat audio cache : Yes
Make use of C2 pointers : No

Read offset correction : 6
Overread into Lead-In and Lead-Out : No
Fill up missing offset samples with silence : Yes
Delete leading and trailing silent blocks : No
Null samples used in CRC calculations : Yes
Used interface : Native Win32 interface for Win NT & 2000

Used output format : Internal WAV Routines
Sample format : 44.100 Hz; 16 Bit; Stereo


TOC of the extracted CD

Track | Start | Length | Start sector | End sector
––––––––––––––––––––––––––––-
1 | 0:00.00 | 4:24.10 | 0 | 19809
2 | 4:24.10 | 4:21.34 | 19810 | 39418
3 | 8:45.44 | 4:22.65 | 39419 | 59133
4 | 13:08.34 | 4:15.05 | 59134 | 78263
5 | 17:23.39 | 4:51.19 | 78264 | 100107
6 | 22:14.58 | 4:48.68 | 100108 | 121775
7 | 27:03.51 | 4:01.44 | 121776 | 139894
8 | 31:05.20 | 4:18.45 | 139895 | 159289
9 | 35:23.65 | 5:15.67 | 159290 | 182981
10 | 40:39.57 | 5:51.29 | 182982 | 209335
11 | 46:31.11 | 4:21.19 | 209336 | 228929


Range status and errors

Selected range

Filename K:\SPOTNET\Phil Collins - No Jacket Required 2016 (EAC)\CD1\Phil Collins - No Jacket Required (Remastered).wav

Peak level 98.9 %
Extraction speed 7.2 X
Range quality 99.9 %
Test CRC 0A567FF9
Copy CRC 0A567FF9
Copy OK

No errors occurred


AccurateRip summary

Track 1 not present in database
Track 2 not present in database
Track 3 not present in database
Track 4 not present in database
Track 5 not present in database
Track 6 not present in database
Track 7 not present in database
Track 8 not present in database
Track 9 not present in database
Track 10 not present in database
Track 11 not present in database

None of the tracks are present in the AccurateRip database

End of status report

Exact Audio Copy V1.1 from 23. June 2015

EAC extraction logfile from 14. April 2016, 17:53

Phil Collins / Extra Large Jacket Required

Used drive : PIONEER DVD-RW DVR-221L Adapter: 1 ID: 1

Read mode : Secure
Utilize accurate stream : Yes
Defeat audio cache : Yes
Make use of C2 pointers : No

Read offset correction : 6
Overread into Lead-In and Lead-Out : No
Fill up missing offset samples with silence : Yes
Delete leading and trailing silent blocks : No
Null samples used in CRC calculations : Yes
Used interface : Native Win32 interface for Win NT & 2000

Used output format : Internal WAV Routines
Sample format : 44.100 Hz; 16 Bit; Stereo


TOC of the extracted CD

Track | Start | Length | Start sector | End sector
––––––––––––––––––––––––––––-
1 | 0:00.00 | 7:18.11 | 0 | 32860
2 | 7:18.11 | 5:00.64 | 32861 | 55424
3 | 12:19.00 | 4:32.15 | 55425 | 75839
4 | 16:51.15 | 3:56.30 | 75840 | 93569
5 | 20:47.45 | 4:52.38 | 93570 | 115507
6 | 25:40.08 | 5:03.32 | 115508 | 138264
7 | 30:43.40 | 5:31.51 | 138265 | 163140
8 | 36:15.16 | 5:56.16 | 163141 | 189856
9 | 42:11.32 | 5:54.60 | 189857 | 216466
10 | 48:06.17 | 8:54.52 | 216467 | 256568
11 | 57:00.69 | 3:43.74 | 256569 | 273367
12 | 60:44.68 | 4:41.20 | 273368 | 294462
13 | 65:26.13 | 5:22.30 | 294463 | 318642


Range status and errors

Selected range

Filename K:\SPOTNET\Phil Collins - No Jacket Required 2016 (EAC)\CD2\Phil Collins - Extra Large Jacket Required.wav

Peak level 98.9 %
Extraction speed 8.4 X
Range quality 100.0 %
Test CRC E6877353
Copy CRC E6877353
Copy OK

No errors occurred


AccurateRip summary

Track 1 not present in database
Track 2 not present in database
Track 3 not present in database
Track 4 not present in database
Track 5 not present in database
Track 6 not present in database
Track 7 not present in database
Track 8 not present in database
Track 9 not present in database
Track 10 not present in database
Track 11 not present in database
Track 12 not present in database
Track 13 not present in database

None of the tracks are present in the AccurateRip database

End of status report


Many thanks to the original uploader


Genesis 1969 From Genesis To Revelation (Japan, 2004)
Genesis 2004 Platinum Collection [3CD-Box]

GTR 1986 GTR

Phil Collins 2002 Testify [Deluxe Edition, 2016] 2CD
Phil Collins 2004 Finally…The First Farewell Tour [2xDVD]

Steve Hackett 1975 Voyage Of The Acolyte [Remastered 2005]
Steve Hackett 1975 Voyage Of The Acolyte [Japan Mini-LP CD 2006]
Steve Hackett 1978 Please Don't Touch! [UK 1st Press, 1989]
Steve Hackett 1978 Please Don't Touch! [Remastered 2005]
Steve Hackett 1978 Please Don't Touch! [Japan Mini-LP CD 2006]
Steve Hackett 1979 Spectral Mornings [UK 1st Press, 1989]
Steve Hackett 1979 Spectral Mornings [Remastered 2005]
Steve Hackett 1979 Spectral Mornings [Japan Mini-LP CD 2006]
Steve Hackett 1980 Defector [UK 1st Press, 1989]
Steve Hackett 1980 Defector [Japan Mini-LP CD 2006]
Steve Hackett 1981 Cured [Remastered 2007]
Steve Hackett 1983 Highly Strung [Reissue 1989]
Steve Hackett 1983 Bay Of Kings [Japanese Ed. 2007]
Steve Hackett 1984 Till We Have Faces
Steve Hackett 1997 A Midsummer Night's Dream
Steve Hackett 1998 The Tokyo Tapes [SH Records, 2000] 2CD
Steve Hackett 1999 Darktown
Steve Hackett 2000 Feedback 86
Steve Hackett 2001 The Tokyo Tapes: Live In Japan [DVD9]
Steve Hackett 2005 Metamorpheus
Steve Hackett 2005 Spectral Mornings [DVD5]
Steve Hackett 2006 Wild Orchids
Steve Hackett 2006 Wild Orchids [Special Ed.]
Steve Hackett 2008 Tribute
Steve Hackett 2009 Out Of The Tunnel's Mouth
Steve Hackett 2010 Out Of The Tunnel's Mouth [Special Ed.] 2CD
Steve Hackett 2011 Fire And Ice [DVD9]
Steve Hackett 2013 Genesis Revisited II: Selection
Steve Hackett 2015 Wolflight [Special Ed.]
––––––––––
Nitroflare