Subcategories

Phil Collins: Singles Collection part 1 (1988 - 1993)

Posted By: v3122
Phil Collins: Singles Collection part 1 (1988 - 1993)

Phil Collins: Singles Collection part 1 (1988 - 1993)
EAC | Flac(Image) + Cue + Log & MP3 CBR 320Kbps
6CD | Label: Vatious | ~ 607 or 275 Mb | Scans(jpg) -> 44 Mb
Pop Rock, Prog Rock

Philip David Charles Collins LVO (born 30 January 1951) is an English drummer, singer-songwriter, record producer and actor. He was the drummer and singer of the rock band Genesis and is also a solo artist. Between 1982 and 1989, Collins scored three UK and seven US number-one singles in his solo career. When his work with Genesis, his work with other artists, as well as his solo career is totalled, Collins had more US Top 40 singles than any other artist during the 1980s.[9] His most successful singles from the period include "In the Air Tonight", "Against All Odds (Take a Look at Me Now)", "One More Night", "Sussudio", "Two Hearts" and "Another Day in Paradise".

Born and raised in west London, Collins played drums from the age of five and completed drama school training, which secured him various roles as a child actor. He then pursued a music career, joining Genesis in 1970 as their drummer and becoming lead singer in 1975 following the departure of Peter Gabriel. Collins began a solo career in the 1980s, initially inspired by his marital breakdown and love of soul music, releasing a series of successful albums, including Face Value (1981), No Jacket Required (1985), and …But Seriously (1989). Collins became "one of the most successful pop and adult contemporary singers of the '80s and beyond". He also became known for a distinctive gated reverb drum sound on many of his recordings.[10] In 1996, Collins left Genesis to focus on solo work, but returned for their Turn It On Again Tour in 2007. Following a five-year retirement to focus on his family life, Collins released an autobiography and began his Not Dead Yet Tour which ran from June 2017 until October 2018.

Collins's discography includes eight studio albums that have sold 33.5 million certified units in the US and an estimated 150 million worldwide, making him one of the world's best-selling artists. He is one of only two recording artists, along with Paul McCartney, who have sold over 100 million records worldwide both as solo artists and separately as principal members of a band. He has won eight Grammy Awards, six Brit Awards—winning Best British Male three times—two Golden Globe Awards, one Academy Award, and a Disney Legend Award.[16] He has received six Ivor Novello Awards from the British Academy of Songwriters, Composers and Authors, including the International Achievement Award. He received a star on the Hollywood Walk of Fame in 1999, and was inducted into the Songwriters Hall of Fame in 2003, the Rock and Roll Hall of Fame as a member of Genesis in 2010, the Modern Drummer Hall of Fame in 2012, and the Classic Drummer Hall of Fame in 2013. Despite his commercial success and his status as a respected and influential drummer, music critics are divided in their opinion of his work and he has publicly received both criticism and praise from other prominent music artists…

~ wiki
Phil Collins: Singles Collection part 1 (1988 - 1993)


Phil Collins: Singles Collection part 1 (1988 - 1993):

Phil Collins: Singles Collection part 1 (1988 - 1993)

Tracklist CD01 - 1988 - A Groovy Kind of Love Repost:
Virgin, VSCD 1117

01. A Groovy Kind of Love [0:03:30.46]
02. Big Noise (instrumental) [0:03:44.80]
03. Will You Still Be Waiting (instrumental) [0:01:54.73]

Exact Audio Copy V0.99 prebeta 5 from 4. May 2009

EAC extraction logfile from 29. January 2010, 21:46

Phil Collins / A Groovy Kind of Love

Used drive : HL-DT-STDVDRAM_GSA-T20N Adapter: 0 ID: 0

Read mode : Secure
Utilize accurate stream : Yes
Defeat audio cache : Yes
Make use of C2 pointers : No

Read offset correction : 667
Overread into Lead-In and Lead-Out : No
Fill up missing offset samples with silence : Yes
Delete leading and trailing silent blocks : No
Null samples used in CRC calculations : Yes
Used interface : Installed external ASPI interface

Used output format : User Defined Encoder
Selected bitrate : 768 kBit/s
Quality : High
Add ID3 tag : No
Command line compressor : C:\Program Files\Exact Audio Copy\Flac\flac.exe
Additional command line options : -8 -V %s


TOC of the extracted CD

Track | Start | Length | Start sector | End sector
––––––––––––––––––––––––––––-
1 | 0:00.00 | 3:30.35 | 0 | 15784
2 | 3:30.35 | 3:44.60 | 15785 | 32644
3 | 7:15.20 | 1:54.55 | 32645 | 41249


Range status and errors

Selected range

Filename C:\Music\Phil Collins - A Groovy Kind of Love.wav

Peak level 100.0 %
Range quality 100.0 %
Test CRC AC1B2EB9
Copy CRC AC1B2EB9
Copy OK

No errors occurred


AccurateRip summary

Track 1 accurately ripped (confidence 4) [3DA8459C]
Track 2 accurately ripped (confidence 3) [5CBB3149]
Track 3 accurately ripped (confidence 3) [FA309154]

All tracks accurately ripped

End of status report


[CUETools log; Date: 07.05.2018 18:14:58; Version: 2.1.5]
[AccurateRip ID: 00015e50-00047e6a-15022603] found.
Track [ CRC | V2 ] Status
01 [3da8459c|49cc90b6] (08+06/14) Accurately ripped
02 [5cbb3149|b6af47f1] (07+06/13) Accurately ripped
03 [fa309154|2f29b731] (07+06/13) Accurately ripped

Track Peak [ CRC32 ] [W/O NULL] [ LOG ]
– 100,0 [AC1B2EB9] [BA3D296A] CRC32
01 100,0 [7DB05ADB] [70117649]
02 98,5 [A24554F2] [C02298C9]
03 98,1 [8ECF234D] [7A5DC37A]


Phil Collins: Singles Collection part 1 (1988 - 1993)

Tracklist CD02 - 1988 - In The Air Tonight '88 Remix Repost:
Virgin Records, VSCD 102

01. In The Air Tonight (Extended Version) [0:07:34.56]
02. In The Air Tonight ('88 Remix) [0:05:08.50]
03. I Missed Again [0:04:00.00]

Exact Audio Copy V0.99 prebeta 5 from 4. May 2009

EAC extraction logfile from 21. January 2010, 9:42

Phil Collins / In The Air Tonight (Virgin U.K, VSCD 102)

Used drive : HL-DT-STDVDRAM_GSA-T20N Adapter: 0 ID: 0

Read mode : Secure
Utilize accurate stream : Yes
Defeat audio cache : Yes
Make use of C2 pointers : No

Read offset correction : 667
Overread into Lead-In and Lead-Out : No
Fill up missing offset samples with silence : Yes
Delete leading and trailing silent blocks : No
Null samples used in CRC calculations : Yes
Used interface : Native Win32 interface for Win NT & 2000

Used output format : User Defined Encoder
Selected bitrate : 768 kBit/s
Quality : High
Add ID3 tag : No
Command line compressor : C:\Program Files\Exact Audio Copy\Flac\flac.exe
Additional command line options : -6 -V -T "ARTIST=%a" -T "TITLE=%t" -T "ALBUM=%g" -T "DATE=%y" -T "TRACKNUMBER=%n" -T "GENRE=%m" -T "COMMENT=%e" %s -o %d


TOC of the extracted CD

Track | Start | Length | Start sector | End sector
––––––––––––––––––––––––––––-
1 | 0:00.00 | 7:34.42 | 0 | 34091
2 | 7:34.42 | 5:08.38 | 34092 | 57229
3 | 12:43.05 | 4:00.00 | 57230 | 75229


Range status and errors

Selected range

Filename D:\Music\Phil Collins - Singles Collection\Phil Collins - In The Air Tonight.wav

Peak level 100.0 %
Range quality 100.0 %
Test CRC 9A0B377F
Copy CRC 9A0B377F
Copy OK

No errors occurred


AccurateRip summary

Track 1 accurately ripped (confidence 18) [750452AA]
Track 2 accurately ripped (confidence 22) [6A3A9DED]
Track 3 accurately ripped (confidence 22) [B0022F18]

All tracks accurately ripped

End of status report


[CUETools log; Date: 07.05.2018 18:16:13; Version: 2.1.5]
[AccurateRip ID: 00028a98-0008407b-2303eb03] found.
Track [ CRC | V2 ] Status
01 [750452aa|0c2b92cf] (31+47/82) Accurately ripped
02 [6a3a9ded|ed3c1791] (35+45/84) Accurately ripped
03 [b0022f18|9ee28834] (34+44/82) Accurately ripped
Offsetted by 6:
01 [7742599c] (00/82) No match (V2 was not tested)
02 [ca674b5f] (00/84) No match (V2 was not tested)
03 [ffce54e6] (00/82) No match (V2 was not tested)

Track Peak [ CRC32 ] [W/O NULL] [ LOG ]
– 100,0 [9A0B377F] [2EF2617D] CRC32
01 100,0 [30219AB7] [2F670F9B]
02 96,0 [39787D1D] [F465F886]
03 89,5 [1150F7FE] [8DABE45D]


Phil Collins: Singles Collection part 1 (1988 - 1993)

Tracklist CD03 - 1989 - Another Day In Paradise Repost:
Virgin, VSCD 1234

01. Another Day In Paradise [0:05:19.24]
02. Saturday Night And Sunday Morning [0:01:26.42]
03. Heat On The Street [0:04:00.26]

Exact Audio Copy V0.99 prebeta 5 from 4. May 2009

EAC extraction logfile from 29. January 2010, 21:37

Phil Collins / Another Day In Paradise (CD3)

Used drive : HL-DT-STDVDRAM_GSA-T20N Adapter: 0 ID: 0

Read mode : Secure
Utilize accurate stream : Yes
Defeat audio cache : Yes
Make use of C2 pointers : No

Read offset correction : 667
Overread into Lead-In and Lead-Out : No
Fill up missing offset samples with silence : Yes
Delete leading and trailing silent blocks : No
Null samples used in CRC calculations : Yes
Used interface : Installed external ASPI interface

Used output format : User Defined Encoder
Selected bitrate : 768 kBit/s
Quality : High
Add ID3 tag : No
Command line compressor : C:\Program Files\Exact Audio Copy\Flac\flac.exe
Additional command line options : -8 -V %s


TOC of the extracted CD

Track | Start | Length | Start sector | End sector
––––––––––––––––––––––––––––-
1 | 0:00.32 | 5:19.18 | 32 | 23974
2 | 5:19.50 | 1:26.32 | 23975 | 30456
3 | 6:46.07 | 4:00.20 | 30457 | 48476


Range status and errors

Selected range

Filename C:\Music\Phil Collins - Another Day In Paradise (CD3).wav

Peak level 99.3 %
Range quality 100.0 %
Test CRC DDFDB252
Copy CRC DDFDB252
Copy OK

No errors occurred


AccurateRip summary

Track 1 accurately ripped (confidence 3) [5C3D9CF7]
Track 2 accurately ripped (confidence 3) [3317525F]
Track 3 accurately ripped (confidence 3) [7E75DB18]

All tracks accurately ripped

End of status report


[CUETools log; Date: 07.05.2018 18:16:53; Version: 2.1.5]
Pregap length 00:00:32.
[AccurateRip ID: 0001921d-000515cd-14028603] found.
Track [ CRC | V2 ] Status
01 [5c3d9cf7|9d1e50af] (06+06/14) Accurately ripped
02 [3317525f|f01af1b1] (06+05/13) Accurately ripped
03 [7e75db18|93a734ec] (06+05/13) Accurately ripped
Offsetted by 294:
01 [4927952e] (02/14) Accurately ripped
02 [e67b0b91] (02/13) Accurately ripped
03 [100c4315] (02/13) Accurately ripped

Track Peak [ CRC32 ] [W/O NULL] [ LOG ]
– 99,3 [DDFDB252] [F21EB44E] CRC32
01 85,0 [DC13A5B7] [12C6DE48]
02 94,7 [DE88C9B3] [768BAE2E]
03 99,3 [D5830C75] [2BFBDACB]


Phil Collins: Singles Collection part 1 (1988 - 1993)

Tracklist CD04 - 1990 - I Wish It Would Rain Down Repost:
Virgin, VSCD 1240

01. I Wish It Would Rain Down [0:05:31.84]
02. Homeless ('Another Day In Paradise' demo) [0:04:14.82]
03. You're Been In Love (That Little Bit Too Long) [0:04:49.90]

Exact Audio Copy V0.99 prebeta 5 from 4. May 2009

EAC extraction logfile from 29. January 2010, 21:16

Phil Collins / I Wish It Would Rain Down (CD-Single)

Used drive : HL-DT-STDVDRAM_GSA-T20N Adapter: 0 ID: 0

Read mode : Secure
Utilize accurate stream : Yes
Defeat audio cache : Yes
Make use of C2 pointers : No

Read offset correction : 667
Overread into Lead-In and Lead-Out : No
Fill up missing offset samples with silence : Yes
Delete leading and trailing silent blocks : No
Null samples used in CRC calculations : Yes
Used interface : Installed external ASPI interface

Used output format : User Defined Encoder
Selected bitrate : 768 kBit/s
Quality : High
Add ID3 tag : No
Command line compressor : C:\Program Files\Exact Audio Copy\Flac\flac.exe
Additional command line options : -8 -V %s


TOC of the extracted CD

Track | Start | Length | Start sector | End sector
––––––––––––––––––––––––––––-
1 | 0:00.32 | 5:31.63 | 32 | 24919
2 | 5:32.20 | 4:14.62 | 24920 | 44031
3 | 9:47.07 | 4:49.68 | 44032 | 65774


Range status and errors

Selected range

Filename C:\Music\Phil Collins - I Wish It Would Rain Down (CD3).wav

Peak level 99.9 %
Range quality 99.9 %
Test CRC F4A704E5
Copy CRC F4A704E5
Copy OK

No errors occurred


AccurateRip summary

Track 1 accurately ripped (confidence 1) [5F0801AC]
Track 2 accurately ripped (confidence 1) [8905DA24]
Track 3 accurately ripped (confidence 1) [72DFA929]

All tracks accurately ripped

End of status report


[CUETools log; Date: 07.05.2018 18:17:45; Version: 2.1.5]
Pregap length 00:00:32.
[AccurateRip ID: 00020e67-0006ca8c-22036d03] found.
Track [ CRC | V2 ] Status
01 [5f0801ac|6f4aa2a3] (05+07/12) Accurately ripped
02 [8905da24|04001972] (05+08/13) Accurately ripped
03 [72dfa929|cf7edece] (06+08/14) Accurately ripped

Track Peak [ CRC32 ] [W/O NULL] [ LOG ]
– 99,9 [F4A704E5] [2EE7CB3E] CRC32
01 99,9 [E8F05C3D] [25D3F57D]
02 78,8 [E46CE2B0] [1A5E3190]
03 97,2 [5775C55D] [CB074C77]


Phil Collins: Singles Collection part 1 (1988 - 1993)

Tracklist CD05 - 1994 - We Wait And We Wonder Repost:
WEA, 4509-96058-2

01. We wait and we wonder (Edit) [0:05:48.66]
02. For a friend [0:06:06.13]
03. Take me with you [0:05:25.42]
04. Hero (Demo Version) [0:04:45.37]

Exact Audio Copy V0.99 prebeta 5 from 4. May 2009

EAC extraction logfile from 22. January 2010, 19:00

Phil Collins / We wait and we wonder (Single)

Used drive : HL-DT-STDVDRAM_GSA-T20N Adapter: 0 ID: 0

Read mode : Secure
Utilize accurate stream : Yes
Defeat audio cache : Yes
Make use of C2 pointers : No

Read offset correction : 667
Overread into Lead-In and Lead-Out : No
Fill up missing offset samples with silence : Yes
Delete leading and trailing silent blocks : No
Null samples used in CRC calculations : Yes
Used interface : Installed external ASPI interface

Used output format : User Defined Encoder
Selected bitrate : 768 kBit/s
Quality : High
Add ID3 tag : No
Command line compressor : C:\Program Files\Exact Audio Copy\Flac\flac.exe
Additional command line options : -8 -V %s


TOC of the extracted CD

Track | Start | Length | Start sector | End sector
––––––––––––––––––––––––––––-
1 | 0:00.00 | 5:48.50 | 0 | 26149
2 | 5:48.50 | 6:06.10 | 26150 | 53609
3 | 11:54.60 | 5:25.32 | 53610 | 78016
4 | 17:20.17 | 4:45.28 | 78017 | 99419


Range status and errors

Selected range

Filename C:\Music\Phil Collins - We wait and we wonder.wav

Peak level 97.7 %
Range quality 99.9 %
Test CRC A243EBE8
Copy CRC A243EBE8
Copy OK

No errors occurred


AccurateRip summary

Track 1 accurately ripped (confidence 3) [F70BDD2B]
Track 2 accurately ripped (confidence 3) [61931233]
Track 3 accurately ripped (confidence 3) [DED1675F]
Track 4 accurately ripped (confidence 3) [FE608A25]

All tracks accurately ripped

End of status report


[CUETools log; Date: 07.05.2018 18:23:20; Version: 2.1.5]
[AccurateRip ID: 0003ecad-000f995b-1f052d04] found.
Track [ CRC | V2 ] Status
01 [f70bdd2b|eaa43de2] (09+11/20) Accurately ripped
02 [61931233|026bf0a3] (09+11/20) Accurately ripped
03 [ded1675f|b9f8dd9b] (09+11/20) Accurately ripped
04 [fe608a25|d0a25ac5] (09+11/20) Accurately ripped

Track Peak [ CRC32 ] [W/O NULL] [ LOG ]
– 97,7 [A243EBE8] [6C8A9E28] CRC32
01 97,7 [E2F54B68] [3F7E4D36]
02 97,7 [2A8E05C7] [9485D060]
03 97,7 [B9414B90] [CD77B3AC]
04 90,0 [70A384E4] [3C098E27]


Phil Collins: Singles Collection part 1 (1988 - 1993)

Tracklist CD06 - 1993 - Both Sides Of the Story Repost:
WEA, VSCDT 1500

01. Phil Collins - Both Sides Of The Story [0:06:41.96]
02. Phil Collins - Always (Live) [0:04:36.86]
03. Phil Collins - Both Sides Of The Demo (Early Demo With Extra Lyrics By David Crosby) [0:06:59.37]
04. Phil Collins - Rad Dudeski [0:03:35.42]

Exact Audio Copy V0.99 prebeta 5 from 4. May 2009

EAC extraction logfile from 21. January 2010, 9:24

Phil Collins / Both Sides Of The Story

Used drive : HL-DT-STDVDRAM_GSA-T20N Adapter: 0 ID: 0

Read mode : Secure
Utilize accurate stream : Yes
Defeat audio cache : Yes
Make use of C2 pointers : No

Read offset correction : 667
Overread into Lead-In and Lead-Out : No
Fill up missing offset samples with silence : Yes
Delete leading and trailing silent blocks : No
Null samples used in CRC calculations : Yes
Used interface : Native Win32 interface for Win NT & 2000

Used output format : User Defined Encoder
Selected bitrate : 768 kBit/s
Quality : High
Add ID3 tag : No
Command line compressor : C:\Program Files\Exact Audio Copy\Flac\flac.exe
Additional command line options : -6 -V -T "ARTIST=%a" -T "TITLE=%t" -T "ALBUM=%g" -T "DATE=%y" -T "TRACKNUMBER=%n" -T "GENRE=%m" -T "COMMENT=%e" %s -o %d


TOC of the extracted CD

Track | Start | Length | Start sector | End sector
––––––––––––––––––––––––––––-
1 | 0:00.00 | 6:41.72 | 0 | 30146
2 | 6:41.72 | 4:36.65 | 30147 | 50911
3 | 11:18.62 | 6:59.28 | 50912 | 82364
4 | 18:18.15 | 3:35.32 | 82365 | 98521


Range status and errors

Selected range

Filename D:\Music\Phil Collins - Singles Collection\Phil Collins - Both Sides Of The Story (Cardsleeve).wav

Peak level 97.7 %
Range quality 100.0 %
Test CRC 53F3FCEC
Copy CRC 53F3FCEC
Copy OK

No errors occurred


AccurateRip summary

Track 1 accurately ripped (confidence 5) [0AC8757F]
Track 2 accurately ripped (confidence 5) [A947CF28]
Track 3 accurately ripped (confidence 5) [A87B4D62]
Track 4 accurately ripped (confidence 5) [6FBA7C86]

All tracks accurately ripped

End of status report


[CUETools log; Date: 10.05.2018 15:26:40; Version: 2.1.5]
[CTDB TOCID: HwUfX8vf5QjNDiUJquO4ct6K6To-] found.
Track | CTDB Status
1 | (76/76) Accurately ripped
2 | (76/76) Accurately ripped
3 | (76/76) Accurately ripped
4 | (75/76) Accurately ripped
[AccurateRip ID: 0003ff3a-000fcb5d-19052104] found.
Track [ CRC | V2 ] Status
01 [0ac8757f|abf93ccf] (06+04/56) Accurately ripped
02 [a947cf28|73b3f123] (06+04/58) Accurately ripped
03 [a87b4d62|265e819b] (06+04/57) Accurately ripped
04 [6fba7c86|cdb7f7e7] (06+04/58) Accurately ripped

Track Peak [ CRC32 ] [W/O NULL] [ LOG ]
– 97,7 [53F3FCEC] [BCC20DF4] CRC32
01 97,7 [11A49E0D] [FB8E4E1D]
02 97,7 [3DC209A7] [1AEC87F6]
03 97,7 [C22B1715] [0E1B1B1B]
04 97,7 [5ED6CEB0] [AC9FDA5D]


All thanks go to the original releaser

Phil Collins or Phil Collins in my Blog

Download Phil Collins: Singles Collection part 1 (1988 - 1993):