Subcategories

Phil Collins - Testify (2002) [Deluxe Edition, 2016] 2CD

Posted By: Andi_Deris
Phil Collins - Testify (2002) [Deluxe Edition, 2016] 2CD

Phil Collins - Testify (2002) [Deluxe Edition, 2016] 2CD
EAC Rip | FLAC: Image+Cue+Log | 754 Mb | MP3 CBR 320 kbps | 250 Mb | Scans | Time: 57:27 + 47:26
Genre: Pop Rock, Soft Rock | Label: Rhino/Warner Bros. | Cat.: 081227951887 PCCD 2002

2002’s ‘Testify’ remains his most recent album of original material. Perhaps his most low-key and reflective work as demonstrated with ‘This Love This Heart’ and ‘You Touch My Heart, ‘Testify’ nonetheless moves confidently into other territory with the escalating beats and rhythms of ‘Driving Me Crazy’ and the gospel-tinged title track. The album’s lead single, an interpretation of Leo Sayer’s ‘I Can’t Stop Loving You’ demonstrated Collins’ continuing ability to create hits, as it topped Billboard’s Adult Contemporary chart. 2CD deluxe edtion includes rareties previously unavaible on cd.

Phil Collins - Testify (2002) [Deluxe Edition, 2016] 2CD




Phil Collins - Testify (2002) [Deluxe Edition, 2016] 2CD


CD1: Testify

01. Wake Up Call (5:16)
02. Come With Me (4:34)
03. Testify (6:32)
04. Don't Get Me Started (4:42)
05. Swing Low (5:08)
06. It's Not Too Late (4:00)
07. This Love This Heart (4:05)
08. Driving Me Crazy (4:38)
09. The Least You Can Do (4:22)
10. Can't Stop Loving You (4:17)
11. Thru My Eyes (5:08)
12. You Touch My Heart (4:46)

Phil Collins - Testify (2002) [Deluxe Edition, 2016] 2CD


CD2: Additional Testimony

01. High Fly Angel (B Side) (4:43)
02. Crystal Clear (B Side) (3:06)
03. Hey Now Sunshine (B Side) (5:02)
04. Tv Story (B Side) (4:06)
05. True Colors (Live) (5:32)
06. Come With Me (Live) (5:13)
07. It's Not Too Late (Live) (4:03)
08. Can't Stop Loving You (Live) (4:34)
09. It's Only Loving (Demo) (5:23)
10. Tearing And Breaking (Demo) (5:44)

Produced by Phil Collins and Rob Cavallo

Musicians

• Phil Collins: vocals, all instruments except where noted
• Daryl Stuermer: guitar (9,10)
• Tim Pierce: guitars (1-11), nylon guitar (12)
• Paul Bushnell: bass guitar (3-10)
• Jamie Muhoberac: keyboards (9,10)
• Eric Rigler: Uilleann pipes (9)
• James Sangar: additional programming (1,2,3,4,5,11)

Exact Audio Copy V1.1 from 23. June 2015

EAC extraction logfile from 14. April 2016, 18:21

Phil Collins / Testify (Remastered)

Used drive : PIONEER DVD-RW DVR-221L Adapter: 1 ID: 1

Read mode : Secure
Utilize accurate stream : Yes
Defeat audio cache : Yes
Make use of C2 pointers : No

Read offset correction : 6
Overread into Lead-In and Lead-Out : No
Fill up missing offset samples with silence : Yes
Delete leading and trailing silent blocks : No
Null samples used in CRC calculations : Yes
Used interface : Native Win32 interface for Win NT & 2000

Used output format : Internal WAV Routines
Sample format : 44.100 Hz; 16 Bit; Stereo


TOC of the extracted CD

Track | Start | Length | Start sector | End sector
––––––––––––––––––––––––––––-
1 | 0:00.00 | 5:15.70 | 0 | 23694
2 | 5:15.70 | 4:34.17 | 23695 | 44261
3 | 9:50.12 | 6:31.39 | 44262 | 73625
4 | 16:21.51 | 4:41.34 | 73626 | 94734
5 | 21:03.10 | 5:08.24 | 94735 | 117858
6 | 26:11.34 | 3:59.49 | 117859 | 135832
7 | 30:11.08 | 4:04.55 | 135833 | 154187
8 | 34:15.63 | 4:37.50 | 154188 | 175012
9 | 38:53.38 | 4:21.73 | 175013 | 194660
10 | 43:15.36 | 4:16.34 | 194661 | 213894
11 | 47:31.70 | 5:07.65 | 213895 | 236984
12 | 52:39.60 | 4:46.30 | 236985 | 258464


Range status and errors

Selected range

Filename K:\SPOTNET\Phil Collins - Testify 2016 (EAC)\CD1\Phil Collins - Testify (Remastered).wav

Peak level 98.7 %
Extraction speed 7.5 X
Range quality 100.0 %
Test CRC 154AC114
Copy CRC 154AC114
Copy OK

No errors occurred


AccurateRip summary

Track 1 not present in database
Track 2 not present in database
Track 3 not present in database
Track 4 not present in database
Track 5 not present in database
Track 6 not present in database
Track 7 not present in database
Track 8 not present in database
Track 9 not present in database
Track 10 not present in database
Track 11 not present in database
Track 12 not present in database

None of the tracks are present in the AccurateRip database

End of status report

Exact Audio Copy V1.1 from 23. June 2015

EAC extraction logfile from 14. April 2016, 18:42

Phil Collins / Additional Testimony

Used drive : PIONEER DVD-RW DVR-221L Adapter: 1 ID: 1

Read mode : Secure
Utilize accurate stream : Yes
Defeat audio cache : Yes
Make use of C2 pointers : No

Read offset correction : 6
Overread into Lead-In and Lead-Out : No
Fill up missing offset samples with silence : Yes
Delete leading and trailing silent blocks : No
Null samples used in CRC calculations : Yes
Used interface : Native Win32 interface for Win NT & 2000

Used output format : Internal WAV Routines
Sample format : 44.100 Hz; 16 Bit; Stereo


TOC of the extracted CD

Track | Start | Length | Start sector | End sector
––––––––––––––––––––––––––––-
1 | 0:00.00 | 4:43.05 | 0 | 21229
2 | 4:43.05 | 3:05.38 | 21230 | 35142
3 | 7:48.43 | 5:02.04 | 35143 | 57796
4 | 12:50.47 | 4:05.69 | 57797 | 76240
5 | 16:56.41 | 5:31.43 | 76241 | 101108
6 | 22:28.09 | 5:13.25 | 101109 | 124608
7 | 27:41.34 | 4:03.32 | 124609 | 142865
8 | 31:44.66 | 4:33.70 | 142866 | 163410
9 | 36:18.61 | 5:22.35 | 163411 | 187595
10 | 41:41.21 | 5:43.66 | 187596 | 213386


Range status and errors

Selected range

Filename K:\SPOTNET\Phil Collins - Testify 2016 (EAC)\CD2\Phil Collins - Additional Testimony.wav

Peak level 98.9 %
Extraction speed 7.2 X
Range quality 100.0 %
Test CRC 4A1DFE24
Copy CRC 4A1DFE24
Copy OK

No errors occurred


AccurateRip summary

Track 1 not present in database
Track 2 not present in database
Track 3 not present in database
Track 4 not present in database
Track 5 not present in database
Track 6 not present in database
Track 7 not present in database
Track 8 not present in database
Track 9 not present in database
Track 10 not present in database

None of the tracks are present in the AccurateRip database

End of status report


Many thanks to the original uploader


Genesis 1969 From Genesis To Revelation (Japan, 2004)
Genesis 2004 Platinum Collection [3CD-Box]

GTR 1986 GTR

Phil Collins 1985 No Jacket Required [Deluxe Edition, 2016] 2CD
Phil Collins 2004 Finally…The First Farewell Tour [2xDVD]

Steve Hackett 1975 Voyage Of The Acolyte [Remastered 2005]
Steve Hackett 1975 Voyage Of The Acolyte [Japan Mini-LP CD 2006]
Steve Hackett 1978 Please Don't Touch! [UK 1st Press, 1989]
Steve Hackett 1978 Please Don't Touch! [Remastered 2005]
Steve Hackett 1978 Please Don't Touch! [Japan Mini-LP CD 2006]
Steve Hackett 1979 Spectral Mornings [UK 1st Press, 1989]
Steve Hackett 1979 Spectral Mornings [Remastered 2005]
Steve Hackett 1979 Spectral Mornings [Japan Mini-LP CD 2006]
Steve Hackett 1980 Defector [UK 1st Press, 1989]
Steve Hackett 1980 Defector [Japan Mini-LP CD 2006]
Steve Hackett 1981 Cured [Remastered 2007]
Steve Hackett 1983 Highly Strung [Reissue 1989]
Steve Hackett 1983 Bay Of Kings [Japanese Ed. 2007]
Steve Hackett 1984 Till We Have Faces
Steve Hackett 1997 A Midsummer Night's Dream
Steve Hackett 1998 The Tokyo Tapes [SH Records, 2000] 2CD
Steve Hackett 1999 Darktown
Steve Hackett 2000 Feedback 86
Steve Hackett 2001 The Tokyo Tapes: Live In Japan [DVD9]
Steve Hackett 2005 Metamorpheus
Steve Hackett 2005 Spectral Mornings [DVD5]
Steve Hackett 2006 Wild Orchids
Steve Hackett 2006 Wild Orchids [Special Ed.]
Steve Hackett 2008 Tribute
Steve Hackett 2009 Out Of The Tunnel's Mouth
Steve Hackett 2010 Out Of The Tunnel's Mouth [Special Ed.] 2CD
Steve Hackett 2011 Fire And Ice [DVD9]
Steve Hackett 2013 Genesis Revisited II: Selection
Steve Hackett 2015 Wolflight [Special Ed.]
––––––––––
Nitroflare