Phil Keaggy - The Master And The Musician (1978) [Reissue 1989]

Posted By: Andi_Deris
Phil Keaggy - The Master And The Musician (1978) [Reissue 1989]

Phil Keaggy - The Master And The Musician (1978) [Reissue 1989]
EAC Rip | FLAC: Tracks+Cue+Log | 257 Mb | MP3 CBR 320 kbps | 124 Mb | Scans | 25 Mb | Time: 48:59
Myrrh | 701-6891-615
Chamber Folk, Contemporary Christian, Guitar Virtuoso

The Master and the Musician is the title of the first entirely instrumental album by guitarist Phil Keaggy, released in 1978, on NewSong Records. It was later reissued, with a bonus track, on Myrrh Records in 1989. Phil Keaggy's first instrumental album is a groundbreaking piece of work for him as an artist, for the Christian music genre, and for instrumental guitar music in general. Full of emotional twists, meditative sounds, and world-influenced tonalities, The Master & the Musician stands as an oasis in an otherwise barren field of Christian instrumental music. Pieces like "Jungle Pleasures" and "Follow Me Up" are great works in their own right, Christian or otherwise. An excellent work from an excellent musician.

Phil Keaggy - The Master And The Musician (1978) [Reissue 1989]




Track Listing

01. Piligrim's Flight (02:24)
02. Agora (The Marketplace) (03:30)
03. The Castle's Call (00:48)
04. Wedding in the Country Manor (03:22)
05. Suite-of Reflections (05:48)
06. Golden Halls (05:08)
07. Mouthpiece (01:18)
08. Follow Me Up (04:07)
09. Jungle Pleasures (00:59)
10. Deep Calls Unto Deep (03:56)
11. Medley: Evensong/Twilight/Forever Joy (07:09)
12. The High And Exalted One (01:51)
13. Epilogue/Amazing Grace (bonus track on 1989 reissue) (08:40)

Produced by Phil Keaggy

Personnel

• Phil Keaggy: classic, electric, and Ebow guitars, bass, ARP bass synthesizer, drums and percussion, voices
• Bernadette Keaggy: voices
• Tom Baker: bass on "Agora (The Marketplace)"
• Nick Kircher: recorders and oboe on "Deep Calls Unto Deep"
• Philip Kimbrough: recorders on "Medley"
• Peter Pfiefer: percussion on "Epilogue"
• Jim Issacs: oboe on "Epilogue"
• Tom Fryer: keyboards on "Agora", "Suite", "Golden Halls", and "The High and Exalted One"
• Susan Kircher: flute on "The Castle's Call", and "Wedding in the Country Manor"

Exact Audio Copy V0.99 prebeta 5 from 4. May 2009

EAC extraction logfile from 3. March 2011, 16:40

Phil Keaggy / The Master And The Musician (1989 US Myrrh 701-6891-615)

Used drive : ATAPI DVD D DH16D2S Adapter: 3 ID: 0

Read mode : Secure
Utilize accurate stream : Yes
Defeat audio cache : Yes
Make use of C2 pointers : No

Read offset correction : 6
Overread into Lead-In and Lead-Out : No
Fill up missing offset samples with silence : Yes
Delete leading and trailing silent blocks : No
Null samples used in CRC calculations : Yes
Used interface : Native Win32 interface for Win NT & 2000
Gap handling : Appended to previous track

Used output format : User Defined Encoder
Selected bitrate : 1024 kBit/s
Quality : High
Add ID3 tag : No
Command line compressor : C:\Program Files\Exact Audio Copy\FLAC\FLAC.EXE
Additional command line options : -8 -V -T "ARTIST=%a" -T "TITLE=%t" -T "ALBUM=%g" -T "DATE=%y" -T "TRACKNUMBER=%n" -T "GENRE=%m" -T "COMMENT=%e" %s -o %d


TOC of the extracted CD

Track | Start | Length | Start sector | End sector
––––––––––––––––––––––––––––-
1 | 0:00.00 | 2:23.52 | 0 | 10776
2 | 2:23.52 | 3:30.00 | 10777 | 26526
3 | 5:53.52 | 0:48.15 | 26527 | 30141
4 | 6:41.67 | 3:21.33 | 30142 | 45249
5 | 10:03.25 | 5:48.07 | 45250 | 71356
6 | 15:51.32 | 5:08.00 | 71357 | 94456
7 | 20:59.32 | 1:17.63 | 94457 | 100294
8 | 22:17.20 | 4:06.35 | 100295 | 118779
9 | 26:23.55 | 0:59.20 | 118780 | 123224
10 | 27:23.00 | 3:56.07 | 123225 | 140931
11 | 31:19.07 | 7:08.50 | 140932 | 173081
12 | 38:27.57 | 1:50.45 | 173082 | 181376
13 | 40:18.27 | 8:39.65 | 181377 | 220366


Track 1

Filename D:\Y\y\01 Piligrim's Flight.wav

Pre-gap length 0:00:02.00

Peak level 81.6 %
Track quality 100.0 %
Test CRC FD3D7FD8
Copy CRC FD3D7FD8
Copy OK

Track 2

Filename D:\Y\y\02 Agora (The Marketplace).wav

Pre-gap length 0:00:03.52

Peak level 100.0 %
Track quality 100.0 %
Test CRC 5074A47B
Copy CRC 5074A47B
Copy OK

Track 3

Filename D:\Y\y\03 The Castle's Call.wav

Pre-gap length 0:00:04.30

Peak level 53.1 %
Track quality 100.0 %
Test CRC FBBF0315
Copy CRC FBBF0315
Copy OK

Track 4

Filename D:\Y\y\04 Wedding in the Country Manor.wav

Pre-gap length 0:00:01.40

Peak level 85.3 %
Track quality 100.0 %
Test CRC 120F0EF3
Copy CRC 120F0EF3
Copy OK

Track 5

Filename D:\Y\y\05 Suite-of Reflections.wav

Pre-gap length 0:00:02.10

Peak level 100.0 %
Track quality 100.0 %
Test CRC 0C9B7152
Copy CRC 0C9B7152
Copy OK

Track 6

Filename D:\Y\y\06 Golden Halls.wav

Pre-gap length 0:00:02.32

Peak level 95.8 %
Track quality 100.0 %
Test CRC 64AEE421
Copy CRC 64AEE421
Copy OK

Track 7

Filename D:\Y\y\07 Mouthpiece.wav

Pre-gap length 0:00:00.22

Peak level 70.9 %
Track quality 100.0 %
Test CRC 3B236565
Copy CRC 3B236565
Copy OK

Track 8

Filename D:\Y\y\08 Follow Me Up.wav

Pre-gap length 0:00:01.40

Peak level 100.0 %
Track quality 100.0 %
Test CRC B0053539
Copy CRC B0053539
Copy OK

Track 9

Filename D:\Y\y\09 Jungle Pleasures.wav

Pre-gap length 0:00:00.68

Peak level 77.6 %
Track quality 100.0 %
Test CRC 2B66D9F5
Copy CRC 2B66D9F5
Copy OK

Track 10

Filename D:\Y\y\10 Deep Calls Unto Deep.wav

Pre-gap length 0:00:03.10

Peak level 69.4 %
Track quality 99.9 %
Test CRC EBD3B9E2
Copy CRC EBD3B9E2
Copy OK

Track 11

Filename D:\Y\y\11 Medley- Evensong,Twilight,Forever Joy.wav

Pre-gap length 0:00:01.40

Peak level 95.6 %
Track quality 99.9 %
Test CRC A68C645C
Copy CRC A68C645C
Copy OK

Track 12

Filename D:\Y\y\12 The High And Exalted One.wav

Pre-gap length 0:00:03.65

Peak level 63.1 %
Track quality 99.9 %
Test CRC 67ECBF8C
Copy CRC 67ECBF8C
Copy OK

Track 13

Filename D:\Y\y\13 Epilogue,Amazing Grace.wav

Pre-gap length 0:00:01.69

Peak level 52.0 %
Track quality 100.0 %
Test CRC 7F74DD9E
Copy CRC 7F74DD9E
Copy OK

No errors occurred

End of status report


Many thanks to the original uploader: neytiri_navi



Glass Harp 1970 Glass Harp [Remastered, 2005]
Glass Harp 1971 Synergy [Remastered, 2005]
Glass Harp 1972 It Makes Me Glad [Remastered, 2005]
Glass Harp 1997 Live! At Carnegie Hall
Glass Harp 2001 Strings Attached [Live] 2CD
Glass Harp 2003 Hourglass
Glass Harp 2004 Stark Raving Jams [Live] 3CD
Glass Harp 2010 Live At The Beachland Ballroom 11.01.08

Greg X. Volz 1986 The River Is Rising
Greg X. Volz 1988 Come Out Fighting
Greg X. Volz 1989 No Room In The Middle
Greg X. Volz 1991 The Exodus

Halo 1990 Halo / 1991 Heaven Calling

John Elefante - Discography (1995-2013)

John Schlitt 1995 Shake
John Schlitt 2012 The Greater Cause

Mastedon - Discography (1989-2009)

Petra 1974 Petra [Reissue 1992]
Petra 1977 Come And Join Us [Reissue 1995]
Petra 1979 Washes Whiter Than / 1981 Never Say Die [Reissue 1988]
Petra 1982 More Power To Ya
Petra 1983 Not Of This World
Petra 1984 Beat The System
Petra 1986 Captured In Time And Space (Live)
Petra 1986 Captured In Time And Space (Live) [DVD]
Petra 1986 Back To The Street
Petra 1987 This Means War!
Petra 1988 On Fire!
Petra 1989 Petra Means Rock [Compilation]
Petra 1989 Petra Praise… The Rock Cries Out
Petra 1990 Beyond Belief
Petra 1990 Beyond Belief [DVD]
Petra 1991 Unseen Power
Petra 1993 Wake-Up Call
Petra 1995 No Doubt
Petra 1997 Petra Praise 2: We Need Jesus
Petra 1998 God Fixation
Petra 2000 Double Take
Petra 2001 Revival
Petra 2003 Jekyll & Hyde
Petra 2003 The Power Of Praise [Compilation]
Petra 2006 Farewell [DVD]
II Guys From Petra 2007 Vertical Expressions
Classic Petra 2010 Back To The Rock

V.A. 1996 Never Say Dinosaur - Tribute To Petra




Password: pass