Subcategories

Phil Keaggy - Way Back Home (1986) [Reissue 1994]

Posted By: Andi_Deris
Phil Keaggy - Way Back Home (1986) [Reissue 1994]

Phil Keaggy - Way Back Home (1986) [Reissue 1994]
EAC Rip | FLAC: Tracks+Cue+Log | 366 Mb | MP3 CBR 320 kbps | 168 Mb | Scans | 159 Mb | Time: 01:00:55
Sparrow Records | G2-7243-8 51459-2-6 / SPD1459
Soft Rock, Contemporary Christian, Guitar Virtuoso

Keaggy actually recorded the majority of this album years ago, but it was not considered commercially viable and, therefore, remained unreleased. It is extremely fortunate that it has been made available, because this contains some of Keaggy's most beautiful and touching work. It is very much a gentle acoustic album, comparable to Beyond Nature with vocals, with personal lyrics related to family and Christian struggles. Particular strengths include the beautiful duet with his daughter "Father-Daughter Harmony," and the lyrically powerful "It Could've Been Me" and "Maker of the Universe," and the exquisite "Let Everything Else Go." The album closes with a perfect encapsulation: Keaggy takes an old 78 rpm recording of his grandparents' 50th wedding anniversary and creates an acoustic guitar soundtrack for it, weaving comments from his family in with his music. It is at once deeply personal and universal, poignantly expressed through Keaggy's masterly musicianship. A beautiful, emotional album. Review by Marc Castellani

Phil Keaggy - Way Back Home (1986) [Reissue 1994]




Track Listing

01. Way Back Home (04:20)
02. A New Star (03:36)
03. Father-Daughter Harmony (04:27)
04. It Could've Been Me (05:13)
05. In Every Need (04:58)
06. She's A Dancer (03:00)
07. Let Everything Else Go (04:56)
08. Olivia (03:27)
09. Once I Prayed (03:16)
10. Noah's Song (04:02)
11. Maker Of The Universe (03:12)
12. Be In Time (04:26)
13. Here And Now (02:43)
14. The 50th (09:19)

Produced by Smitty Price and Phil Keaggy

Personnel

• Phil Keaggy: guitars, vocals, electric bass, recorders
• Alex Acuña: drums
• Ken Lewis: drums, percussion
• Brad Dutz: percussion
• David Stone: string bass
• Jim Isaacs: oboe, English horn
• Jon Clarke: clarinet, soprano sax, oboe
• Blair Masters: keyboards
• Alicia Keaggy: vocals
• Olivia Keaggy: additional harmony
• Danny O'Lannerghty: string bass
• Allan Bradley: piano
• Ian McKinnell: cello
• John Walls Strings and Woodwinds arranged by Tom Howard
• String section: Pavel Farkus, Gail Cruz, R. F. Peterson, Ken Burwood-Hoy

Notes

Way Back Home is an album by guitarist Phil Keaggy, released in 1986 on Pan Pacific Records. A heavily revised reissue of the album — with a different cover, a different track order, new songs, one original track omitted, and several other tracks remixed or partially rerecorded — was released in 1994 on Sparrow Records.

Exact Audio Copy V0.99 prebeta 5 from 4. May 2009

EAC extraction logfile from 9. March 2011, 16:07

Phil Keaggy / Way Back Home (1994 US Sparrow G2-7243-8 51459-2-6 SPD1459)

Used drive : ATAPI DVD D DH16D2S Adapter: 3 ID: 0

Read mode : Secure
Utilize accurate stream : Yes
Defeat audio cache : Yes
Make use of C2 pointers : No

Read offset correction : 6
Overread into Lead-In and Lead-Out : No
Fill up missing offset samples with silence : Yes
Delete leading and trailing silent blocks : No
Null samples used in CRC calculations : Yes
Used interface : Native Win32 interface for Win NT & 2000
Gap handling : Appended to previous track

Used output format : User Defined Encoder
Selected bitrate : 1024 kBit/s
Quality : High
Add ID3 tag : No
Command line compressor : C:\Program Files\Exact Audio Copy\FLAC\FLAC.EXE
Additional command line options : -8 -V -T "ARTIST=%a" -T "TITLE=%t" -T "ALBUM=%g" -T "DATE=%y" -T "TRACKNUMBER=%n" -T "GENRE=%m" -T "COMMENT=%e" %s -o %d


TOC of the extracted CD

Track | Start | Length | Start sector | End sector
––––––––––––––––––––––––––––-
1 | 0:00.00 | 4:19.40 | 0 | 19464
2 | 4:19.40 | 3:36.22 | 19465 | 35686
3 | 7:55.62 | 4:26.70 | 35687 | 55706
4 | 12:22.57 | 5:12.68 | 55707 | 79174
5 | 17:35.50 | 4:58.07 | 79175 | 101531
6 | 22:33.57 | 3:00.00 | 101532 | 115031
7 | 25:33.57 | 4:55.63 | 115032 | 137219
8 | 30:29.45 | 3:27.00 | 137220 | 152744
9 | 33:56.45 | 3:15.60 | 152745 | 167429
10 | 37:12.30 | 4:01.60 | 167430 | 185564
11 | 41:14.15 | 3:12.07 | 185565 | 199971
12 | 44:26.22 | 4:25.35 | 199972 | 219881
13 | 48:51.57 | 2:42.55 | 219882 | 232086
14 | 51:34.37 | 9:19.15 | 232087 | 274026


Track 1

Filename D:\Y\y\01 Way Back Home.wav

Pre-gap length 0:00:02.00

Peak level 63.4 %
Track quality 100.0 %
Test CRC 0A9A4344
Copy CRC 0A9A4344
Copy OK

Track 2

Filename D:\Y\y\02 A New Star.wav

Pre-gap length 0:00:00.05

Peak level 100.0 %
Track quality 100.0 %
Test CRC A14C4C27
Copy CRC A14C4C27
Copy OK

Track 3

Filename D:\Y\y\03 Father-Daughter Harmony.wav

Pre-gap length 0:00:00.57

Peak level 97.2 %
Track quality 100.0 %
Test CRC B6263120
Copy CRC B6263120
Copy OK

Track 4

Filename D:\Y\y\04 It Could've Been Me.wav

Pre-gap length 0:00:01.22

Peak level 100.0 %
Track quality 100.0 %
Test CRC 43817D5F
Copy CRC 43817D5F
Copy OK

Track 5

Filename D:\Y\y\05 In Every Need.wav

Pre-gap length 0:00:01.25

Peak level 96.2 %
Track quality 100.0 %
Test CRC EA7755A0
Copy CRC EA7755A0
Copy OK

Track 6

Filename D:\Y\y\06 She's A Dancer.wav

Pre-gap length 0:00:00.42

Peak level 70.7 %
Track quality 99.9 %
Test CRC 4731D5EE
Copy CRC 4731D5EE
Copy OK

Track 7

Filename D:\Y\y\07 Let Everything Else Go.wav

Pre-gap length 0:00:00.47

Peak level 96.8 %
Track quality 99.9 %
Test CRC 0651E1B4
Copy CRC 0651E1B4
Copy OK

Track 8

Filename D:\Y\y\08 Olivia.wav

Pre-gap length 0:00:01.30

Peak level 62.1 %
Track quality 100.0 %
Test CRC 4BD4BEE9
Copy CRC 4BD4BEE9
Copy OK

Track 9

Filename D:\Y\y\09 Once I Prayed.wav

Pre-gap length 0:00:00.08

Peak level 79.8 %
Track quality 100.0 %
Test CRC E9FBAD4D
Copy CRC E9FBAD4D
Copy OK

Track 10

Filename D:\Y\y\10 Noah's Song.wav

Pre-gap length 0:00:01.35

Peak level 94.8 %
Track quality 100.0 %
Test CRC 50045E12
Copy CRC 50045E12
Copy OK

Track 11

Filename D:\Y\y\11 Maker Of The Universe.wav

Peak level 74.4 %
Track quality 100.0 %
Test CRC F31A6669
Copy CRC F31A6669
Copy OK

Track 12

Filename D:\Y\y\12 Be In Time.wav

Pre-gap length 0:00:01.05

Peak level 81.2 %
Track quality 100.0 %
Test CRC 2FB15990
Copy CRC 2FB15990
Copy OK

Track 13

Filename D:\Y\y\13 Here And Now.wav

Pre-gap length 0:00:01.15

Peak level 88.5 %
Track quality 100.0 %
Test CRC AA2B9EF6
Copy CRC AA2B9EF6
Copy OK

Track 14

Filename D:\Y\y\14 The 50th.wav

Pre-gap length 0:00:02.02

Peak level 93.8 %
Track quality 99.9 %
Test CRC 57D1364F
Copy CRC 57D1364F
Copy OK

No errors occurred

End of status report


Many thanks to the original uploader: neytiri_navi



Glass Harp 1970 Glass Harp [Remastered, 2005]
Glass Harp 1971 Synergy [Remastered, 2005]
Glass Harp 1972 It Makes Me Glad [Remastered, 2005]
Glass Harp 1997 Live! At Carnegie Hall
Glass Harp 2001 Strings Attached [Live] 2CD
Glass Harp 2003 Hourglass
Glass Harp 2004 Stark Raving Jams [Live] 3CD
Glass Harp 2010 Live At The Beachland Ballroom 11.01.08

Greg X. Volz 1986 The River Is Rising
Greg X. Volz 1988 Come Out Fighting
Greg X. Volz 1989 No Room In The Middle
Greg X. Volz 1991 The Exodus

Halo 1990 Halo / 1991 Heaven Calling

John Elefante - Discography (1995-2013)

John Schlitt 1995 Shake
John Schlitt 2012 The Greater Cause

Mastedon - Discography (1989-2009)

Petra 1974 Petra [Reissue 1992]
Petra 1977 Come And Join Us [Reissue 1995]
Petra 1979 Washes Whiter Than / 1981 Never Say Die [Reissue 1988]
Petra 1982 More Power To Ya
Petra 1983 Not Of This World
Petra 1984 Beat The System
Petra 1986 Captured In Time And Space (Live)
Petra 1986 Captured In Time And Space (Live) [DVD]
Petra 1986 Back To The Street
Petra 1987 This Means War!
Petra 1988 On Fire!
Petra 1989 Petra Means Rock [Compilation]
Petra 1989 Petra Praise… The Rock Cries Out
Petra 1990 Beyond Belief
Petra 1990 Beyond Belief [DVD]
Petra 1991 Unseen Power
Petra 1993 Wake-Up Call
Petra 1995 No Doubt
Petra 1997 Petra Praise 2: We Need Jesus
Petra 1998 God Fixation
Petra 2000 Double Take
Petra 2001 Revival
Petra 2003 Jekyll & Hyde
Petra 2003 The Power Of Praise [Compilation]
Petra 2006 Farewell [DVD]
II Guys From Petra 2007 Vertical Expressions
Classic Petra 2010 Back To The Rock

V.A. 1996 Never Say Dinosaur - Tribute To Petra




Password: pass