Subcategories

Phil Lanzon - If You Think I'm Crazy (2017)

Posted By: v3122
Phil Lanzon - If You Think I'm Crazy (2017)

Phil Lanzon - If You Think I'm Crazy (2017)
EAC | Flac(Image) + Cue + Log & MP3 CBR 320Kbps
Phil Lanzon Ditties, PLD-007-CD | RU | ~ 399 or 131 Mb | Scans(jpg) -> 11.99 Mb
Classic Rock | Unofficial Release

~ Sophisticated, anthemic, vocal rock/pop with narrative driven lyrics. The band, orchestra and choir creating an intoxicating musical experience. ~

Phil Lanzon - If You Think I'm Crazy (2017):

Phil Lanzon - If You Think I'm Crazy (2017)

Tracklist:

01. Mind Over Matter
02. Kelly Gang
03. I Knew I Was Dreaming
04. I Saw Two Englands
05. Step Overture (Instrumental)
06. Lover's Highway
07. Donna & Joe
08. Carolin
09. The Bells
10. Forest

Exact Audio Copy V1.1 from 23. June 2015

EAC extraction logfile from 8. December 2017, 18:40

Phil Lanzon / If You Think I'm Crazy

Used drive : TSSTcorpCDDVDW SH-224DB Adapter: 1 ID: 0

Read mode : Secure
Utilize accurate stream : Yes
Defeat audio cache : Yes
Make use of C2 pointers : No

Read offset correction : 6
Overread into Lead-In and Lead-Out : No
Fill up missing offset samples with silence : Yes
Delete leading and trailing silent blocks : No
Null samples used in CRC calculations : Yes
Used interface : Native Win32 interface for Win NT & 2000

Used output format : User Defined Encoder
Selected bitrate : 1024 kBit/s
Quality : High
Add ID3 tag : No
Command line compressor : C:\Program Files (x86)\Exact Audio Copy\win64\flac.exe
Additional command line options : -8 -V -T "ARTIST=%artist%" -T "TITLE=%title%" -T "ALBUM=%albumtitle%" -T "DATE=%year%" -T "TRACKNUMBER=%tracknr%" -T "GENRE=%genre%" -T "COMMENT=%comment%" %source% -o %dest%


TOC of the extracted CD

Track | Start | Length | Start sector | End sector
––––––––––––––––––––––––––––-
1 | 0:00.00 | 5:57.74 | 0 | 26848
2 | 5:57.74 | 5:43.03 | 26849 | 52576
3 | 11:41.02 | 6:32.14 | 52577 | 81990
4 | 18:13.16 | 4:40.43 | 81991 | 103033
5 | 22:53.59 | 2:23.39 | 103034 | 113797
6 | 25:17.23 | 5:26.53 | 113798 | 138300
7 | 30:44.01 | 5:47.72 | 138301 | 164397
8 | 36:31.73 | 4:46.29 | 164398 | 185876
9 | 41:18.27 | 4:16.34 | 185877 | 205110
10 | 45:34.61 | 8:42.63 | 205111 | 244323


Range status and errors

Selected range

Filename F:\Sket4er\Phil Lanzon – If You Think I'm Crazy 2017\Phil Lanzon - If You Think I'm Crazy.wav

Peak level 97.9 %
Extraction speed 3.1 X
Range quality 100.0 %
Test CRC 4E45D9CC
Copy CRC 4E45D9CC
Copy OK

No errors occurred


AccurateRip summary

Track 1 not present in database
Track 2 not present in database
Track 3 not present in database
Track 4 not present in database
Track 5 not present in database
Track 6 not present in database
Track 7 not present in database
Track 8 not present in database
Track 9 not present in database
Track 10 not present in database

None of the tracks are present in the AccurateRip database

End of status report

–– CUETools DB Plugin V2.1.6

[CTDB TOCID: offiJYmFbf3uqTr3teu2JExTO2w-] disk not present in database
Submit result: offiJYmFbf3uqTr3teu2JExTO2w- has been uploaded


==== Log checksum 41F3CB83516E95DCB819D3D8F1604B26F2713597FC5B2F5CB9D54F7B81F10182 ====


[CUETools log; Date: 10.12.2017 15:40:18; Version: 2.1.5]
[AccurateRip ID: 001415a4-009f2ed2-8e0cb90a] disk not present in database.

Track Peak [ CRC32 ] [W/O NULL] [ LOG ]
– 97,9 [4E45D9CC] [A93A7001] CRC32
01 97,9 [A5221BEC] [6725B7C8]
02 97,9 [7150A87F] [CF070497]
03 97,9 [E25FF060] [77B1CB6E]
04 91,4 [E464D279] [5DA912D3]
05 97,9 [81841080] [9B326F54]
06 91,4 [4790ABAF] [E8C21160]
07 97,9 [0A0408D8] [50D19855]
08 97,9 [F5F16A44] [FECF07A9]
09 97,9 [93BA93FD] [C8BF5612]
10 97,9 [839FA8DC] [546A18BF]


Phil Lanzon - If You Think I'm Crazy (2017)

All thanks go to Sket4er

Phil Lanzon or Phil Lanzon in my Blog

Download Phil Lanzon - If You Think I'm Crazy (2017):