Subcategories

Phil Monsour - Ghosts Of Deir Yassin (2012)

Posted By: popsakov
Phil Monsour - Ghosts Of Deir Yassin (2012)

Phil Monsour - Ghosts Of Deir Yassin (2012)
EAC Rip | FLAC (Img) + Cue + Log ~ 293 Mb | MP3 CBR320 ~ 111 Mb
Scans Included (JPG, 300 dpi) | RAR 5% Recovery
Alternative Rock, Folk Rock | © Phil Monsour #PM012

A powerful collection of upbeat and dynamic rock and folk songs with unique lyrics inspired by the hopes and struggles of real people. Compassionate and inspiring.

Phil Monsour is an “Australian troubadour who sings songs of hope, humanity, invasion and occupations”. (Limelight Magazine). He is a committed independent singer/songwriter with a history of producing music that travels beyond the mainstream to explore complex issues of identity, solidarity and politics. Phil’s songs speak with honesty and insight about people’s lives and personal experiences. He is an accomplished musician on both acoustic and electric guitar and has a strong and passionate voice. Phil’s performance style is both energetic and moving.

Based in Brisbane Phil Monsour has extensive performing and recording experience as a solo performer and with his bands, the Phil Monsour Band, the Cutters and Popproperly. Recent releases include Ghosts of Deir Yassin (2012), the Empire’s New Clothes (2008), Live at Ahimsa House (2010), Lies and Silence (2009), and the Smart Bombs EP (2001). With the band Popproperly, Phil released two albums: Popproperly (1999) and Faint Blue Glow (1998), as well as a number of EPs and singles. Renowned for their high energy folk rock performances, Popproperly toured extensively throughout Europe.

Ghosts of Deir Yassin 2012 Phil Monsour Ghosts of Deir Yassin was recorded at Wavelength Recording in Brisbane with the full band which features Jon Lloyd on Drums, Ian Kimber on Bass and Vocals, Graham Jackson on Guitar and vocals and Phil Monsour on Guitar and Lead Vocals. The music that emerged over a period of several months is an upbeat and dynamic vehicle for Phil’s unique lyrical concerns.

In 2010, Phil Monsour travelled to Lebanon and visited the Burj el Barajneh refugee camp. He also travelled to the West Bank in the Occupied Palestine Territories and attempted unsuccessfully to enter the Gaza Strip. Most of the songs on this CD were written during and shortly after this trip. Inspired by a number of actual experiences, the lyrics are serious but have an accessibility grounded in real experiences and the stories of real people.

In early January 2012 Phil returned overseas to film a video clip for the title song of the CD and spent 5 days filming on location in a number of refugee camps in Jordan and Lebanon. The video was released in May 2012 and coincided with tour dates in Scotland, Ireland and England.

20% of the money from Phil’s CD sales are donated to the Australian Council of Trade Unions overseas development agency for projects in the Middle East.
Phil Monsour - Ghosts Of Deir Yassin (2012)


***************

Phil Monsour - Ghosts Of Deir Yassin (2012)

Track List:

01. Everything But Stop [03:07]
02. Fires Are Burning [03:33]
03. Ghosts Of Deir Yassin [04:10]
04. I Left My Heart In Palestine [02:51]
05. The Dark Tunnels [03:15]
06. The Other Side [03:26]
07. Reading Between The Lines [03:11]
08. Who Locked The Door [03:36]
09. No Distance Only Time [02:51]
10. Gods Of Men [03:41]
11. The Last Time [02:52]
12. Big Country Small Heart [03:22]

The Phil Monsour Band:

Jonathon Lloyd - Drums
Ian Kimber - Bass and vocals
Graham Jackson - Lead electric, acoustic guitar and vocals
Phil Monsour - Lead vocal, acoustic and electric guitars

Plus:

Tom Mason / Keyboards
Joe Panetta / Percussion

Backing Vocals Ghosts of Deir Yassin: Simon Monsour, Marina, Njemere, Elsha, Angelique, Edie, Anisa, and Aleea.

Exact Audio Copy V1.1 from 23. June 2015

EAC extraction logfile from 3. February 2016, 13:40

Phil Monsour / Ghosts Of Deir Yassin

Used drive : TSSTcorpCDDVDW SH-224DB Adapter: 1 ID: 0

Read mode : Secure
Utilize accurate stream : Yes
Defeat audio cache : Yes
Make use of C2 pointers : No

Read offset correction : 6
Overread into Lead-In and Lead-Out : No
Fill up missing offset samples with silence : Yes
Delete leading and trailing silent blocks : No
Null samples used in CRC calculations : Yes
Used interface : Native Win32 interface for Win NT & 2000

Used output format : User Defined Encoder
Selected bitrate : 1024 kBit/s
Quality : High
Add ID3 tag : No
Command line compressor : C:\Program Files (x86)\Exact Audio Copy\win64\flac.exe
Additional command line options : -V -8 -T "Date=%year%" -T "Genre=%genre%" %source%


TOC of the extracted CD

Track | Start | Length | Start sector | End sector
––––––––––––––––––––––––––––-
1 | 0:00.00 | 3:06.45 | 0 | 13994
2 | 3:06.45 | 3:32.64 | 13995 | 29958
3 | 6:39.34 | 4:09.03 | 29959 | 48636
4 | 10:48.37 | 2:50.46 | 48637 | 61432
5 | 13:39.08 | 3:14.35 | 61433 | 76017
6 | 16:53.43 | 3:25.74 | 76018 | 91466
7 | 20:19.42 | 3:10.30 | 91467 | 105746
8 | 23:29.72 | 3:35.65 | 105747 | 121936
9 | 27:05.62 | 2:50.16 | 121937 | 134702
10 | 29:56.03 | 3:40.14 | 134703 | 151216
11 | 33:36.17 | 2:51.34 | 151217 | 164075
12 | 36:27.51 | 3:21.33 | 164076 | 179183


Range status and errors

Selected range

Filename C:\Sket4er\Phil Monsour - Ghosts Of Deir Yassin 2012\Phil Monsour - Ghosts Of Deir Yassin.wav

Peak level 98.9 %
Extraction speed 2.7 X
Range quality 100.0 %
Test CRC 00FBBAE4
Copy CRC 00FBBAE4
Copy OK

No errors occurred


AccurateRip summary

Track 1 not present in database
Track 2 not present in database
Track 3 not present in database
Track 4 not present in database
Track 5 not present in database
Track 6 not present in database
Track 7 not present in database
Track 8 not present in database
Track 9 not present in database
Track 10 not present in database
Track 11 not present in database
Track 12 not present in database

None of the tracks are present in the AccurateRip database

End of status report

–– CUETools DB Plugin V2.1.6

[CTDB TOCID: H.3hVjp2k4DhoN.l8FrH38DCWVg-] found
Submit result: H.3hVjp2k4DhoN.l8FrH38DCWVg- has been confirmed
Track | CTDB Status
1 | (1/1) Accurately ripped
2 | (1/1) Accurately ripped
3 | (1/1) Accurately ripped
4 | (1/1) Accurately ripped
5 | (1/1) Accurately ripped
6 | (1/1) Accurately ripped
7 | (1/1) Accurately ripped
8 | (1/1) Accurately ripped
9 | (1/1) Accurately ripped
10 | (1/1) Accurately ripped
11 | (1/1) Accurately ripped
12 | (1/1) Accurately ripped


==== Log checksum 329763CEAD3C1B875EAEE0F623FFDA8C44B41F9A75409EB4FDD9C93272081DD3 ====

foobar2000 1.2.6 / Dynamic Range Meter 1.1.1
log date: 2016-02-07 20:23:28

––––––––––––––––––––––––––––––––––––––––
Analyzed: Phil Monsour / Ghosts Of Deir Yassin
––––––––––––––––––––––––––––––––––––––––

DR Peak RMS Duration Track
––––––––––––––––––––––––––––––––––––––––
DR6 -0.11 dB -6.88 dB 3:07 01-Everything But Stop
DR6 -0.14 dB -7.41 dB 3:33 02-Fires Are Burning
DR5 -0.12 dB -6.63 dB 4:09 03-Ghosts Of Deir Yassin
DR6 -0.14 dB -8.24 dB 2:51 04-I Left My Heart In Palestine
DR6 -0.14 dB -7.70 dB 3:14 05-The Dark Tunnels
DR6 -0.15 dB -7.43 dB 3:26 06-The Other Side
DR7 -1.44 dB -9.88 dB 3:10 07-Reading Between The Lines
DR6 -0.14 dB -8.34 dB 3:36 08-Who Locked The Door
DR6 -0.18 dB -7.28 dB 2:50 09-No Distance Only Time
DR6 -0.15 dB -7.40 dB 3:40 10-Gods Of Men
DR6 -0.11 dB -7.03 dB 2:51 11-The Last Time
DR6 -0.09 dB -6.95 dB 3:21 12-Big Country Small Heart
––––––––––––––––––––––––––––––––––––––––

Number of tracks: 12
Official DR value: DR6

Samplerate: 44100 Hz
Channels: 2
Bits per sample: 16
Bitrate: 929 kbps
Codec: FLAC
================================================================================

[CUETools log; Date: 07.02.2016 20:23:27; Version: 2.1.5]
[CTDB TOCID: H.3hVjp2k4DhoN.l8FrH38DCWVg-] found.
Track | CTDB Status
1 | (2/2) Accurately ripped
2 | (2/2) Accurately ripped
3 | (2/2) Accurately ripped
4 | (2/2) Accurately ripped
5 | (2/2) Accurately ripped
6 | (2/2) Accurately ripped
7 | (2/2) Accurately ripped
8 | (2/2) Accurately ripped
9 | (2/2) Accurately ripped
10 | (2/2) Accurately ripped
11 | (2/2) Accurately ripped
12 | (2/2) Accurately ripped
[AccurateRip ID: 0011fb05-00a75c18-8a09550c] disk not present in database.

Track Peak [ CRC32 ] [W/O NULL] [ LOG ]
– 98,9 [00FBBAE4] [673B21F9] CRC32
01 98,7 [8ED6F951] [3AFFB475]
02 98,4 [731164D6] [D6045D27]
03 98,5 [CC4735D7] [21149DFB]
04 98,4 [BA4508FF] [3FE5F1A2]
05 98,3 [7CDE9D3E] [EAE7688C]
06 98,2 [3389D626] [F96C6011]
07 84,7 [E348A399] [D771FF07]
08 98,3 [DB7F0A39] [0C19FB41]
09 97,9 [0F062821] [994D07E8]
10 98,2 [50B99EEE] [553CFC2B]
11 98,7 [50CA0E78] [C5C113C9]
12 98,9 [A2B452C5] [CFD32B74]

Phil Monsour - Ghosts Of Deir Yassin (2012)

All thanks go to Sket4er

Visit my blog!

No mirrors, please!

Download:
Nitroflare: FLAC | mp3