Subcategories

Phil Collins - 4 Studio Albums (1981-1989) [24 KT + Gold CD, 2010-2011]

Posted By: gribovar
Phil Collins - 4 Studio Albums (1981-1989) [24 KT + Gold CD, 2010-2011]

Phil Collins - 4 Studio Albums (1981-1989) [24 KT + Gold CD, 2010-2011]
EAC Rip | FLAC (image/tracks+.cue+log) - 1,2 GB | MP3 CBR 320 kbps (LAME 3.93) - 481 MB | Covers - 306 MB
Genre: Pop Rock | RAR 3% Rec. | Label: Audio Fidelity

Phil Collins - Face Value (1981). Phil Collins' first solo album, 1981's Face Value, was a long time coming, but it proved worth the wait, both for the Genesis drummer/vocalist himself and fans of thoughtful, emotionally charged pop. He'd been wrestling with the idea of doing a solo record for years, finding great inspiration in the pain caused by an impending divorce and craving artistic independence after years of collaboration. Many of the songs ended up on Genesis' 1980 album Duke - and "Against All Odds" was pocketed for later use - but he kept enough to make an album that stands as a classic moment of '80s pop/rock. Collins produced the album himself and played keyboards and drums, calling in friends and the Earth, Wind & Fire horns to fill out the songs. Kicking off with the bitter anthem "In the Air Tonight," rightly considered one of the great heartbreak songs of all time, the album alternates between moody ballads and bouncily soulful tracks that try to put a smile on the pain.

Phil Collins - Hello, I Must Be Going! (1982). Hello, I Must Be Going! is the second studio album by Phil Collins. Like his previous solo album, 1981's Face Value, Phil plays drums and percussion and does all the vocals and keyboards. The variety of moods, tempos and ideas is striking - the musicianship is very mature, sophisticated, and well produced. Phil does a good job at creating moods with his voice and drums as all the chord sequences and tempo changes revolve around the drum patterns.
On this 1982 release Collins began to inject his highly melodic pop songwriting with more soul and R&B influences. The triple-platinum album contains the cover version of The Supremes hit "You Can't Hurry Love" which was Phil's first US Top 10. "I Dont Care Anymore" also reached the Top 40 charts. Other notable tracks include the modern-jazz instrumental "The West Side" and the FM rock radio favorite, "It Don't Matter To Me" which has a nice horn riff from The Phoenix Horns and great guitars and drums.

Phil Collins - No Jacket Required (1985). 1985 's No Jacket Required is Phil Collins' 3rd studio album. It became his first solo album to reach #1 in several countries, including the US and affirmed his superstar status apart from Genesis. No Jacket Required features fine song writing and a superb sense of musicianship. A perfect blend of his signature drum beats and the soulful grooviness of his supporting cast, Phil uses the drum machine and concentrates on the keyboard and it really works. The recording features guest vocalists, including Helen Terry, Peter Gabriel and Sting. The sound of Phil Collins was the sound of the 80's and this is where his trademark vocals and big percussion come together to produce one of the soundtracks to that era. Four singles were top-ten hits, "Sussudio," "One More Night," "Who Said I Would," and "Don't Lose My Number."

Phil Collins - …But Seriously (1989). Phil Collins released his fourth solo album …But Seriously in November of 1989 closing the year as well as the decade out on a very high note. The tone of the album is serious, as the title suggests. Instead of focusing entirely on personal relationships and simple fun, Collins expands his focus to the exploration of socio-economic and political themes. He does not abandon themes of love and relationships but sings with a greater maturity than he did on earlier records. Phil's singing, songwriting, playing and arranging is first rate, and he gets excellent help from some of his famous friends, including Eric Clapton, Steve Winwood, Stephen Bishop, David Crosby, Leland Sklar, Pino Paladino, and others.

Phil Collins - 4 Studio Albums (1981-1989) [24 KT + Gold CD, 2010-2011]

Phil Collins - Face Value (1981) [24 KT + Gold CD, 2010]
EAC Rip | FLAC (image+.cue+log) - 255 MB | MP3 CBR 320 kbps (LAME 3.93) - 113 MB | Covers - 29 MB
Genre: Pop Rock | RAR 3% Rec. | Label: Audio Fidelity (AFZ 084)

Tracklist:
01. In The Air Tonight
02. This Must Be Love
03. Behind The Lines
04. The Roof Is Leaking
05. Droned
06. Hand In Hand
07. I Missed Again
08. You Know What I Mean
09. Thunder And Lightning
10. I'm Not Moving
11. If Leaving Me Is Easy
12. Tomorrow Never Knows

Total time: 47:58

Exact Audio Copy V0.99 prebeta 5 from 4. May 2009

EAC extraction logfile from 25. January 2011, 5:11

Phil Collins / Face Value

Used drive : TEAC CD-W552E Adapter: 1 ID: 0

Read mode : Secure
Utilize accurate stream : Yes
Defeat audio cache : Yes
Make use of C2 pointers : No

Read offset correction : 6
Overread into Lead-In and Lead-Out : No
Fill up missing offset samples with silence : Yes
Delete leading and trailing silent blocks : No
Null samples used in CRC calculations : Yes
Used interface : Installed external ASPI interface

Used output format : User Defined Encoder
Selected bitrate : 32 kBit/s
Quality : High
Add ID3 tag : No
Command line compressor : C:\Program Files\Exact Audio Copy\FLAC\FLAC.EXE
Additional command line options : -8 -V %s


TOC of the extracted CD

Track | Start | Length | Start sector | End sector
––––––––––––––––––––––––––––-
1 | 0:00.00 | 5:35.45 | 0 | 25169
2 | 5:35.45 | 3:56.06 | 25170 | 42875
3 | 9:31.51 | 3:55.22 | 42876 | 60522
4 | 13:26.73 | 3:16.43 | 60523 | 75265
5 | 16:43.41 | 2:49.25 | 75266 | 87965
6 | 19:32.66 | 5:33.30 | 87966 | 112970
7 | 25:06.21 | 3:46.07 | 112971 | 129927
8 | 28:52.28 | 2:32.68 | 129928 | 141395
9 | 31:25.21 | 4:13.41 | 141396 | 160411
10 | 35:38.62 | 2:35.21 | 160412 | 172057
11 | 38:14.08 | 4:54.74 | 172058 | 194181
12 | 43:09.07 | 4:48.49 | 194182 | 215830


Range status and errors

Selected range

Filename C:\Phil Collins - Face Value (1981) (2010 Remaster)\Phil Collins - Face Value.wav

Peak level 98.8 %
Range quality 100.0 %
Test CRC D81D8683
Copy CRC D81D8683
Copy OK

No errors occurred


AccurateRip summary

Track 1 accurately ripped (confidence 4) [B98B5BD1]
Track 2 accurately ripped (confidence 4) [B177C79F]
Track 3 accurately ripped (confidence 4) [C539216A]
Track 4 accurately ripped (confidence 4) [8C6A049A]
Track 5 accurately ripped (confidence 4) [97F3501A]
Track 6 accurately ripped (confidence 4) [D01406E2]
Track 7 accurately ripped (confidence 4) [30D70C5F]
Track 8 accurately ripped (confidence 4) [A2222D41]
Track 9 accurately ripped (confidence 4) [A3AF9A64]
Track 10 accurately ripped (confidence 4) [80534E7A]
Track 11 accurately ripped (confidence 4) [7FE6B533]
Track 12 accurately ripped (confidence 4) [1E45DD56]

All tracks accurately ripped

End of status report

[CUETools log; Date: 15.03.2017 2:36:36; Version: 2.1.4]
[CTDB TOCID: xXw4DILWYXrEMA8Mix_R5QF5n9M-] found.
Track | CTDB Status
1 | (57/57) Accurately ripped
2 | (57/57) Accurately ripped
3 | (57/57) Accurately ripped
4 | (57/57) Accurately ripped
5 | (57/57) Accurately ripped
6 | (57/57) Accurately ripped
7 | (57/57) Accurately ripped
8 | (57/57) Accurately ripped
9 | (57/57) Accurately ripped
10 | (57/57) Accurately ripped
11 | (56/57) Accurately ripped
12 | (57/57) Accurately ripped
[AccurateRip ID: 0015a553-00c74a6d-a10b3d0c] found.
Track [ CRC | V2 ] Status
01 [b98b5bd1|4ab80fef] (028+101/131) Accurately ripped
02 [b177c79f|d457bde2] (028+100/130) Accurately ripped
03 [c539216a|b2a16320] (028+100/130) Accurately ripped
04 [8c6a049a|ae626d10] (028+100/128) Accurately ripped
05 [97f3501a|13cf1303] (028+100/128) Accurately ripped
06 [d01406e2|a79dbe3a] (028+100/130) Accurately ripped
07 [30d70c5f|3bac66f0] (028+100/130) Accurately ripped
08 [a2222d41|40b4f78e] (028+101/129) Accurately ripped
09 [a3af9a64|9718d291] (028+100/130) Accurately ripped
10 [80534e7a|94eca85e] (028+100/130) Accurately ripped
11 [7fe6b533|eafef31c] (028+099/127) Accurately ripped
12 [1e45dd56|a7cd6a7d] (028+100/128) Accurately ripped
Offsetted by -30:
01 [940db890] (002/131) Accurately ripped
02 [a4b990bd] (002/130) Accurately ripped
03 [fb0afead] (002/130) Accurately ripped
04 [a54c51e8] (000/128) No match (V2 was not tested)
05 [e405a1e9] (000/128) No match (V2 was not tested)
06 [6dbd2277] (002/130) Accurately ripped
07 [d31ddf92] (002/130) Accurately ripped
08 [d0db03cb] (000/129) No match (V2 was not tested)
09 [64d24b5d] (002/130) Accurately ripped
10 [654ada4b] (002/130) Accurately ripped
11 [47420fb6] (000/127) No match (V2 was not tested)
12 [22cf19f0] (000/128) No match (V2 was not tested)

Track Peak [ CRC32 ] [W/O NULL] [ LOG ]
– 98,8 [D81D8683] [11E06F27] CRC32
01 96,7 [476E8A40] [7EB9671A]
02 86,0 [BB9EF979] [57BF8697]
03 84,3 [D4FA9181] [0B5CC31B]
04 47,5 [4B40ED15] [1DDFD0F4]
05 63,1 [536F99B8] [39E662B8]
06 98,8 [96E7E9D6] [2C7B577E]
07 77,1 [E1AF50D5] [4B0295CB]
08 54,2 [4AC88253] [13F6EC7F]
09 86,2 [623E214D] [A885ABC8]
10 95,1 [985DF859] [6DD3B7A9]
11 91,8 [4C379E6A] [3EEEB592]
12 82,8 [4AF29B13] [A7316E22]

Phil Collins - 4 Studio Albums (1981-1989) [24 KT + Gold CD, 2010-2011]

Phil Collins - Hello, I Must Be Going! (1982) [24 KT + Gold CD, 2011]
EAC Rip | FLAC (image+.cue+log) - 289 MB | MP3 CBR 320 kbps (LAME 3.93) - 108 MB | Covers - 101 MB
Genre: Pop Rock | RAR 3% Rec. | Label: Audio Fidelity (AFZ 129)

Tracklist:
01. I Don't Care Anymore
02. I Cannot Believe It's True
03. Like China
04. Do You Know, Do You Care?
05. You Can't Hurry Love
06. It Don't Matter To Me
07. Thru These Walls
08. Don't Let Him Steal Your Heart Away
09. The West Side
10. Why Can't It Wait 'Til Morning

Total time: 45:53

Exact Audio Copy V1.0 beta 3 from 29. August 2011

EAC extraction logfile from 2. February 2013, 12:00

Phil Collins / Hello, I Must Be Going!

Used drive : PLEXTOR BD-R PX-B950SA Adapter: 6 ID: 0

Read mode : Secure
Utilize accurate stream : Yes
Defeat audio cache : Yes
Make use of C2 pointers : No

Read offset correction : 6
Overread into Lead-In and Lead-Out : No
Fill up missing offset samples with silence : Yes
Delete leading and trailing silent blocks : No
Null samples used in CRC calculations : Yes
Used interface : Native Win32 interface for Win NT & 2000

Used output format : Internal WAV Routines
Sample format : 44.100 Hz; 16 Bit; Stereo


TOC of the extracted CD

Track | Start | Length | Start sector | End sector
––––––––––––––––––––––––––––-
1 | 0:00.00 | 5:05.21 | 0 | 22895
2 | 5:05.21 | 5:16.30 | 22896 | 46625
3 | 10:21.51 | 5:08.58 | 46626 | 69783
4 | 15:30.34 | 4:58.14 | 69784 | 92147
5 | 20:28.48 | 3:01.09 | 92148 | 105731
6 | 23:29.57 | 4:18.14 | 105732 | 125095
7 | 27:47.71 | 5:05.66 | 125096 | 148036
8 | 32:53.62 | 4:45.35 | 148037 | 169446
9 | 37:39.22 | 5:02.26 | 169447 | 192122
10 | 42:41.48 | 3:11.00 | 192123 | 206447


Range status and errors

Selected range

Filename C:\Users\Meijin\Desktop\Lossless Galaxy Rip by ALLexxess\Phil Collins\1982 Hello, I Must Be Going! (Audio Fidelity 24KT Gold CD 2011)\Phil Collins - Hello, I Must Be Going!.wav

Peak level 98.5 %
Extraction speed 6.8 X
Range quality 99.9 %
Test CRC 47784AF9
Copy CRC 47784AF9
Copy OK

No errors occurred


AccurateRip summary

Track 1 accurately ripped (confidence 6) [5B237F6B] (AR v2)
Track 2 accurately ripped (confidence 6) [76381CC9] (AR v2)
Track 3 accurately ripped (confidence 6) [84E46EFC] (AR v2)
Track 4 accurately ripped (confidence 6) [7E17AC53] (AR v2)
Track 5 accurately ripped (confidence 6) [85E5CBEF] (AR v2)
Track 6 accurately ripped (confidence 6) [A078EF26] (AR v2)
Track 7 accurately ripped (confidence 6) [E7DCCF99] (AR v2)
Track 8 accurately ripped (confidence 6) [A63F9588] (AR v2)
Track 9 accurately ripped (confidence 6) [10102A77] (AR v2)
Track 10 accurately ripped (confidence 6) [0BA81996] (AR v2)

All tracks accurately ripped

End of status report

==== Log checksum F3F57B3BF6893CA1218337FE63CEE9681059F27033D8F4F6A5E2E9FB7E5C0910 ====

[CUETools log; Date: 15.03.2017 2:30:39; Version: 2.1.4]
[CTDB TOCID: aEmd6OE.eCTOer.ucGEBkvTJiFM-] found.
Track | CTDB Status
1 | (46/46) Accurately ripped
2 | (46/46) Accurately ripped
3 | (46/46) Accurately ripped
4 | (46/46) Accurately ripped
5 | (46/46) Accurately ripped
6 | (45/46) Accurately ripped
7 | (46/46) Accurately ripped
8 | (46/46) Accurately ripped
9 | (46/46) Accurately ripped
10 | (46/46) Accurately ripped
[AccurateRip ID: 0011fae1-008e7900-790ac00a] found.
Track [ CRC | V2 ] Status
01 [e42cceb4|5b237f6b] (08+68/78) Accurately ripped
02 [0912888a|76381cc9] (08+68/78) Accurately ripped
03 [b9087b1e|84e46efc] (07+68/77) Accurately ripped
04 [d5a147ff|7e17ac53] (08+68/78) Accurately ripped
05 [4f4b8752|85e5cbef] (08+68/78) Accurately ripped
06 [4c43a8e5|a078ef26] (07+68/77) Accurately ripped
07 [265a6a99|e7dccf99] (07+68/77) Accurately ripped
08 [1fc81b4b|a63f9588] (07+68/77) Accurately ripped
09 [07e6f876|10102a77] (07+68/77) Accurately ripped
10 [56266373|0ba81996] (07+68/77) Accurately ripped
Offsetted by 42:
01 [2f715fa2] (00/78) No match (V2 was not tested)
02 [9f7c9204] (00/78) No match (V2 was not tested)
03 [ed57379d] (00/77) No match (V2 was not tested)
04 [c7f0099d] (00/78) No match (V2 was not tested)
05 [f9832e1f] (00/78) No match (V2 was not tested)
06 [5821a01b] (00/77) No match (V2 was not tested)
07 [d347f7dd] (00/77) No match (V2 was not tested)
08 [89c32f8b] (00/77) No match (V2 was not tested)
09 [3dcc6a22] (00/77) No match (V2 was not tested)
10 [419ee6ab] (00/77) No match (V2 was not tested)

Track Peak [ CRC32 ] [W/O NULL] [ LOG ]
– 98,5 [47784AF9] [666AFBA1] CRC32
01 97,7 [A8F44C34] [EFF1812A]
02 98,5 [38E39735] [C361C296]
03 96,2 [B82F10B8] [3CAA9F5E]
04 95,7 [BC61A0C8] [A490ABBB]
05 79,2 [9BD2EF95] [FF256BA6]
06 97,5 [C756D305] [0D1A3D6F]
07 97,2 [6EFD1282] [BE61E550]
08 95,6 [961AB84F] [BAE8726B]
09 97,5 [5325DEC1] [6BC9032C]
10 64,2 [3C7ABBD1] [9CB3E041]

Phil Collins - 4 Studio Albums (1981-1989) [24 KT + Gold CD, 2010-2011]

Phil Collins - No Jacket Required (1985) [24 KT + Gold CD, 2011]
EAC Rip | FLAC (tracks+.cue+log) - 300 MB | MP3 CBR 320 kbps (LAME 3.93) - 119 MB | Covers - 34 MB
Genre: Pop Rock | RAR 3% Rec. | Label: Audio Fidelity (AFZ 102)

Tracklist:
01. Sussudio
02. Only You Know And I Know
03. Long Long Way To Go
04. I Don't Wanna Know
05. One More Night
06. Don't Lose My Number
07. Who Said I Would (4:01)
08. Doesn't Anybody Stay Together Anymore
09. Inside Out
10. Take Me Home
11. We Said Hello Goodbye

Total time: 50:51

Exact Audio Copy V1.0 beta 1 from 15. November 2010

EAC extraction logfile from 15. February 2011, 12:32

Phil Collins / No Jacket Required {2011 Audio Fidelity 24 KT + Gold, AFZ 102}

Used drive : DVDRW IDE 16X Adapter: 3 ID: 0

Read mode : Secure
Utilize accurate stream : Yes
Defeat audio cache : Yes
Make use of C2 pointers : No

Read offset correction : 12
Overread into Lead-In and Lead-Out : No
Fill up missing offset samples with silence : Yes
Delete leading and trailing silent blocks : No
Null samples used in CRC calculations : Yes
Used interface : Native Win32 interface for Win NT & 2000
Gap handling : Appended to previous track

Used output format : User Defined Encoder
Selected bitrate : 320 kBit/s
Quality : High
Add ID3 tag : No
Command line compressor : C:\Program Files (x86)\FLAC\flac.exe
Additional command line options : -8 -V -T "ARTIST=%a" -T "TITLE=%t" -T "ALBUM=%g" -T "DATE=%y" -T "TRACKNUMBER=%n" -T "GENRE=%m" -T "COMMENT=EAC FLAC 1.2.1 -8" %s


TOC of the extracted CD

Track | Start | Length | Start sector | End sector
––––––––––––––––––––––––––––-
1 | 0:00.00 | 4:23.44 | 0 | 19768
2 | 4:23.44 | 4:21.38 | 19769 | 39381
3 | 8:45.07 | 4:22.64 | 39382 | 59095
4 | 13:07.71 | 4:15.03 | 59096 | 78223
5 | 17:22.74 | 4:53.15 | 78224 | 100213
6 | 22:16.14 | 4:49.12 | 100214 | 121900
7 | 27:05.26 | 4:01.31 | 121901 | 140006
8 | 31:06.57 | 4:18.36 | 140007 | 159392
9 | 35:25.18 | 5:15.63 | 159393 | 183080
10 | 40:41.06 | 5:53.43 | 183081 | 209598
11 | 46:34.49 | 4:16.12 | 209599 | 228810


Track 1

Filename E:\Phil Collins - No Jacket Required (1985) [FLAC] {2011 Audio Fidelity 24 KT + Gold, AFZ 102} (Ltd. Numbered Ed.)\01 - Sussudio.wav

Pre-gap length 0:00:02.00

Peak level 96.3 %
Extraction speed 5.0 X
Track quality 100.0 %
Test CRC 08B9A02A
Copy CRC 08B9A02A
Track not present in AccurateRip database
Copy OK

Track 2

Filename E:\Phil Collins - No Jacket Required (1985) [FLAC] {2011 Audio Fidelity 24 KT + Gold, AFZ 102} (Ltd. Numbered Ed.)\02 - Only You Know And I Know.wav

Peak level 83.4 %
Extraction speed 5.6 X
Track quality 100.0 %
Test CRC DD054544
Copy CRC DD054544
Track not present in AccurateRip database
Copy OK

Track 3

Filename E:\Phil Collins - No Jacket Required (1985) [FLAC] {2011 Audio Fidelity 24 KT + Gold, AFZ 102} (Ltd. Numbered Ed.)\03 - Long Long Way To Go.wav

Peak level 88.3 %
Extraction speed 6.1 X
Track quality 100.0 %
Test CRC FD3765CE
Copy CRC FD3765CE
Track not present in AccurateRip database
Copy OK

Track 4

Filename E:\Phil Collins - No Jacket Required (1985) [FLAC] {2011 Audio Fidelity 24 KT + Gold, AFZ 102} (Ltd. Numbered Ed.)\04 - I Don't Wanna Know.wav

Peak level 91.8 %
Extraction speed 2.3 X
Track quality 99.9 %
Test CRC 71DA254B
Copy CRC 71DA254B
Track not present in AccurateRip database
Copy OK

Track 5

Filename E:\Phil Collins - No Jacket Required (1985) [FLAC] {2011 Audio Fidelity 24 KT + Gold, AFZ 102} (Ltd. Numbered Ed.)\05 - One More Night.wav

Peak level 74.0 %
Extraction speed 2.6 X
Track quality 99.9 %
Test CRC D4BE3038
Copy CRC D4BE3038
Track not present in AccurateRip database
Copy OK

Track 6

Filename E:\Phil Collins - No Jacket Required (1985) [FLAC] {2011 Audio Fidelity 24 KT + Gold, AFZ 102} (Ltd. Numbered Ed.)\06 - Don't Lose My Number.wav

Peak level 100.0 %
Extraction speed 7.6 X
Track quality 100.0 %
Test CRC 1FE8F6EB
Copy CRC 1FE8F6EB
Track not present in AccurateRip database
Copy OK

Track 7

Filename E:\Phil Collins - No Jacket Required (1985) [FLAC] {2011 Audio Fidelity 24 KT + Gold, AFZ 102} (Ltd. Numbered Ed.)\07 - Who Said I Would.wav

Peak level 100.0 %
Extraction speed 2.3 X
Track quality 99.9 %
Test CRC 7F281598
Copy CRC 7F281598
Track not present in AccurateRip database
Copy OK

Track 8

Filename E:\Phil Collins - No Jacket Required (1985) [FLAC] {2011 Audio Fidelity 24 KT + Gold, AFZ 102} (Ltd. Numbered Ed.)\08 - Doesn't Anybody Stay Together Anymore.wav

Peak level 96.8 %
Extraction speed 8.2 X
Track quality 100.0 %
Test CRC 8AAFD479
Copy CRC 8AAFD479
Track not present in AccurateRip database
Copy OK

Track 9

Filename E:\Phil Collins - No Jacket Required (1985) [FLAC] {2011 Audio Fidelity 24 KT + Gold, AFZ 102} (Ltd. Numbered Ed.)\09 - Inside Out.wav

Peak level 92.8 %
Extraction speed 8.7 X
Track quality 100.0 %
Test CRC F77D1494
Copy CRC F77D1494
Track not present in AccurateRip database
Copy OK

Track 10

Filename E:\Phil Collins - No Jacket Required (1985) [FLAC] {2011 Audio Fidelity 24 KT + Gold, AFZ 102} (Ltd. Numbered Ed.)\10 - Take Me Home.wav

Peak level 97.9 %
Extraction speed 9.3 X
Track quality 100.0 %
Test CRC C3D0FAAF
Copy CRC C3D0FAAF
Track not present in AccurateRip database
Copy OK

Track 11

Filename E:\Phil Collins - No Jacket Required (1985) [FLAC] {2011 Audio Fidelity 24 KT + Gold, AFZ 102} (Ltd. Numbered Ed.)\11 - We Said Hello Goodbye.wav

Peak level 88.7 %
Extraction speed 9.3 X
Track quality 100.0 %
Test CRC DF39646E
Copy CRC DF39646E
Track not present in AccurateRip database
Copy OK


None of the tracks are present in the AccurateRip database

No errors occurred

End of status report

==== Log checksum 9873D131F96E6EF7090C6195C9FBFA83C63C72C09D381A7B8467174270D7730A ====

[CUETools log; Date: 15.03.2017 2:37:46; Version: 2.1.4]
[CTDB TOCID: 2kyO.ge.JZ4y9EYKtYCWksF3Pzg-] found.
Track | CTDB Status
1 | (53/53) Accurately ripped
2 | (53/53) Accurately ripped
3 | (53/53) Accurately ripped
4 | (53/53) Accurately ripped
5 | (53/53) Accurately ripped
6 | (53/53) Accurately ripped
7 | (53/53) Accurately ripped
8 | (53/53) Accurately ripped
9 | (53/53) Accurately ripped
10 | (52/53) Accurately ripped
11 | (51/53) Accurately ripped
[AccurateRip ID: 00147055-00b22b58-a50bea0b] found.
Track [ CRC | V2 ] Status
01 [6086e15d|9e54e1ac] (019+064/109) Accurately ripped
02 [bcbd9541|c22e99ca] (019+063/105) Accurately ripped
03 [1c26b6ea|881b74ef] (018+063/104) Accurately ripped
04 [1286f437|c26f4a4d] (018+063/104) Accurately ripped
05 [b11d34bb|3f82677b] (018+063/104) Accurately ripped
06 [9b5cfc95|8eacf454] (018+063/106) Accurately ripped
07 [94d34f21|27c5ec5f] (018+063/106) Accurately ripped
08 [44404778|bf548a5c] (018+063/106) Accurately ripped
09 [57d68782|1de41442] (018+063/106) Accurately ripped
10 [bc20867f|20772d16] (018+063/103) Accurately ripped
11 [51f231c3|688950b4] (018+061/104) Accurately ripped
Offsetted by -30:
01 [b088b6d8] (002/109) Accurately ripped
02 [3069089a] (002/105) Accurately ripped
03 [292f154f] (002/104) Accurately ripped
04 [be6d282e] (002/104) Accurately ripped
05 [24f869ed] (002/104) Accurately ripped
06 [aa1313fd] (002/106) Accurately ripped
07 [00b3cad1] (002/106) Accurately ripped
08 [6b360ec6] (002/106) Accurately ripped
09 [2d7a7c13] (002/106) Accurately ripped
10 [f95f7629] (002/103) Accurately ripped
11 [82b2682a] (002/104) Accurately ripped
Offsetted by -18:
01 [0f8fa1e5] (000/109) No match (V2 was not tested)
02 [29c67103] (000/105) No match (V2 was not tested)
03 [6a84cf62] (000/104) No match (V2 was not tested)
04 [bbd55f09] (000/104) No match (V2 was not tested)
05 [c35387cd] (000/104) No match (V2 was not tested)
06 [e7c3b962] (000/106) No match (V2 was not tested)
07 [d994252c] (000/106) No match (V2 was not tested)
08 [acb2488e] (000/106) No match (V2 was not tested)
09 [94df8dfc] (000/106) No match (V2 was not tested)
10 [cf54f252] (000/103) No match (V2 was not tested)
11 [6f04525c] (000/104) No match (V2 was not tested)
Offsetted by 30:
01 [b0d36ab6] (000/109) No match (V2 was not tested)
02 [6e9e228e] (000/105) No match (V2 was not tested)
03 [6e7e17ef] (000/104) No match
04 [c819c134] (000/104) No match (V2 was not tested)
05 [3e41ffcd] (000/104) No match
06 [cdd4c044] (000/106) No match (V2 was not tested)
07 [f0806166] (000/106) No match (V2 was not tested)
08 [dae7e57e] (000/106) No match (V2 was not tested)
09 [3545c461] (000/106) No match (V2 was not tested)
10 [5ecd6e73] (000/103) No match (V2 was not tested)
11 [228ffc7e] (000/104) No match

Track Peak [ CRC32 ] [W/O NULL] [ LOG ]
– 100,0 [0963A907] [0ACF563F]
01 96,3 [08B9A02A] [784E8A5D] CRC32
02 83,4 [DD054544] [B6B702A8] CRC32
03 88,3 [FD3765CE] [7FA61316] CRC32
04 91,8 [71DA254B] [6432A019] CRC32
05 74,0 [D4BE3038] [B3AE48EC] CRC32
06 100,0 [1FE8F6EB] [8C6A211E] CRC32
07 100,0 [7F281598] [CA34D149] CRC32
08 96,8 [8AAFD479] [B06B55E2] CRC32
09 92,8 [F77D1494] [21265959] CRC32
10 97,9 [C3D0FAAF] [0F9F009E] CRC32
11 88,7 [DF39646E] [2E40C1C0] CRC32

Phil Collins - 4 Studio Albums (1981-1989) [24 KT + Gold CD, 2010-2011]

Phil Collins - …But Seriously (1989) [24 KT + Gold CD, 2012]
EAC Rip | FLAC (image+.cue+log) - 356 MB | MP3 CBR 320 kbps (LAME 3.93) - 141 MB | Covers - 142 MB
Genre: Pop Rock | RAR 3% Rec. | Label: Audio Fidelity (AFZ 135)

Tracklist:
01. Hang In Long Enough
02. That's Just The Way It Is
03. Do You Remember
04. Something Happened On The Way To Heaven
05. Colours
06. I Wish It Would Rain Down
07. Another Day In Paradise
08. Heat On The Street
09. All Of My Life
10. Saturday Night And Sunday Morning
11. Father To Son
12. Find A Way To My Heart

Total time: 59:52

Exact Audio Copy V1.0 beta 3 from 29. August 2011

EAC extraction logfile from 4. February 2013, 21:36

Phil Collins / …But Seriously

Used drive : PLEXTOR BD-R PX-B950SA Adapter: 6 ID: 0

Read mode : Secure
Utilize accurate stream : Yes
Defeat audio cache : Yes
Make use of C2 pointers : No

Read offset correction : 6
Overread into Lead-In and Lead-Out : No
Fill up missing offset samples with silence : Yes
Delete leading and trailing silent blocks : No
Null samples used in CRC calculations : Yes
Used interface : Native Win32 interface for Win NT & 2000

Used output format : Internal WAV Routines
Sample format : 44.100 Hz; 16 Bit; Stereo


TOC of the extracted CD

Track | Start | Length | Start sector | End sector
––––––––––––––––––––––––––––-
1 | 0:00.00 | 4:44.56 | 0 | 21355
2 | 4:44.56 | 5:20.64 | 21356 | 45419
3 | 10:05.45 | 4:36.73 | 45420 | 66192
4 | 14:42.43 | 4:51.58 | 66193 | 88075
5 | 19:34.26 | 8:51.22 | 88076 | 127922
6 | 28:25.48 | 5:27.64 | 127923 | 152511
7 | 33:53.37 | 5:21.72 | 152512 | 176658
8 | 39:15.34 | 3:51.64 | 176659 | 194047
9 | 43:07.23 | 5:35.52 | 194048 | 219224
10 | 48:43.00 | 1:27.12 | 219225 | 225761
11 | 50:10.12 | 3:28.03 | 225762 | 241364
12 | 53:38.15 | 6:13.41 | 241365 | 269380


Range status and errors

Selected range

Filename C:\Users\Meijin\Desktop\Lossless Galaxy Rip by ALLexxess\Phil Collins\1989 …But Seriously (Audio Fidelity 24KT Gold CD 2012)\Phil Collins - …But Seriously.wav

Peak level 98.9 %
Extraction speed 7.6 X
Range quality 100.0 %
Test CRC 5C7DEA88
Copy CRC 5C7DEA88
Copy OK

No errors occurred


AccurateRip summary

Track 1 accurately ripped (confidence 4) [6B8DAEF6] (AR v2)
Track 2 accurately ripped (confidence 4) [4E0FE6CA] (AR v2)
Track 3 accurately ripped (confidence 4) [87359CAC] (AR v2)
Track 4 accurately ripped (confidence 4) [4649FFDF] (AR v2)
Track 5 accurately ripped (confidence 4) [2BA74B27] (AR v2)
Track 6 accurately ripped (confidence 4) [EEA1FDA2] (AR v2)
Track 7 accurately ripped (confidence 4) [612A44EE] (AR v2)
Track 8 accurately ripped (confidence 4) [18644596] (AR v2)
Track 9 accurately ripped (confidence 4) [7795B766] (AR v2)
Track 10 accurately ripped (confidence 4) [6D0D7A4B] (AR v2)
Track 11 accurately ripped (confidence 4) [34275E86] (AR v2)
Track 12 accurately ripped (confidence 2) [FEADE7ED] (AR v2)

All tracks accurately ripped

End of status report

==== Log checksum C9484F7F1CEBA7F6A2DD58C51A25B60804B71760CA9E7A0A0C86BF50DE273325 ====

[CUETools log; Date: 15.03.2017 2:32:13; Version: 2.1.4]
[CTDB TOCID: ADvA309rst0HQlDOJCt9K1cEEtI-] found.
Track | CTDB Status
1 | (54/54) Accurately ripped
2 | (54/54) Accurately ripped
3 | (54/54) Accurately ripped
4 | (54/54) Accurately ripped
5 | (54/54) Accurately ripped
6 | (54/54) Accurately ripped
7 | (54/54) Accurately ripped
8 | (54/54) Accurately ripped
9 | (54/54) Accurately ripped
10 | (54/54) Accurately ripped
11 | (54/54) Accurately ripped
12 | (51/54) Accurately ripped
[AccurateRip ID: 001be450-0102ae54-a30e070c] found.
Track [ CRC | V2 ] Status
01 [b15ccc3c|6b8daef6] (06+72/78) Accurately ripped
02 [4c6ee846|4e0fe6ca] (05+71/76) Accurately ripped
03 [21e719b6|87359cac] (06+71/77) Accurately ripped
04 [11ef330d|4649ffdf] (06+70/76) Accurately ripped
05 [51102de6|2ba74b27] (05+71/76) Accurately ripped
06 [1819e69d|eea1fda2] (06+71/77) Accurately ripped
07 [c4a37db1|612a44ee] (06+70/76) Accurately ripped
08 [5bf0ac47|18644596] (05+68/76) Accurately ripped
09 [9a7e4ec7|7795b766] (05+71/76) Accurately ripped
10 [364e1f04|6d0d7a4b] (05+72/77) Accurately ripped
11 [a816c045|34275e86] (05+71/76) Accurately ripped
12 [d27c917e|feade7ed] (05+67/72) Accurately ripped

Track Peak [ CRC32 ] [W/O NULL] [ LOG ]
– 98,9 [5C7DEA88] [D0BC99DB] CRC32
01 98,5 [C4B0FA98] [92BC4EF0]
02 97,7 [08EB46B4] [09A4B5F3]
03 83,5 [960BF676] [3D8636CE]
04 97,9 [203319CD] [7D7D579B]
05 97,9 [3EC9627C] [996CBE41]
06 98,3 [BB3C7D8B] [D4114FAC]
07 91,9 [FFE0E5A1] [BAEA46EB]
08 98,9 [4D78532E] [76C62732]
09 97,1 [A5A74C55] [30D8488A]
10 98,2 [777CB7C7] [F98174F3]
11 83,2 [C983834D] [BE80B386]
12 98,2 [003D9BAA] [B4C7FF36]

Thanks to ALLexxess, taurus66