Subcategories

Philip Glass - Kundun: Music From The Original Soundtrack (1997)

Posted By: Designol
Philip Glass - Kundun: Music From The Original Soundtrack (1997)

Philip Glass - Kundun: Music From The Original Soundtrack (1997)
EAC | FLAC | Tracks (Cue&Log) ~ 265 Mb | Mp3 (CBR320) ~ 138 Mb
Label: Nonesuch | # 7559-79460-2 | Time: 01:00:23 | Scans ~ 114 Mb
Soundtrack, Score, Contemporary, Minimalism, World Fusion

Philip Glass' soundtrack to Martin Scorsese's Dalai Lama epic Kundun captures the grace, beauty, joy and melancholy within the film. Glass uses familiar minimalist structures, but works with traditional Tibetan instrumentation and monks, giving the music an alluringly otherworldly feel. It's an entirely original, evocative score, and one of Glass' high-water marks in the field.

Review by Stephen Thomas Erlewine, Allmusic.com

Philip Glass at Allmusic
Philip Glass Website
Philip Glass at Wiki

Film at IMDB
Film at Wiki

Tracklist:

01. Sand Mandala (04:05)
02. Northern Tibet (03:20)
03. Dark Kitchen (01:32)
04. Choosing (02:12)
05. Caravan Moves Out (02:55)
06. Reting's Eyes (02:18)
07. Potala (01:29)
08. Lord Chamberlain (02:43)
09. Norbu Plays (02:11)
10. Norbulingka (02:17)
11. Chinese Invade (07:05)
12. Fish (02:10)
13. Distraught (02:59)
14. Thirteenth Dalai Lama (03:23)
15. Move To Dungkar (05:04)
16. Projector (02:03)
17. Lhasa At Night (01:58)
18. Escape To India (10:05)


Exact Audio Copy V1.0 beta 3 from 29. August 2011

EAC extraction logfile from 8. November 2011, 10:55

Philip Glass / Kundun

Used drive : PIONEER BD-RW BDR-205 Adapter: 1 ID: 0

Read mode : Secure
Utilize accurate stream : Yes
Defeat audio cache : Yes
Make use of C2 pointers : No

Read offset correction : 667
Overread into Lead-In and Lead-Out : Yes
Fill up missing offset samples with silence : Yes
Delete leading and trailing silent blocks : No
Null samples used in CRC calculations : Yes
Used interface : Installed external ASPI interface
Gap handling : Appended to previous track

Used output format : User Defined Encoder
Selected bitrate : 1024 kBit/s
Quality : High
Add ID3 tag : No
Command line compressor : C:\Program Files\Exact Audio Copy\Flac\flac.exe
Additional command line options : -V -8 -T "Genre=%genre%" -T "Artist=%artist%" -T "Title=%title%" -T "Album=%albumtitle%" -T "Date=%year%" -T "Tracknumber=%tracknr%" -T "Comment=%comment%" %source%


TOC of the extracted CD

Track | Start | Length | Start sector | End sector
––––––––––––––––––––––––––––-
1 | 0:00.00 | 4:06.65 | 0 | 18514
2 | 4:06.65 | 3:22.35 | 18515 | 33699
3 | 7:29.25 | 1:33.55 | 33700 | 40729
4 | 9:03.05 | 2:14.55 | 40730 | 50834
5 | 11:17.60 | 2:57.25 | 50835 | 64134
6 | 14:15.10 | 2:18.02 | 64135 | 74486
7 | 16:33.12 | 1:30.05 | 74487 | 81241
8 | 18:03.17 | 2:45.33 | 81242 | 93649
9 | 20:48.50 | 2:13.15 | 93650 | 103639
10 | 23:01.65 | 2:18.72 | 103640 | 114061
11 | 25:20.62 | 7:06.63 | 114062 | 146074
12 | 32:27.50 | 2:11.65 | 146075 | 155964
13 | 34:39.40 | 3:00.27 | 155965 | 169491
14 | 37:39.67 | 3:26.03 | 169492 | 184944
15 | 41:05.70 | 5:06.20 | 184945 | 207914
16 | 46:12.15 | 2:05.45 | 207915 | 217334
17 | 48:17.60 | 2:00.27 | 217335 | 226361
18 | 50:18.12 | 10:05.10 | 226362 | 271746


Track 1

Filename F:\torrent\Kundun_Philip Glass\score\01 Sand Mandala.wav

Pre-gap length 0:00:02.00

Peak level 45.5 %
Extraction speed 4.8 X
Track quality 100.0 %
Test CRC C67C1BD3
Copy CRC C67C1BD3
Accurately ripped (confidence 12) [241366BE] (AR v1)
Copy OK

Track 2

Filename F:\torrent\Kundun_Philip Glass\score\02 Northern Tibet.wav

Pre-gap length 0:00:01.58

Peak level 54.2 %
Extraction speed 5.0 X
Track quality 100.0 %
Test CRC EA96D118
Copy CRC EA96D118
Accurately ripped (confidence 12) [6DEBD006] (AR v1)
Copy OK

Track 3

Filename F:\torrent\Kundun_Philip Glass\score\03 Dark Kitchen.wav

Pre-gap length 0:00:01.53

Peak level 32.2 %
Extraction speed 4.4 X
Track quality 100.0 %
Test CRC 15BA298A
Copy CRC 15BA298A
Accurately ripped (confidence 12) [DFE8A106] (AR v1)
Copy OK

Track 4

Filename F:\torrent\Kundun_Philip Glass\score\04 Choosing.wav

Pre-gap length 0:00:01.53

Peak level 51.1 %
Extraction speed 5.0 X
Track quality 100.0 %
Test CRC 05896A12
Copy CRC 05896A12
Accurately ripped (confidence 12) [0C33614A] (AR v1)
Copy OK

Track 5

Filename F:\torrent\Kundun_Philip Glass\score\05 Caravan Moves Out.wav

Pre-gap length 0:00:01.58

Peak level 36.8 %
Extraction speed 5.5 X
Track quality 100.0 %
Test CRC EDDE9403
Copy CRC EDDE9403
Accurately ripped (confidence 12) [EB311BBE] (AR v1)
Copy OK

Track 6

Filename F:\torrent\Kundun_Philip Glass\score\06 Reting's Eyes.wav

Pre-gap length 0:00:01.58

Peak level 75.2 %
Extraction speed 5.5 X
Track quality 100.0 %
Test CRC 8710C6E7
Copy CRC 8710C6E7
Accurately ripped (confidence 12) [C907848E] (AR v1)
Copy OK

Track 7

Filename F:\torrent\Kundun_Philip Glass\score\07 Potala.wav

Peak level 24.7 %
Extraction speed 5.0 X
Track quality 100.0 %
Test CRC 02D65327
Copy CRC 02D65327
Accurately ripped (confidence 12) [52E9E63E] (AR v1)
Copy OK

Track 8

Filename F:\torrent\Kundun_Philip Glass\score\08 Lord Chamberlain.wav

Pre-gap length 0:00:00.57

Peak level 40.4 %
Extraction speed 6.0 X
Track quality 100.0 %
Test CRC 76FEE5F8
Copy CRC 76FEE5F8
Accurately ripped (confidence 12) [CCC1EECF] (AR v1)
Copy OK

Track 9

Filename F:\torrent\Kundun_Philip Glass\score\09 Norbu Plays.wav

Pre-gap length 0:00:01.68

Peak level 48.3 %
Extraction speed 5.9 X
Track quality 100.0 %
Test CRC 2481BF75
Copy CRC 2481BF75
Accurately ripped (confidence 12) [867BDE8E] (AR v1)
Copy OK

Track 10

Filename F:\torrent\Kundun_Philip Glass\score\10 Norbulingka.wav

Pre-gap length 0:00:01.23

Peak level 35.5 %
Extraction speed 6.1 X
Track quality 100.0 %
Test CRC 282A1626
Copy CRC 282A1626
Accurately ripped (confidence 12) [DD131309] (AR v1)
Copy OK

Track 11

Filename F:\torrent\Kundun_Philip Glass\score\11 Chinese Invade.wav

Pre-gap length 0:00:01.57

Peak level 70.4 %
Extraction speed 7.5 X
Track quality 100.0 %
Test CRC 0A111D6C
Copy CRC 0A111D6C
Accurately ripped (confidence 12) [E499615F] (AR v1)
Copy OK

Track 12

Filename F:\torrent\Kundun_Philip Glass\score\12 Fish.wav

Pre-gap length 0:00:01.55

Peak level 29.8 %
Extraction speed 6.6 X
Track quality 100.0 %
Test CRC D23F03B9
Copy CRC D23F03B9
Accurately ripped (confidence 12) [157FF005] (AR v1)
Copy OK

Track 13

Filename F:\torrent\Kundun_Philip Glass\score\13 Distraught.wav

Pre-gap length 0:00:01.33

Peak level 39.0 %
Extraction speed 7.1 X
Track quality 100.0 %
Test CRC B6C8D958
Copy CRC B6C8D958
Accurately ripped (confidence 11) [8D8289A5] (AR v1)
Copy OK

Track 14

Filename F:\torrent\Kundun_Philip Glass\score\14 Thirteenth Dalai Lama.wav

Pre-gap length 0:00:00.55

Peak level 47.6 %
Extraction speed 7.5 X
Track quality 100.0 %
Test CRC D12882CB
Copy CRC D12882CB
Accurately ripped (confidence 11) [8F6CB291] (AR v1)
Copy OK

Track 15

Filename F:\torrent\Kundun_Philip Glass\score\15 Move To Dungkar.wav

Pre-gap length 0:00:02.65

Peak level 42.2 %
Extraction speed 8.1 X
Track quality 100.0 %
Test CRC AE2C15F7
Copy CRC AE2C15F7
Accurately ripped (confidence 11) [DA706255] (AR v1)
Copy OK

Track 16

Filename F:\torrent\Kundun_Philip Glass\score\16 Projector.wav

Pre-gap length 0:00:01.53

Peak level 54.4 %
Extraction speed 7.2 X
Track quality 100.0 %
Test CRC 750DEA1F
Copy CRC 750DEA1F
Accurately ripped (confidence 11) [2FAF31E3] (AR v1)
Copy OK

Track 17

Filename F:\torrent\Kundun_Philip Glass\score\17 Lhasa At Night.wav

Pre-gap length 0:00:01.48

Peak level 36.5 %
Extraction speed 7.1 X
Track quality 100.0 %
Test CRC B3F38D75
Copy CRC B3F38D75
Accurately ripped (confidence 11) [291A584D] (AR v1)
Copy OK

Track 18

Filename F:\torrent\Kundun_Philip Glass\score\18 Escape To India.wav

Pre-gap length 0:00:01.57

Peak level 98.2 %
Extraction speed 9.0 X
Track quality 99.9 %
Test CRC CB06E1B8
Copy CRC CB06E1B8
Accurately ripped (confidence 7) [238F53EE] (AR v1)
Copy OK


All tracks accurately ripped

No errors occurred

End of status report

==== Log checksum 301BAF36143FE53559EAA5369BF8AE59239B166D23250206D862E6EED6834F26 ====

foobar2000 1.2 / Dynamic Range Meter 1.1.1
log date: 2015-02-26 19:02:23

––––––––––––––––––––––––––––––––––––––––
Analyzed: Philip Glass / Kundun
––––––––––––––––––––––––––––––––––––––––

DR Peak RMS Duration Track
––––––––––––––––––––––––––––––––––––––––
DR11 -6.84 dB -20.62 dB 4:07 01-Sand Mandala
DR14 -5.31 dB -20.92 dB 3:22 02-Northern Tibet
DR12 -9.82 dB -26.01 dB 1:34 03-Dark Kitchen
DR12 -5.83 dB -23.29 dB 2:15 04-Choosing
DR10 -8.66 dB -21.77 dB 2:57 05-Caravan Moves Out
DR13 -2.47 dB -22.67 dB 2:18 06-Reting's Eyes
DR11 -12.11 dB -28.17 dB 1:30 07-Potala
DR11 -7.87 dB -23.05 dB 2:45 08-Lord Chamberlain
DR9 -6.31 dB -19.12 dB 2:13 09-Norbu Plays
DR12 -8.98 dB -24.37 dB 2:19 10-Norbulingka
DR11 -3.05 dB -18.09 dB 7:07 11-Chinese Invade
DR10 -10.50 dB -23.72 dB 2:12 12-Fish
DR12 -8.16 dB -24.49 dB 3:00 13-Distraught
DR12 -6.45 dB -22.98 dB 3:26 14-Thirteenth Dalai Lama
DR11 -7.48 dB -21.38 dB 5:06 15-Move To Dungkar
DR11 -5.28 dB -21.60 dB 2:06 16-Projector
DR11 -8.74 dB -23.64 dB 2:00 17-Lhasa At Night
DR14 -0.16 dB -19.27 dB 10:05 18-Escape To India
––––––––––––––––––––––––––––––––––––––––

Number of tracks: 18
Official DR value: DR11

Samplerate: 44100 Hz
Channels: 2
Bits per sample: 16
Bitrate: 657 kbps
Codec: FLAC
================================================================================

Philip Glass - Kundun: Music From The Original Soundtrack (1997)

Philip Glass - Kundun: Music From The Original Soundtrack (1997)

All thanks to original releaser - Sarant

More interesting music in My Blog