Subcategories

Pinetop Perkins & Hubert Sumlin - Legends (1998)

Posted By: Designol
Pinetop Perkins & Hubert Sumlin - Legends (1998)

Pinetop Perkins & Hubert Sumlin - Legends (1998)
EAC | FLAC | Image (Cue&Log) ~ 303 Mb | Mp3 (CBR320) ~ 134 Mb | Scans included
Piano Blues, Boogie-Woogie | Label: Telarc | # CD-83446 | Time: 00:55:39

Primarily known as sidemen, pianist Pinetop Perkins and guitarist Hubert Sumlin, if not as widely recognized as the artists they've supported, do have something of a legendary status in the blues world. Thus, this CD where the two of them take the lead (providing vocals as well) is aptly titled. The material consists mainly of longtime standards such as "Got My Mojo Working," "Rock Me Baby," "Hoochie Coochie Man," and "The Sky Is Crying," all performed with the considerable skill attained through years of experience. If Perkins and Sumlin's approach to these tunes isn't exactly innovative, it is rock solid and energetic, with plenty of excellent lead work from them both. Also notable is Annie Raines's harmonica, which provides solid counterpoint to the two leads, and occasionally takes the lead on its own.

Review by Genevieve Williams

Pinetop Perkins & Hubert Sumlin - Legends (1998)




Tracklist:

01. Got My Mojo Working (04:46)
02. Nutcracker (04:08)
03. Rock Me Baby (03:32)
04. Hoochie Coochie Man (07:29)
05. The Sky is Crying (06:07)
06. Pinto Beans and Blackeyed Peas (05:21)
07. Take It Easy Baby (04:20)
08. Shame, Shame, Shame (05:01)
09. Come Back Baby (04:09)
10. Sunnyland Slim (07:04)
11. She Walks Right In (03:37)


Exact Audio Copy V0.99 prebeta 4 from 23. January 2008

Отчёт EAC об извлечении, выполненном 31. мая 2009, 13:58

Pinetop Perkins - Hubert Sumlin / Legends

Дисковод: HL-DT-STRW/DVD GCC-4522B Adapter: 1 ID: 1

Режим чтения : Достоверность
Использование точного потока : Да
Отключение кэша аудио : Да
Использование указателей C2 : Нет

Коррекция смещения при чтении : 6
Способность читать области Lead-in и Lead-out : Нет
Заполнение пропущенных сэмплов тишиной : Да
Удаление блоков с тишиной в начале и конце : Нет
При вычислениях CRC использовались нулевые сэмплы : Да
Интерфейс : Установленный внешний ASPI-интерфейс

Выходной формат : Пользовательский кодировщик
Выбранный битрейт : 1024 kBit/s
Качество : Высокий
Добавление ID3-тэга : Нет
Утилита сжатия : C:\Program Files\FLAC\flac.exe
Дополнительные параметры : -V -8 -T "artist=%a" -T "title=%t" -T "album=%g" -T "date=%y" -T "tracknumber=%n" -T "genre=%m" %s


TOC извлечённого CD

Трек | Старт | Длительность | Начальный сектор | Конечный сектор
––––––––––––––––––––––––––––––––––-
1 | 0:00.00 | 4:46.57 | 0 | 21506
2 | 4:46.57 | 4:08.48 | 21507 | 40154
3 | 8:55.30 | 3:32.05 | 40155 | 56059
4 | 12:27.35 | 7:29.17 | 56060 | 89751
5 | 19:56.52 | 6:07.38 | 89752 | 117314
6 | 26:04.15 | 5:21.42 | 117315 | 141431
7 | 31:25.57 | 4:20.33 | 141432 | 160964
8 | 35:46.15 | 5:01.47 | 160965 | 183586
9 | 40:47.62 | 4:09.15 | 183587 | 202276
10 | 44:57.02 | 7:04.05 | 202277 | 234081
11 | 52:01.07 | 3:37.68 | 234082 | 250424


Характеристики диапазона извлечения и сообщения об ошибках

Выбранный диапазон

Имя файла J:\Новая папка\Rip\Pinetop Perkins - Hubert Sumlin - Legends.wav

Пиковый уровень 100.0 %
Качество диапазона 100.0 %
CRC теста EE243C49
CRC копии EE243C49
Копирование… OK

Ошибок не произошло


AccurateRip: сводка

Трек 1 точность не определена (достоверность 4) [D068ECDB], AccurateRip вернул [35C55CDF]
Трек 2 точность не определена (достоверность 4) [40784BA6], AccurateRip вернул [7BE43DD3]
Трек 3 точность не определена (достоверность 4) [BB1F17D4], AccurateRip вернул [FB5BCDB1]
Трек 4 точность не определена (достоверность 4) [A22D1359], AccurateRip вернул [68CF2C05]
Трек 5 точность не определена (достоверность 4) [73558E79], AccurateRip вернул [6EF97915]
Трек 6 точность не определена (достоверность 4) [025BA38E], AccurateRip вернул [ECE2D814]
Трек 7 точность не определена (достоверность 4) [2846FD7A], AccurateRip вернул [68E00E4B]
Трек 8 точность не определена (достоверность 3) [141B83CC], AccurateRip вернул [EEEBB13C]
Трек 9 точность не определена (достоверность 4) [C5E1E4F8], AccurateRip вернул [DC5C255F]
Трек 10 точность не определена (достоверность 4) [2CBB30AB], AccurateRip вернул [1BA2EEBA]
Трек 11 точность не определена (достоверность 4) [41B6D148], AccurateRip вернул [69285C87]

Ни один трек не прошёл проверки на точность
В вашей базе может быть иной вариант штамповки диска

Конец отчёта

[CUETools log; Date: 31.05.2015 15:22:40; Version: 2.1.5]
[CTDB TOCID: Di1tyjWcp7b8QFCE06JpYBfB8kQ-] found.
Track | CTDB Status
1 | (11/11) Accurately ripped
2 | (11/11) Accurately ripped
3 | (11/11) Accurately ripped
4 | (11/11) Accurately ripped
5 | (11/11) Accurately ripped
6 | (11/11) Accurately ripped
7 | (11/11) Accurately ripped
8 | (11/11) Accurately ripped
9 | (11/11) Accurately ripped
10 | (11/11) Accurately ripped
11 | (11/11) Accurately ripped
[AccurateRip ID: 0016d9d5-00c77b11-b90d0b0b] found.
Track [ CRC | V2 ] Status
01 [d068ecdb|ec1e6bf2] (00+03/25) Accurately ripped
02 [40784ba6|539d1af7] (00+03/25) Accurately ripped
03 [bb1f17d4|2282f6f5] (00+03/25) Accurately ripped
04 [a22d1359|12e6ec50] (00+03/25) Accurately ripped
05 [73558e79|10a1c544] (00+03/25) Accurately ripped
06 [025ba38e|214b0e28] (00+03/25) Accurately ripped
07 [2846fd7a|ce14a132] (00+03/25) Accurately ripped
08 [141b83cc|9c7bda5d] (00+03/24) Accurately ripped
09 [c5e1e4f8|36c60231] (00+03/25) Accurately ripped
10 [2cbb30ab|6614cefc] (00+03/25) Accurately ripped
11 [41b6d148|867b6eb9] (00+03/25) Accurately ripped
Offsetted by -36:
01 [5ee49c6b] (02/25) Accurately ripped
02 [103f1aba] (02/25) Accurately ripped
03 [5a21bfa8] (02/25) Accurately ripped
04 [50d7b089] (02/25) Accurately ripped
05 [81257569] (02/25) Accurately ripped
06 [3343cce6] (02/25) Accurately ripped
07 [3abbe29e] (02/25) Accurately ripped
08 [3440cb8c] (02/24) Accurately ripped
09 [cedb3db4] (02/25) Accurately ripped
10 [7c342b07] (02/25) Accurately ripped
11 [e5089a64] (02/25) Accurately ripped
Offsetted by 10:
01 [0c630333] (02/25) Accurately ripped
02 [ea4f4b04] (02/25) Accurately ripped
03 [8ef3b052] (02/25) Accurately ripped
04 [9c530421] (02/25) Accurately ripped
05 [44d4b1e1] (02/25) Accurately ripped
06 [11379812] (02/25) Accurately ripped
07 [232684f0] (02/25) Accurately ripped
08 [6ebbd36c] (02/24) Accurately ripped
09 [7c474c52] (02/25) Accurately ripped
10 [5dc44075] (02/25) Accurately ripped
11 [cd3c8b32] (02/25) Accurately ripped
Offsetted by 623:
01 [35c55cdf] (08/25) Accurately ripped
02 [7be43dd3] (08/25) Accurately ripped
03 [fb5bcdb1] (08/25) Accurately ripped
04 [68cf2c05] (08/25) Accurately ripped
05 [6ef97915] (08/25) Accurately ripped
06 [ece2d814] (08/25) Accurately ripped
07 [68e00e4b] (08/25) Accurately ripped
08 [eeebb13c] (07/24) Accurately ripped
09 [dc5c255f] (08/25) Accurately ripped
10 [1ba2eeba] (08/25) Accurately ripped
11 [69285c87] (08/25) Accurately ripped
Offsetted by -19:
01 [f80dc267] (00/25) No match (V2 was not tested)
02 [4a93000d] (00/25) No match (V2 was not tested)
03 [0f0b294b] (00/25) No match (V2 was not tested)
04 [13b1c9dd] (00/25) No match (V2 was not tested)
05 [e54a64cd] (00/25) No match (V2 was not tested)
06 [ffb9b960] (00/25) No match (V2 was not tested)
07 [b204af4d] (00/25) No match (V2 was not tested)
08 [0184861c] (00/24) No match (V2 was not tested)
09 [51bad3cd] (00/25) No match (V2 was not tested)
10 [cf905f78] (00/25) No match (V2 was not tested)
11 [9f0589a5] (00/25) No match (V2 was not tested)

Track Peak [ CRC32 ] [W/O NULL] [ LOG ]
– 99,9 [EE243C49] [B1ACF778] CRC32
01 99,9 [FC389DC5] [4CC327AC]
02 98,9 [F5E0FE0E] [4FBF9E39]
03 94,8 [C90EAC67] [A7CA2301]
04 94,5 [D5EE2068] [54CC5A20]
05 93,3 [CC7D1388] [4866EACA]
06 98,4 [98E07B35] [E4AAFC26]
07 99,9 [C2E7C510] [5BD3A030]
08 95,2 [CED6C801] [A2AA8FC0]
09 99,9 [39E14C0B] [8F54672A]
10 99,9 [47F5ADDC] [136568D3]
11 99,9 [C59BD0A9] [8F049415]

foobar2000 1.3.8 / Dynamic Range Meter 1.1.1
log date: 2015-05-31 15:48:06

––––––––––––––––––––––––––––––––––––––––
Analyzed: Pinetop Perkins - Hubert Sumlin / Legends
––––––––––––––––––––––––––––––––––––––––

DR Peak RMS Duration Track
––––––––––––––––––––––––––––––––––––––––
DR13 0.00 dB -14.48 dB 4:47 01-Got My Mojo Working
DR14 -0.09 dB -16.50 dB 4:09 02-Nutcracker
DR13 -0.46 dB -17.28 dB 3:32 03-Rock Me Baby
DR13 -0.49 dB -15.31 dB 7:29 04-Hoochie Coochie Man
DR14 -0.60 dB -17.05 dB 6:08 05-The Sky is Crying
DR14 -0.13 dB -15.45 dB 5:22 06-Pinto Beans and Blackeyed Peas
DR14 0.00 dB -15.72 dB 4:20 07-Take It Easy Baby
DR13 -0.43 dB -14.73 dB 5:02 08-Shame, Shame, Shame
DR14 0.00 dB -16.75 dB 4:09 09-Come Back Baby
DR14 0.00 dB -16.49 dB 7:04 10-Sunnyland Slim
DR14 0.00 dB -15.38 dB 3:38 11-She Walks Right In
––––––––––––––––––––––––––––––––––––––––

Number of tracks: 11
Official DR value: DR14

Samplerate: 44100 Hz
Channels: 2
Bits per sample: 16
Bitrate: 746 kbps
Codec: FLAC
================================================================================

Pinetop Perkins & Hubert Sumlin - Legends (1998)

Pinetop Perkins & Hubert Sumlin - Legends (1998)

All thanks to original releaser - рмх222

More interesting music in My Blog